osu file format v14

[General]
AudioFilename: audio.mp3
AudioLeadIn: 0
PreviewTime: -1
Countdown: 1
SampleSet: None
StackLeniency: 0.7
Mode: 0
LetterboxInBreaks: 0
WidescreenStoryboard: 1

[Editor]
DistanceSpacing: 1.1
BeatDivisor: 3
GridSize: 8
TimelineZoom: 3.099999

[Metadata]
Title:Voracity
TitleUnicode:Voracity
Artist:MYTH & ROID
ArtistUnicode:MYTH & ROID
Creator:Dreyk
Version:Little insane
Source:オーバーロードIII
Tags:
BeatmapID:1764753
BeatmapSetID:826505

[Difficulty]
HPDrainRate:5
CircleSize:4.5
OverallDifficulty:9
ApproachRate:9.2
SliderMultiplier:2.2
SliderTickRate:1

[Events]
//Background and Video events
0,0,"albedo.jpg",0,0
//Break Periods
//Storyboard Layer 0 (Background)
//Storyboard Layer 1 (Fail)
//Storyboard Layer 2 (Pass)
//Storyboard Layer 3 (Foreground)
//Storyboard Sound Samples

[TimingPoints]
2454,300,4,1,0,100,1,0
2454,-142.857142857143,4,1,0,100,0,0
19353,-125,4,1,0,100,0,0
20553,-200,4,1,0,100,0,0
21753,-100,4,1,0,100,0,0
31353,-90.9090909090909,4,2,0,60,0,0
36153,-100,4,1,0,100,0,0
45753,-200,4,1,0,100,0,0
55353,-100,4,1,0,100,0,0
57153,-83.3333333333333,4,1,0,100,0,1
64953,-100,4,1,0,100,0,0
67203,-83.3333333333333,4,1,0,100,0,1
72453,-100,4,1,0,100,0,0
81753,-100,4,1,0,100,0,0

[Colours]
Combo1 : 192,160,63
Combo2 : 234,223,21
Combo3 : 75,75,75
Combo4 : 255,255,255

[HitObjects]
160,116,154,5,0,3:0:0:0:
160,116,754,1,0,3:0:0:0:
339,35,1354,1,0,3:0:0:0:
413,191,1654,1,0,3:0:0:0:
279,60,1954,2,0,L|247:203,1,146.666666666667,0|0,1:0|1:0,1:0:0:0:
430,145,2454,6,0,B|317:194|317:194|196:113|282:46|377:96|249:238,1,410.666654134115
430,168,3754,2,0,B|301:302|301:302|207:195,1,307.999990600586,0|0,1:0|1:0,1:0:0:0:
411,93,4854,2,0,B|240:112|240:112|271:311,1,359.333322367351,0|0,1:0|1:0,1:0:0:0:
202,196,6154,6,0,L|154:143,1,51.3333317667644,0|0,1:0|1:0,1:0:0:0:
279,149,6354,2,0,L|211:58,1,102.666663533529
373,44,6654,2,0,L|376:166,1,102.666663533529,0|0,1:0|1:0,1:0:0:0:
300,31,6954,2,0,L|193:164,1,153.999995300293,0|0,1:0|1:0,1:0:0:0:
332,260,7354,5,0,3:0:0:0:
190,287,7554,2,0,P|156:248|136:180,1,102.666663533529,0|0,1:0|1:0,1:0:0:0:
266,211,7954,2,0,P|272:248|249:328,1,102.666663533529,0|0,1:0|1:0,1:0:0:0:
41,340,8254,2,0,L|131:257,1,102.666663533529,0|0,1:0|1:0,1:0:0:0:
367,252,8554,6,0,L|264:198,1,102.666663533529,0|0,1:0|1:0,1:0:0:0:
418,174,8854,2,0,L|313:117,1,102.666663533529,0|0,1:0|1:0,1:0:0:0:
312,274,9154,2,0,P|282:278|214:233,1,102.666663533529,0|0,1:0|1:0,1:0:0:0:
87,270,9454,2,0,L|123:173,1,102.666663533529,0|0,1:0|1:0,1:0:0:0:
59,163,9753,6,0,L|179:135,1,102.666663533529,0|0,1:0|1:0,1:0:0:0:
187,323,10053,2,0,L|190:203,1,102.666663533529,0|0,1:0|1:0,1:0:0:0:
42,254,10353,2,0,L|138:189,1,102.666663533529,0|0,1:0|1:0,1:0:0:0:
347,289,10653,2,0,L|250:216,1,102.666663533529,0|0,1:0|1:0,1:0:0:0:
222,134,10953,5,0,3:0:0:0:
83,131,11253,6,0,L|176:202,1,102.666663533529,0|0,1:0|1:0,1:0:0:0:
225,279,11553,1,0,3:0:0:0:
170,50,11853,2,0,L|246:141,1,102.666663533529,0|0,1:0|1:0,1:0:0:0:
376,57,12153,2,0,P|386:125|387:177,1,102.666663533529,0|0,1:0|1:0,1:0:0:0:
317,286,12454,1,0,0:0:0:0:
230,149,12653,5,0,3:0:0:0:
230,149,12753,1,0,3:0:0:0:
186,0,12953,1,0,3:0:0:0:
186,0,13053,2,0,B|155:-19|99:242,1,256.666658833822,0|0,1:0|1:0,1:0:0:0:
336,183,13653,6,0,L|246:256,1,102.666663533529,0|0,1:0|1:0,1:0:0:0:
136,151,13953,2,0,L|204:138,1,51.3333317667644,0|0,3:0|3:0,3:0:0:0:
299,127,14153,1,0,3:0:0:0:
256,247,14253,2,0,P|230:249|192:245,1,51.3333317667644
143,166,14454,1,0,0:0:0:0:
0,232,14554,2,0,L|47:122,1,102.666663533529,0|0,1:0|1:0,1:0:0:0:
219,125,14853,5,0,3:0:0:0:
235,265,15053,1,0,3:0:0:0:
235,265,15153,2,0,L|286:225,1,51.3333317667644,0|0,1:0|1:0,1:0:0:0:
333,101,15353,5,0,3:0:0:0:
333,101,15453,2,0,B|293:129|221:117,1,102.666663533529,0|0,1:0|1:0,1:0:0:0:
333,101,15753,2,0,L|272:124,1,51.3333317667644,0|0,1:0|1:0,1:0:0:0:
154,225,15953,2,0,P|152:297|158:339,1,102.666663533529,0|0,1:0|1:0,1:0:0:0:
264,264,16353,2,0,P|281:279|325:300,1,51.3333317667644,0|0,1:0|1:0,1:0:0:0:
444,276,16553,1,0,3:0:0:0:
507,140,16653,6,0,L|445:158,1,51.3333317667644,0|0,1:0|1:0,1:0:0:0:
395,65,16853,1,0,1:0:0:0:
207,73,16953,2,0,P|270:109|279:149,1,102.666663533529,0|0,1:0|1:0,1:0:0:0:
159,174,17253,1,0,3:0:0:0:
368,189,17453,5,0,3:0:0:0:
368,189,17553,1,0,3:0:0:0:
218,63,17753,1,0,1:0:0:0:
218,63,17853,2,0,B|161:67|107:88,1,102.666663533529,0|0,1:0|1:0,1:0:0:0:
80,193,18153,1,0,1:0:0:0:
226,159,18353,6,0,P|256:183|283:203,1,51.3333317667644,0|0,3:0|3:0,3:0:0:0:
375,127,18554,2,0,P|390:193|390:244,1,102.666663533529
248,229,18853,2,0,L|268:162,1,51.3333317667644,0|0,3:0|3:0,3:0:0:0:
256,53,19053,2,0,L|186:152,1,102.666663533529,0|0,3:0|3:0,3:0:0:0:
323,257,19353,6,0,L|311:182,1,58.6666666666667,0|0,1:0|1:0,1:0:0:0:
181,188,19553,2,0,L|193:265,1,58.6666666666667,0|0,1:0|1:0,1:0:0:0:
280,182,19953,2,0,L|266:314,1,117.333333333333,0|0,1:0|1:0,1:0:0:0:
364,286,20253,2,0,L|381:150,1,117.333333333333,0|0,1:0|1:0,1:0:0:0:
260,220,20553,6,0,P|187:216|103:191,1,146.666666666667,0|0,1:0|1:0,1:0:0:0:
167,353,21153,2,0,B|73:359|23:297,1,146.666666666667,0|0,1:0|1:0,1:0:0:0:
255,218,21653,5,0,3:0:0:0:
66,115,21753,2,0,B|80:189|157:246,1,146.666666666667,0|0,1:0|1:0,1:0:0:0:
310,309,22053,1,0,3:0:0:0:
250,145,22253,1,0,3:0:0:0:
250,145,22353,1,0,3:0:0:0:
469,232,22553,1,0,3:0:0:0:
469,232,22653,2,0,B|425:258|324:174,1,146.666666666667,0|0,1:0|1:0,1:0:0:0:
245,156,22953,2,0,P|226:110|146:33,1,146.666666666667,0|0,1:0|1:0,1:0:0:0:
37,193,23253,2,0,P|109:184|195:207,1,146.666666666667,0|0,1:0|1:0,1:0:0:0:
200,3,23553,2,0,P|171:69|195:151,1,146.666666666667,0|0,1:0|1:0,1:0:0:0:
289,144,23853,2,0,L|224:281,1,146.666666666667,0|0,1:0|1:0,1:0:0:0:
91,313,24153,6,0,L|131:164,1,146.666666666667,0|0,1:0|1:0,1:0:0:0:
201,45,24453,1,0,1:0:0:0:
369,84,24653,1,0,3:0:0:0:
369,170,24753,1,0,3:0:0:0:
164,190,24953,1,0,3:0:0:0:
164,190,25053,2,0,P|165:228|230:332,1,146.666666666667,0|0,1:0|1:0,1:0:0:0:
310,239,25360,2,0,P|381:220|459:176,1,146.666666666667,0|0,1:0|1:0,1:0:0:0:
214,81,25653,2,0,L|359:130,1,146.666666666667,0|0,1:0|1:0,1:0:0:0:
479,228,25953,2,0,L|320:213,1,146.666666666667,0|0,1:0|1:0,1:0:0:0:
255,136,26253,2,0,P|251:175|282:289,1,146.666666666667,0|0,1:0|1:0,1:0:0:0:
396,78,26553,5,0,3:0:0:0:
182,319,27053,1,0,3:0:0:0:
102,31,27453,1,0,3:0:0:0:
382,164,27953,1,0,3:0:0:0:
104,100,28353,2,0,L|160:244,1,146.666666666667,0|0,3:0|3:0,3:0:0:0:
316,136,28653,2,0,L|170:78,1,146.666666666667,0|0,3:0|3:0,3:0:0:0:
41,338,28953,1,0,3:0:0:0:
238,203,29453,1,0,3:0:0:0:
57,108,29852,1,0,3:0:0:0:
276,211,30353,1,0,3:0:0:0:
285,88,30752,2,0,L|444:71,1,146.666666666667,0|0,3:0|3:0,3:0:0:0:
457,273,31052,2,0,B|421:314|421:314|313:309,1,146.666666666667,0|0,3:0|3:0,3:0:0:0:
96,184,31353,5,0,3:0:0:0:
279,131,31653,1,0,2:0:0:0:
431,287,31853,2,0,L|265:227,1,161.333338256836,0|0,2:0|2:0,2:0:0:0:
206,328,32153,1,0,2:0:0:0:
206,328,32253,2,0,L|162:245,1,80.6666691284181,0|0,2:0|2:0,2:0:0:0:
59,207,32453,1,0,2:0:0:0:
59,207,32553,2,0,L|101:291,1,80.6666691284181,0|0,2:0|2:0,2:0:0:0:
329,274,32753,2,0,L|240:120,1,161.333338256836,0|0,2:0|2:0,2:0:0:0:
61,177,33053,2,0,L|236:172,1,161.333338256836,0|0,2:0|2:0,2:0:0:0:
325,174,33353,5,0,2:0:0:0:
325,174,33453,2,0,P|325:226|342:270,1,80.6666691284181,0|0,2:0|2:0,2:0:0:0:
442,171,33653,1,0,2:0:0:0:
442,171,33753,2,0,P|453:208|446:264,1,80.6666691284181,0|0,2:0|2:0,2:0:0:0:
191,319,33953,2,0,L|364:282,1,161.333338256836,0|0,2:0|2:0,2:0:0:0:
335,106,34253,2,0,L|130:234,1,242.000007385254,0|0,2:0|2:0,2:0:0:0:
20,268,34653,1,0,2:0:0:0:
279,303,34853,1,0,2:0:0:0:
279,303,34953,2,0,P|241:289|104:127,1,242.000007385254,0|0,2:0|2:0,2:0:0:0:
246,0,35453,5,0,2:0:0:0:
246,0,35553,2,0,P|308:20|429:313,1,403.33334564209,0|0,2:0|2:0,2:0:0:0:
211,125,36153,6,0,L|276:263,1,146.666666666667,0|0,3:0|3:0,3:0:0:0:
355,357,36453,1,0,3:0:0:0:
396,183,36653,1,0,3:0:0:0:
474,191,36754,1,0,3:0:0:0:
414,39,36953,1,0,3:0:0:0:
259,15,37053,2,0,L|296:90,1,73.3333333333333,0|0,3:0|3:0,3:0:0:0:
347,205,37253,1,0,3:0:0:0:
347,205,37353,1,0,3:0:0:0:
254,119,37653,2,0,L|123:220,1,146.666666666667,0|0,3:0|3:0,3:0:0:0:
105,346,37953,2,0,L|169:284,1,73.3333333333333,0|0,3:0|3:0,3:0:0:0:
14,260,38253,2,0,P|9:187|30:117,1,146.666666666667,0|0,3:0|3:0,3:0:0:0:
302,94,38553,6,0,L|446:156,1,146.666666666667,0|0,1:0|1:0,1:0:0:0:
409,270,38853,1,0,3:0:0:0:
400,126,39053,1,0,3:0:0:0:
400,126,39153,1,0,3:0:0:0:
208,89,39353,1,0,3:0:0:0:
208,89,39453,2,0,L|342:176,1,146.666666666667,0|0,1:0|1:0,1:0:0:0:
418,232,39753,1,0,3:0:0:0:
280,286,39953,1,0,0:0:0:0:
280,286,40053,2,0,L|142:200,1,146.666666666667,0|0,1:0|1:0,1:0:0:0:
135,40,40353,2,0,L|136:114,1,73.3333333333333,0|0,1:0|1:0,1:0:0:0:
139,265,40553,1,0,3:0:0:0:
235,384,40653,2,0,L|296:235,1,146.666666666667,0|0,1:0|1:0,1:0:0:0:
152,151,40953,5,0,3:0:0:0:
372,342,41453,1,0,3:0:0:0:
13,277,41853,2,0,L|51:123,1,146.666666666667,0|0,1:0|1:0,1:0:0:0:
216,129,42353,1,0,3:0:0:0:
295,262,42753,5,0,3:0:0:0:
323,0,43053,1,0,3:0:0:0:
79,194,43353,1,0,3:0:0:0:
329,185,43853,6,0,L|378:334,1,146.666666666667,0|0,1:0|1:0,1:0:0:0:
225,42,44253,1,0,3:0:0:0:
181,268,44753,1,0,3:0:0:0:
278,43,45153,5,0,3:0:0:0:
132,291,45453,1,0,3:0:0:0:
26,93,45753,1,0,3:0:0:0:
210,269,46353,6,0,L|332:239,1,110,0|0,2:0|2:0,2:0:0:0:
408,339,46953,2,0,L|359:88,1,256.666658833822,0|0,2:0|2:0,2:0:0:0:
242,85,47853,1,0,2:0:0:0:
155,144,48153,1,0,2:0:0:0:
242,169,48453,2,0,P|281:174|326:193,1,73.3333333333333,0|0,2:0|2:0,2:0:0:0:
206,272,48753,2,0,P|247:231|261:196,1,73.3333333333333,0|0,2:0|2:0,2:0:0:0:
212,162,49053,1,0,2:0:0:0:
119,209,49353,1,0,2:0:0:0:
177,99,49653,2,0,P|104:103|40:137,1,146.666666666667,0|0,2:0|2:0,2:0:0:0:
125,223,50253,1,0,2:0:0:0:
232,142,50553,6,0,P|262:181|304:287,1,146.666666666667,0|0,2:0|2:0,2:0:0:0:
156,212,51153,6,0,P|110:238|96:333,1,146.666666666667,0|0,2:0|2:0,2:0:0:0:
334,131,51753,2,0,P|215:135|198:252,1,256.666658833822,0|0,2:0|2:0,2:0:0:0:
77,211,52653,2,0,P|68:188|79:123,1,73.3333333333333,0|0,2:0|2:0,2:0:0:0:
169,85,52953,2,0,P|240:101|302:160,1,146.666666666667,0|0,2:0|2:0,2:0:0:0:
233,28,53553,2,0,P|271:10|378:48,1,146.666666666667,0|0,2:0|2:0,2:0:0:0:
184,150,54153,2,0,P|195:189|452:128,1,403.333333333333,0|0,2:0|2:0,2:0:0:0:
158,281,55353,5,0,3:0:0:0:
324,34,55653,1,0,3:0:0:0:
434,277,55953,1,0,3:0:0:0:
118,308,56253,1,0,3:0:0:0:
259,128,56553,1,0,3:0:0:0:
102,92,57153,6,0,B|202:294|240:316,1,263.99999194336,0|0,1:0|1:0,1:0:0:0:
344,58,57653,2,0,P|375:87|449:210,1,175.999994628906,0|0,1:0|1:0,1:0:0:0:
228,235,57953,1,0,3:0:0:0:
228,235,58053,2,0,P|217:277|148:390,1,175.999994628906,0|0,1:0|1:0,1:0:0:0:
25,259,58353,1,0,1:0:0:0:
83,91,58553,1,0,1:0:0:0:
223,215,58653,1,0,1:0:0:0:
223,215,58853,1,0,1:0:0:0:
386,78,58953,2,0,P|429:108|371:277,1,263.99999194336,0|0,1:0|1:0,1:0:0:0:
87,94,59453,6,0,P|136:108|251:43,1,175.999994628906,0|0,1:0|1:0,1:0:0:0:
301,203,59753,1,0,0:0:0:0:
301,203,59853,2,0,L|282:299,1,87.9999973144532,0|0,1:0|1:0,1:0:0:0:
0,272,60054,6,0,L|153:155,1,175.999994628906,0|0,1:0|1:0,1:0:0:0:
248,195,60354,1,0,3:0:0:0:
248,195,60454,2,0,L|143:346,1,175.999994628906,0|0,1:0|1:0,1:0:0:0:
52,160,60753,2,0,L|205:251,1,175.999994628906,0|0,1:0|1:0,1:0:0:0:
270,174,61053,2,0,L|105:77,1,175.999994628906,0|0,1:0|1:0,1:0:0:0:
12,259,61353,2,0,P|0:217|0:174,1,87.9999973144532,0|0,1:0|1:0,1:0:0:0:
201,251,61553,5,0,3:0:0:0:
201,251,61653,2,0,L|230:153,1,87.9999973144532,0|0,1:0|1:0,1:0:0:0:
443,175,61853,1,0,3:0:0:0:
443,175,61953,1,0,3:0:0:0:
268,116,62153,2,0,L|105:184,1,175.999994628906,0|0,1:0|0:0,0:0:0:0:
304,276,62454,1,0,3:0:0:0:
304,276,62554,2,0,L|301:170,1,87.9999973144532,0|0,1:0|1:0,1:0:0:0:
475,139,62753,6,0,P|391:115|322:62,1,175.999994628906,0|0,1:0|1:0,1:0:0:0:
423,135,63153,2,0,P|385:125|305:9,1,175.999994628906,0|0,1:0|1:0,1:0:0:0:
236,38,63453,2,0,P|149:49|71:88,1,175.999994628906,0|0,1:0|1:0,1:0:0:0:
0,220,63753,2,0,P|79:255|167:258,1,175.999994628906,0|0,1:0|1:0,1:0:0:0:
381,178,64053,2,0,P|350:151|273:26,1,175.999994628906,0|0,1:0|1:0,1:0:0:0:
81,221,64353,2,0,P|104:181|209:99,1,175.999994628906,0|0,1:0|1:0,1:0:0:0:
315,166,64653,2,0,L|232:330,1,175.999994628906,0|0,1:0|1:0,1:0:0:0:
153,149,64953,5,0,3:0:0:0:
418,81,65553,1,0,3:0:0:0:
156,96,65853,2,0,L|83:223,1,146.666666666667,0|0,1:0|1:0,1:0:0:0:
183,327,66153,1,0,3:0:0:0:
74,230,66653,1,0,3:0:0:0:
294,176,66954,1,0,1:0:0:0:
251,121,67054,1,0,1:0:0:0:
277,322,67154,6,0,L|351:195,1,131.99999597168,0|0,1:0|1:0,1:0:0:0:
284,87,67653,2,0,L|212:258,1,175.999994628906,0|0,1:0|1:0,1:0:0:0:
81,194,67953,2,0,L|187:214,1,87.9999973144532,0|0,1:0|1:0,1:0:0:0:
267,105,68153,1,0,3:0:0:0:
267,105,68253,2,0,P|287:139|270:273,1,175.999994628906,0|0,1:0|1:0,1:0:0:0:
223,202,68553,2,0,P|189:190|148:137,1,87.9999973144532,0|0,1:0|1:0,1:0:0:0:
51,93,68753,1,0,3:0:0:0:
271,44,68853,1,0,3:0:0:0:
175,260,69053,6,0,L|358:217,1,175.999994628906,0|0,1:0|1:0,1:0:0:0:
151,104,69353,1,0,3:0:0:0:
151,104,69453,1,0,3:0:0:0:
371,196,69653,2,0,L|205:108,1,175.999994628906,0|0,1:0|1:0,1:0:0:0:
216,278,69953,1,0,3:0:0:0:
216,278,70053,2,0,P|182:292|34:300,1,175.999994628906,0|0,1:0|1:0,1:0:0:0:
91,207,70353,2,0,P|108:191|165:157,1,87.9999973144532,0|0,1:0|1:0,1:0:0:0:
251,196,70553,1,0,3:0:0:0:
251,196,70653,2,0,L|197:14,1,175.999994628906,0|0,1:0|1:0,1:0:0:0:
85,146,70953,6,0,L|139:214,1,87.9999973144532,0|0,1:0|1:0,1:0:0:0:
144,272,71153,2,0,L|255:261,1,87.9999973144532,0|0,1:0|1:0,1:0:0:0:
90,262,71353,2,0,L|139:359,1,87.9999973144532,0|0,1:0|1:0,1:0:0:0:
279,302,71553,2,0,P|232:180|122:112,1,263.99999194336,0|0,1:0|1:0,1:0:0:0:
115,299,72053,1,0,3:0:0:0:
115,299,72153,1,0,3:0:0:0:
97,184,72453,6,0,L|133:99,1,73.3333333333333,0|0,1:0|1:0,1:0:0:0:
316,29,72653,1,0,3:0:0:0:
316,29,72753,2,0,L|236:161,1,146.666666666667,0|0,1:0|1:0,1:0:0:0:
456,228,73053,2,0,L|367:207,1,73.3333333333333,0|0,1:0|0:0,0:0:0:0:
120,270,73253,5,0,3:0:0:0:
120,270,73353,2,0,P|148:295|269:305,1,146.666666666667,0|0,1:0|1:0,1:0:0:0:
124,151,73653,6,0,P|125:111|186:14,1,146.666666666667,0|0,1:0|1:0,1:0:0:0:
342,147,73953,2,0,P|283:104|216:77,1,146.666666666667,0|0,1:0|1:0,1:0:0:0:
194,297,74253,2,0,L|129:243,1,73.3333333333333,0|0,1:0|1:0,1:0:0:0:
419,123,74453,5,0,3:0:0:0:
419,123,74553,2,0,L|310:236,1,146.666666666667,0|0,1:0|1:0,1:0:0:0:
135,222,74853,6,0,P|135:172|178:74,1,146.666666666667,0|0,1:0|1:0,1:0:0:0:
212,234,75153,2,0,P|169:194|154:95,1,146.666666666667,0|0,1:0|1:0,1:0:0:0:
317,103,75453,2,0,L|168:142,1,146.666666666667,0|0,1:0|1:0,1:0:0:0:
236,187,75753,2,0,L|93:220,1,146.666666666667,0|0,1:0|1:0,1:0:0:0:
157,124,76053,2,0,L|307:176,1,146.666666666667,0|0,1:0|1:0,1:0:0:0:
401,243,76353,1,0,3:0:0:0:
78,323,76553,5,0,3:0:0:0:
73,317,76653,2,0,L|137:248,1,73.3333333333333,0|0,1:0|1:0,1:0:0:0:
0,223,76853,1,0,3:0:0:0:
0,223,76953,2,0,P|11:178|72:87,1,146.666666666667,0|0,1:0|1:0,1:0:0:0:
207,191,77253,5,0,3:0:0:0:
252,324,77453,1,0,3:0:0:0:
252,324,77553,1,0,3:0:0:0:
378,24,77753,5,0,3:0:0:0:
373,26,77854,2,0,P|406:40|490:123,1,146.666666666667,0|0,1:0|1:0,1:0:0:0:
277,128,78154,2,0,L|202:-14,1,146.666666666667,0|0,1:0|1:0,1:0:0:0:
83,72,78454,2,0,P|110:83|183:180,1,146.666666666667,0|0,1:0|1:0,1:0:0:0:
0,249,78753,6,0,L|73:294,1,73.3333333333333,0|0,1:0|1:0,1:0:0:0:
257,248,78953,1,0,3:0:0:0:
257,248,79053,2,0,P|276:225|291:172,1,73.3333333333333,0|0,1:0|1:0,1:0:0:0:
46,69,79253,1,0,3:0:0:0:
91,43,79353,2,0,L|180:22,1,73.3333333333333,0|0,1:0|1:0,1:0:0:0:
171,253,79653,6,0,L|219:177,1,73.3333333333333,0|0,1:0|0:0,0:0:0:0:
367,152,79853,1,0,3:0:0:0:
367,152,79953,1,0,3:0:0:0:
66,89,80153,5,0,3:0:0:0:
66,89,80253,2,0,P|122:80|211:107,1,146.666666666667,0|0,1:0|1:0,1:0:0:0:
385,89,80553,1,0,3:0:0:0:
378,298,80753,2,0,L|215:300,1,146.666666666667,0|0,1:0|1:0,1:0:0:0:
22,219,81153,2,0,L|99:164,1,73.3333333333333,0|0,1:0|0:0,0:0:0:0:
214,77,81353,1,0,3:0:0:0:
214,77,81453,2,0,L|289:32,1,73.3333333333333,0|0,1:0|1:0,1:0:0:0:
330,157,81653,1,0,3:0:0:0:
180,170,81753,5,0,3:0:0:0:
382,62,82253,1,0,3:0:0:0:
391,280,82653,2,0,L|233:285,1,146.666666666667,0|0,1:0|1:0,1:0:0:0:
13,159,83153,1,0,3:0:0:0:
247,126,83553,1,0,3:0:0:0:
325,258,84153,5,0,3:0:0:0:
162,243,84653,2,0,P|149:211|142:153,1,73.3333333333333,0|0,1:0|1:0,1:0:0:0:
162,243,85053,1,0,3:0:0:0:
303,104,85553,2,0,L|360:33,1,73.3333333333333,0|0,1:0|1:0,1:0:0:0:
304,253,85953,1,0,3:0:0:0:
162,231,86253,2,0,L|127:144,1,73.3333333333333,0|0,1:0|1:0,1:0:0:0:
272,119,86553,1,0,3:0:0:0:
91,54,87053,1,0,3:0:0:0:
278,106,87453,1,0,3:0:0:0:
256,192,87653,12,0,88953,3:0:0:0:
