osu file format v14

[General]
AudioFilename: audio.mp3
AudioLeadIn: 0
PreviewTime: 19520
Countdown: 1
SampleSet: None
StackLeniency: 0.2
Mode: 0
LetterboxInBreaks: 0
WidescreenStoryboard: 0

[Editor]
Bookmarks: 11120
DistanceSpacing: 2
BeatDivisor: 6
GridSize: 4
TimelineZoom: 2.699999

[Metadata]
Title:VORACITY (TV size)
TitleUnicode:VORACITY (TV size)
Artist:MYTH & ROID
ArtistUnicode:MYTH & ROID
Creator:Turquoise-
Version:HUNGER
Source:オーバーロードⅢ
Tags:overlord season 3 1/3
BeatmapID:1707682
BeatmapSetID:814308

[Difficulty]
HPDrainRate:6
CircleSize:3.8
OverallDifficulty:9.3
ApproachRate:9.3
SliderMultiplier:2
SliderTickRate:1

[Events]
//Background and Video events
0,0,"albedo 2.jpg",0,0
//Break Periods
2,30520,34536
//Storyboard Layer 0 (Background)
//Storyboard Layer 1 (Fail)
//Storyboard Layer 2 (Pass)
//Storyboard Layer 3 (Foreground)
//Storyboard Sound Samples

[TimingPoints]
320,300,4,2,0,50,1,0
920,-100,4,2,0,70,0,0
1070,-100,4,2,0,75,0,0
1370,-100,4,2,0,5,0,0
1420,-100,4,2,0,80,0,0
2720,-133.333333333333,4,2,0,80,0,0
2820,-133.333333333333,4,2,0,70,0,0
2920,-133.333333333333,4,2,0,60,0,0
3020,-133.333333333333,4,2,0,40,0,0
3220,-153.846153846154,4,2,0,80,0,0
3820,-133.333333333333,4,2,0,80,0,0
4170,-133.333333333333,4,2,0,5,0,0
4220,-133.333333333333,4,2,0,80,0,0
7520,-200,4,2,0,50,0,0
8720,-133.333333333333,4,2,0,50,0,0
10219,-80,4,2,0,55,0,0
10519,-133.333333333333,4,2,0,60,0,0
10819,-80,4,2,0,65,0,0
11120,-100,4,2,0,65,0,0
11368,-100,4,2,0,5,0,0
11418,-100,4,2,0,70,0,0
12468,-100,4,2,0,5,0,0
12518,-100,4,2,0,70,0,0
12918,-80,4,2,0,70,0,0
13518,-100,4,2,0,70,0,0
13768,-100,4,2,0,5,0,0
13818,-100,4,2,0,70,0,0
14868,-100,4,2,0,5,0,0
14918,-100,4,2,0,70,0,0
15320,-80,4,2,0,70,0,0
15918,-100,4,2,0,70,0,0
16170,-100,4,2,0,5,0,0
16220,-100,4,2,0,70,0,0
17270,-100,4,2,0,5,0,0
17320,-100,4,2,0,70,0,0
17720,-71.4285714285714,4,2,0,70,0,0
18620,-71.4285714285714,4,2,0,60,0,0
18920,-71.4285714285714,4,2,0,50,0,0
19220,-71.4285714285714,4,2,0,40,0,0
19520,-133.333333333333,4,2,0,50,0,0
20170,-133.333333333333,4,2,0,60,0,0
20720,-100,4,2,0,70,0,0
20870,-100,4,2,0,5,0,0
20920,-100,4,2,0,70,0,0
21170,-100,4,2,0,5,0,0
21220,-100,4,2,0,70,0,0
21770,-100,4,2,0,5,0,0
21820,-100,4,2,0,70,0,0
22520,-80,4,2,0,70,0,0
22820,-66.6666666666667,4,2,0,70,0,0
23120,-100,4,2,0,70,0,0
23270,-100,4,2,0,5,0,0
23320,-100,4,2,0,70,0,0
23570,-100,4,2,0,5,0,0
23620,-100,4,2,0,70,0,0
24920,-80,4,2,0,70,0,0
25220,-66.6666666666667,4,2,0,70,0,0
25520,-40,4,2,0,70,0,0
35120,-100,4,2,0,70,0,0
35270,-100,4,2,0,5,0,0
35320,-100,4,2,0,70,0,0
35570,-100,4,2,0,5,0,0
35620,-100,4,2,0,70,0,0
35870,-100,4,2,0,5,0,0
35920,-100,4,2,0,70,0,0
36920,-80,4,2,0,70,0,0
37220,-66.6666666666667,4,2,0,70,0,0
37520,-100,4,2,0,70,0,0
37670,-100,4,2,0,5,0,0
37720,-100,4,2,0,70,0,0
37970,-100,4,2,0,5,0,0
38020,-100,4,2,0,70,0,0
38270,-100,4,2,0,5,0,0
38320,-100,4,2,0,70,0,0
38870,-100,4,2,0,5,0,0
38920,-100,4,2,0,70,0,0
39320,-80,4,2,0,70,0,0
39620,-66.6666666666667,4,2,0,70,0,0
39920,-40,4,2,0,70,0,0
44720,-200,4,2,0,80,0,0
44770,-200,4,2,0,40,0,0
52220,-181.818181818182,4,2,0,45,0,0
52320,-166.666666666667,4,2,0,50,0,0
52820,-153.846153846154,4,2,0,55,0,0
53120,-142.857142857143,4,2,0,60,0,0
53420,-133.333333333333,4,2,0,65,0,0
53720,-125,4,2,0,70,0,0
54320,-400,4,2,0,70,0,0
54620,-133.333333333333,4,2,0,70,0,0
54920,-79.9999999999999,4,2,0,70,0,0
55220,-57.1428571428571,4,2,0,75,0,0
55520,-25,4,2,0,75,0,0
55620,-25,4,2,0,5,0,0
56120,-25,4,2,0,70,0,0
56270,-100,4,2,0,75,0,0
56570,-66.6666666666667,4,2,0,5,0,0
56620,-66.6666666666667,4,2,0,80,0,1
56820,-66.6666666666667,4,2,0,5,0,1
56870,-66.6666666666667,4,2,0,80,0,1
57170,-66.6666666666667,4,2,0,5,0,1
57220,-66.6666666666667,4,2,0,80,0,1
57470,-66.6666666666667,4,2,0,5,0,1
57520,-66.6666666666667,4,2,0,80,0,1
58070,-66.6666666666667,4,2,0,5,0,1
58120,-66.6666666666667,4,2,0,80,0,1
59020,-57.1428571428571,4,2,0,80,0,1
59420,-66.6666666666667,4,2,0,80,0,1
59570,-66.6666666666667,4,2,0,5,0,1
59620,-66.6666666666667,4,2,0,80,0,1
59870,-66.6666666666667,4,2,0,5,0,1
59920,-66.6666666666667,4,2,0,80,0,1
60170,-66.6666666666667,4,2,0,5,0,1
60220,-66.6666666666667,4,2,0,80,0,1
60470,-66.6666666666667,4,2,0,5,0,1
60520,-66.6666666666667,4,2,0,80,0,1
60770,-66.6666666666667,4,2,0,5,0,1
60820,-66.6666666666667,4,2,0,80,0,1
61820,-100,4,2,0,80,0,1
62120,-90.9090909090909,4,2,0,80,0,1
62420,-83.3333333333333,4,2,0,80,0,1
62720,-76.9230769230769,4,2,0,80,0,1
63020,-71.4285714285714,4,2,0,80,0,1
63320,-66.6666666666667,4,2,0,80,0,1
63620,-62.5,4,2,0,80,0,1
63920,-40,4,2,0,80,0,0
64220,-200,4,2,0,80,0,0
64520,-40,4,2,0,80,0,0
64820,-200,4,2,0,80,0,0
65120,-40,4,2,0,80,0,0
65570,-50,4,2,0,80,0,0
66220,-66.6666666666667,4,2,0,80,0,1
66470,-66.6666666666667,4,2,0,5,0,1
66520,-66.6666666666667,4,2,0,80,0,1
66770,-66.6666666666667,4,2,0,5,0,1
66820,-66.6666666666667,4,2,0,80,0,1
67070,-66.6666666666667,4,2,0,5,0,1
67120,-66.6666666666667,4,2,0,80,0,1
67670,-66.6666666666667,4,2,0,5,0,1
67720,-66.6666666666667,4,2,0,80,0,1
68620,-57.1428571428571,4,2,0,80,0,1
69020,-66.6666666666667,4,2,0,80,0,1
69170,-66.6666666666667,4,2,0,5,0,1
69220,-66.6666666666667,4,2,0,80,0,1
69470,-66.6666666666667,4,2,0,5,0,1
69520,-66.6666666666667,4,2,0,80,0,1
69770,-66.6666666666667,4,2,0,5,0,1
69820,-66.6666666666667,4,2,0,80,0,1
69920,-50,4,2,0,80,0,1
70070,-66.6666666666667,4,2,0,5,0,1
70120,-50,4,2,0,80,0,1
70270,-66.6666666666667,4,2,0,5,0,1
70320,-50,4,2,0,80,0,1
70470,-66.6666666666667,4,2,0,5,0,1
70520,-50,4,2,0,80,0,1
70670,-66.6666666666667,4,2,0,5,0,1
70720,-66.6666666666667,4,2,0,80,0,1
71120,-66.6666666666667,4,2,0,80,0,0
74720,-100,4,2,0,80,0,0
75020,-66.6666666666667,4,2,0,80,0,0
75320,-200,4,2,0,80,0,0
75620,-40,4,2,0,80,0,0
75920,-80,4,2,0,80,0,0
76170,-80,4,2,0,5,0,0
76220,-80,4,2,0,80,0,0
77270,-80,4,2,0,5,0,0
77320,-80,4,2,0,80,0,0
77720,-66.6666666666667,4,2,0,80,0,0
78320,-80,4,2,0,80,0,0
78570,-80,4,2,0,5,0,0
78620,-80,4,2,0,80,0,0
79670,-80,4,2,0,5,0,0
79720,-80,4,2,0,80,0,0
80120,-66.6666666666667,4,2,0,80,0,0
80720,-25,4,2,0,80,0,0
80770,-25,4,2,0,5,0,0
80820,-25,4,2,0,80,0,0
81270,-25,4,2,0,5,0,0
81320,-25,4,2,0,80,0,0
81670,-25,4,2,0,5,0,0
81720,-25,4,2,0,80,0,0
82170,-25,4,2,0,5,0,0
82220,-25,4,2,0,80,0,0
82570,-25,4,2,0,5,0,0
82620,-25,4,2,0,80,0,0
83170,-25,4,2,0,5,0,0
83220,-25,4,2,0,80,0,0
83670,-25,4,2,0,5,0,0
83720,-25,4,2,0,80,0,0
84070,-25,4,2,0,5,0,0
84120,-25,4,2,0,80,0,0
84570,-25,4,2,0,5,0,0
84620,-25,4,2,0,80,0,0
84970,-25,4,2,0,5,0,0
85020,-25,4,2,0,80,0,0

[Colours]
Combo1 : 89,40,46
Combo2 : 255,0,0
Combo3 : 170,0,0
Combo4 : 85,0,0

[HitObjects]
184,148,920,5,0,0:0:0:0:
124,85,1070,2,0,B|87:123|100:178|100:178|60:212|63:288,1,200
64,268,1420,5,0,0:0:0:0:
360,180,1820,1,0,0:0:0:0:
360,180,2120,5,0,0:0:0:0:
141,102,2420,1,0,0:0:0:0:
183,331,2720,6,0,P|192:296|216:272,3,50.0000019073487
340,200,3220,2,0,P|328:228|292:256,1,64.9999970245363
172,184,3520,2,0,P|184:156|220:128,1,64.9999970245363
319,93,3820,6,0,B|372:76|372:76|435:109|435:109|503:93,1,175.00000667572
483,98,4220,5,0,0:0:0:0:
508,216,4520,1,0,0:0:0:0:
442,317,4820,1,0,0:0:0:0:
323,341,5120,6,0,L|352:230,1,100
445,247,5420,1,0,0:0:0:0:
392,92,5570,1,0,0:0:0:0:
392,92,5870,1,0,0:0:0:0:
142,157,6320,5,0,0:0:0:0:
142,157,7520,6,0,B|202:272|315:220|284:211|424:152|456:296,1,383.333333333333
473,313,8720,6,0,L|324:300,1,150.000005722046
323,299,9320,1,0,0:0:0:0:
323,299,9620,1,0,0:0:0:0:
323,299,9920,6,0,L|329:219,1,75.0000028610231
142,157,10220,6,0,L|131:32,1,125
344,320,10520,6,0,L|350:240,1,75.0000028610231
124,136,10820,6,0,L|113:11,1,125
84,288,11120,6,0,P|164:288|236:228,1,166.666666666667
240,200,11420,1,0,0:0:0:0:
356,128,11620,5,0,0:0:0:0:
330,224,11720,1,0,0:0:0:0:
266,104,11920,5,0,0:0:0:0:
446,103,12020,2,0,B|461:177|422:162|439:247,1,133.333333333333
468,336,12320,2,0,P|404:312|360:328,1,100
344,340,12520,1,0,0:0:0:0:
308,244,12620,2,0,P|264:191|218:183,1,100
104,308,12920,6,0,L|94:196,1,83.3333333333333
224,272,13120,1,0,0:0:0:0:
124,328,13220,2,0,L|114:216,1,83.3333333333333
244,292,13420,1,0,0:0:0:0:
168,152,13520,6,0,P|217:86|296:64,1,166.666666666667
334,71,13820,1,0,0:0:0:0:
348,204,14020,5,0,0:0:0:0:
397,117,14120,1,0,0:0:0:0:
412,250,14320,5,0,0:0:0:0:
225,270,14420,2,0,B|175:213|216:206|159:141,1,133.333333333333
112,64,14720,2,0,P|179:52|209:16,1,100
217,0,14920,1,0,0:0:0:0:
296,65,15020,2,0,P|360:88|404:72,1,100
441,192,15320,6,0,L|421:302,1,83.3333333333333
312,204,15520,1,0,0:0:0:0:
426,167,15620,2,0,L|406:277,1,83.3333333333333
298,180,15820,1,0,0:0:0:0:
181,243,15920,6,0,P|211:319|281:361,1,166.666666666667
320,364,16220,1,0,0:0:0:0:
426,274,16420,5,0,0:0:0:0:
426,167,16520,1,0,0:0:0:0:
336,61,16720,5,0,0:0:0:0:
312,248,16820,2,0,B|238:265|251:225|167:245,1,133.333333333333
84,288,17120,2,0,P|107:223|90:179,1,100
79,164,17320,1,0,0:0:0:0:
175,128,17420,2,0,P|226:84|235:37,1,100
80,0,17720,6,0,L|111:115,1,93.3333304850261
272,168,17920,1,0,0:0:0:0:
457,79,18020,2,0,L|415:191,1,93.3333304850261
252,188,18220,1,0,0:0:0:0:
352,8,18320,5,0,0:0:0:0:
332,28,18620,1,0,0:0:0:0:
312,48,18920,1,0,0:0:0:0:
292,68,19220,1,0,0:0:0:0:
79,164,19520,6,0,B|60:104|112:54|171:55|209:94|219:122|192:178|224:214|280:230,1,325.000012397767
265,224,20620,1,0,0:0:0:0:
412,84,20720,6,0,L|401:199,1,100
400,220,20920,1,0,0:0:0:0:
247,151,21020,2,0,P|257:101|302:62,1,100
324,62,21220,1,0,0:0:0:0:
265,224,21320,1,0,0:0:0:0:
285,244,21520,5,0,0:0:0:0:
123,185,21620,2,0,P|107:137|126:80,1,100
144,69,21820,1,0,0:0:0:0:
173,238,21920,2,0,L|137:371,1,133.333333333333
123,185,22220,2,0,L|157:56,1,133.333333333333
372,176,22520,2,0,B|317:166|317:166|263:176|263:176|186:163,1,166.666666666667
437,71,22820,2,0,L|224:33,1,200.000007629395
382,295,23120,6,0,P|353:252|357:193,1,100
372,176,23320,1,0,0:0:0:0:
208,167,23420,2,0,L|234:54,1,100
240,35,23620,1,0,0:0:0:0:
134,134,23720,1,0,0:0:0:0:
112,116,23920,5,0,0:0:0:0:
176,299,24020,2,0,L|202:186,1,100
208,167,24220,1,0,0:0:0:0:
104,312,24320,2,0,L|243:349,1,133.333333333333
404,312,24620,2,0,L|275:277,1,133.333333333333
231,69,24920,2,0,P|176:128|220:216,1,166.666666666667
424,292,25220,2,0,P|484:224|440:128,1,200.000007629395
212,48,25520,6,0,P|156:116|164:200,1,166.666666666667
312,156,26020,2,0,P|256:122|308:168,1,166.666666666667
270,185,26420,6,0,P|326:253|318:337,1,166.666666666667
169,292,26920,2,0,P|224:258|173:304,1,166.666666666667
208,321,27320,5,0,0:0:0:0:
90,44,27620,1,0,0:0:0:0:
389,81,27920,6,0,P|307:114|275:192,1,166.666666666667
426,220,28420,2,0,P|393:164|416:228,1,166.666666666667
381,226,28820,6,0,P|392:313|341:380,1,166.666666666667
241,263,29320,2,0,P|305:263|238:275,1,166.666666666667
257,308,29720,5,0,0:0:0:0:
139,31,30020,1,0,0:0:0:0:
71,324,30320,5,0,0:0:0:0:
71,324,35120,6,0,L|82:209,1,100
85,188,35320,1,0,0:0:0:0:
168,68,35420,2,0,P|213:90|240:144,1,100
234,165,35620,1,0,0:0:0:0:
208,340,35720,2,0,P|204:289|238:239,1,100
260,233,35920,1,0,0:0:0:0:
424,170,36020,1,0,0:0:0:0:
444,188,36220,5,0,0:0:0:0:
331,73,36320,2,0,L|422:81,2,66.6666666666667
224,136,36620,2,0,L|132:144,2,66.6666666666667
333,198,36920,2,0,L|318:368,1,166.666666666667
157,141,37220,2,0,L|175:348,1,200.000007629395
244,116,37520,6,0,P|266:70|320:43,1,100
341,49,37720,1,0,0:0:0:0:
444,188,37820,2,0,L|433:73,1,100
432,52,38020,1,0,0:0:0:0:
344,152,38120,2,0,L|355:267,1,100
356,288,38320,1,0,0:0:0:0:
268,384,38420,1,0,0:0:0:0:
248,364,38620,5,0,0:0:0:0:
244,116,38720,2,0,P|221:161|167:188,1,100
147,183,38920,1,0,0:0:0:0:
80,48,39020,2,0,P|80:108|12:164,1,133.333333333333
9,302,39320,2,0,P|-14:222|41:154,1,166.666666666667
180,328,39620,2,0,P|237:252|198:165,1,200.000007629395
312,180,39920,6,0,P|394:188|452:122,1,166.666666666667
336,36,40420,2,0,B|334:77|364:111|364:111|391:74|362:12,1,166.666666666667,0|0,0:3|0:3,0:3:0:0:
370,31,40820,6,0,P|287:22|229:88,1,166.666666666667
346,175,41320,2,0,B|347:133|317:99|317:99|290:136|319:198,1,166.666666666667,0|0,0:3|0:3,0:3:0:0:
311,178,41720,5,0,0:0:0:0:
12,141,42020,1,0,0:0:0:0:
232,346,42320,6,0,P|183:278|211:195,1,166.666666666667
344,253,42820,2,0,B|308:274|264:265|264:265|282:223|351:217,1,166.666666666667,0|0,0:3|0:3,0:3:0:0:
330,219,43220,6,0,P|394:166|388:79,1,166.666666666667
245,100,43720,2,0,B|273:130|318:133|318:133|312:87|247:64,1,166.666666666667,0|0,0:3|0:3,0:3:0:0:
265,71,44120,5,0,0:0:0:0:
83,311,44420,1,0,0:0:0:0:
452,32,44720,6,0,B|396:16|356:40|368:48|316:80|256:40,2,200
452,32,46820,1,0,0:0:0:0:
416,116,47120,5,0,0:0:0:0:
342,170,47420,1,0,0:0:0:0:
165,140,47720,1,0,0:0:0:0:
127,223,48020,1,0,0:0:0:0:
380,253,48320,1,0,0:0:0:0:
342,170,48620,1,0,0:0:0:0:
328,328,48920,1,0,0:0:0:0:
418,336,49220,1,0,0:0:0:0:
254,155,49520,6,0,P|200:224|232:324,2,200
254,155,51620,1,0,0:0:0:0:
342,170,51920,6,0,L|338:130,2,33.3333333333333
380,253,52220,2,0,L|376:289,1,36.6666677856446
308,348,52420,1,0,0:0:0:0:
261,238,52520,6,0,L|265:190,2,39.9999987792969
212,344,52820,2,0,L|207:292,1,43.3333313496908
145,249,53020,1,0,0:0:0:0:
193,143,53120,6,0,L|139:147,1,46.6666652425131
164,52,53320,1,0,0:0:0:0:
310,47,53420,6,0,L|246:41,1,50.0000019073487
284,180,53620,1,0,0:0:0:0:
413,137,53720,5,0,0:0:0:0:
385,270,53820,1,0,0:0:0:0:
284,180,53920,1,0,0:0:0:0:
389,163,54020,5,0,0:0:0:0:
374,236,54120,1,0,0:0:0:0:
318,187,54220,1,0,0:0:0:0:
456,40,54320,6,0,L|432:46,1,25
432,47,54620,6,0,L|354:67,1,75.0000028610231
359,66,54920,6,0,L|235:99,1,125
238,98,55220,6,0,L|40:150,1,175.00000166893
307,356,55520,6,0,L|233:81,1,266.666666666667
238,98,56120,5,0,0:0:0:0:
178,35,56270,2,0,B|141:73|154:128|154:128|114:162|117:238,1,200
132,240,56620,6,0,P|216:224|292:312,1,200.000007629395
296,332,56870,1,0,0:0:0:0:
384,224,57020,2,0,P|352:148|376:76,1,150.000005722046
392,64,57220,1,0,0:0:0:0:
480,200,57320,2,0,P|512:276|488:348,1,150.000005722046
472,360,57520,1,0,0:0:0:0:
290,300,57620,2,0,P|194:301|142:382,1,200.000007629395
192,221,57920,6,0,P|181:139|124:88,1,150.000005722046
105,86,58120,1,0,0:0:0:0:
212,200,58220,2,0,P|248:155|298:140,1,100.000003814697
384,224,58420,2,0,P|364:148|408:88,1,150.000005722046
494,338,58720,1,0,0:0:0:0:
376,332,58820,2,0,L|472:357,1,100.000003814697
480,200,59020,6,0,L|121:231,1,350.00000333786
154,66,59420,6,0,P|190:154|98:236,1,200.000007629395
344,152,59720,2,0,P|312:228|245:262,1,150.000005722046
224,258,59920,1,0,0:0:0:0:
450,274,60020,2,0,P|360:344|282:328,1,200.000007629395
180,164,60320,6,0,P|129:229|133:304,1,150.000005722046
148,320,60520,1,0,0:0:0:0:
334,374,60620,2,0,P|308:295|244:256,1,150.000005722046
224,258,60820,1,0,0:0:0:0:
356,112,60920,2,0,P|348:56|316:16,2,100.000003814697
432,204,61220,2,0,P|440:148|472:108,2,100.000003814697
340,279,61520,5,0,0:0:0:0:
340,279,61820,2,0,L|327:135,1,133.333333333333
232,296,62120,2,0,L|246:128,1,146.666671142578
124,308,62420,2,0,L|154:134,1,159.999995117188
116,52,62720,6,0,L|215:60,2,86.6666626993817
391,63,63020,2,0,L|299:72,2,93.3333304850261
245,150,63320,2,0,P|228:196|236:245,2,100.000003814697
360,296,63620,2,0,L|132:234,1,213.333333333333
120,152,63920,6,0,P|124:228|32:240,1,166.666666666667
66,83,64220,6,0,P|101:68|136:67,1,66.6666666666667
228,108,64520,6,0,P|312:120|388:80,1,166.666666666667
240,32,64820,6,0,P|218:57|207:88,1,66.6666666666667
240,196,65120,6,0,P|252:268|180:192,2,250
107,144,65620,6,0,P|168:105|245:114,1,133.333333333333
392,204,65870,1,0,0:0:0:0:
320,100,66020,2,0,P|383:133|414:204,1,133.333333333333
220,260,66220,6,0,P|304:184|280:44,1,250.000009536744
268,32,66520,1,0,0:0:0:0:
100,60,66620,2,0,L|114:227,1,150.000005722046
116,240,66820,1,0,0:0:0:0:
256,344,66920,2,0,L|270:176,1,150.000005722046
272,164,67120,1,0,0:0:0:0:
26,208,67220,2,0,L|242:265,1,200.000007629395
417,203,67520,6,0,L|266:162,1,150.000005722046
240,152,67720,1,0,0:0:0:0:
436,184,67820,2,0,L|321:118,1,100.000003814697
240,64,68020,2,0,P|172:64|92:128,1,150.000005722046
4,300,68320,1,0,0:0:0:0:
120,292,68420,2,0,L|15:319,1,100.000003814697
105,107,68620,6,0,P|252:68|328:248,1,350.00000333786
88,88,69020,6,0,P|135:31|260:18,1,200.000007629395
248,296,69320,2,0,P|175:282|121:231,1,150.000005722046
106,202,69520,1,0,0:0:0:0:
328,39,69620,2,0,P|367:129|326:235,1,200.000007629395
88,88,69920,6,0,P|184:116|204:212,1,200
196,340,70120,2,0,P|223:244|319:224,1,200
448,232,70320,2,0,P|352:204|332:108,1,200
172,32,70520,6,0,L|109:263,1,200
112,264,70720,5,0,0:0:0:0:
424,144,70820,1,0,0:0:0:0:
444,124,71020,5,0,0:0:0:0:
121,37,71120,1,0,0:0:0:0:
121,37,71420,5,0,0:0:0:0:
119,224,71620,1,0,0:0:0:0:
144,136,71720,1,0,0:0:0:0:
142,323,72020,1,0,0:0:0:0:
142,323,72220,1,0,0:0:0:0:
304,232,72320,5,0,0:0:0:0:
144,136,72520,1,0,0:0:0:0:
119,224,72620,1,0,0:0:0:0:
257,73,72820,1,0,0:0:0:0:
232,161,72920,1,0,0:0:0:0:
370,10,73120,1,0,0:0:0:0:
345,98,73220,1,0,0:0:0:0:
144,136,73420,1,0,0:0:0:0:
142,323,73520,5,0,0:0:0:0:
142,323,73820,1,0,0:0:0:0:
304,232,74020,1,0,0:0:0:0:
215,254,74120,1,0,0:0:0:0:
377,163,74420,1,0,0:0:0:0:
377,163,74720,6,0,P|360:100|284:56,1,133.333333333333
123,116,75020,6,0,P|125:213|201:273,1,200.000007629395
396,124,75320,6,0,P|380:88|352:68,1,66.6666666666667
104,96,75620,6,0,P|39:211|199:287,1,333.333333333333
396,124,75920,6,0,P|336:120|292:240,1,208.333333333333
324,268,76220,1,0,0:0:0:0:
140,196,76420,5,0,0:0:0:0:
216,112,76520,1,0,0:0:0:0:
32,40,76720,5,0,0:0:0:0:
48,240,76820,2,0,B|62:288|110:313|101:288|146:310|163:384,1,166.666666666667
304,288,77120,2,0,P|242:285|196:245,1,125
188,200,77320,1,0,0:0:0:0:
324,136,77420,2,0,P|291:187|233:207,1,125
84,76,77720,6,0,L|211:64,1,100.000003814697
168,180,77920,1,0,0:0:0:0:
104,56,78020,2,0,L|231:44,1,100.000003814697
188,160,78220,1,0,0:0:0:0:
396,124,78320,6,0,P|435:169|365:276,1,208.333333333333
324,268,78620,1,0,0:0:0:0:
280,68,78820,5,0,0:0:0:0:
253,189,78920,1,0,0:0:0:0:
449,251,79120,5,0,0:0:0:0:
284,364,79220,2,0,B|249:327|251:273|269:293|272:242|217:191,1,166.666666666667
114,163,79520,2,0,P|172:144|206:93,1,125
203,47,79720,1,0,0:0:0:0:
55,21,79820,2,0,P|99:62|161:66,1,125
376,42,80120,6,0,L|256:74,1,100.000003814697
356,196,80320,1,0,0:0:0:0:
396,60,80420,2,0,L|276:92,1,100.000003814697
376,214,80620,1,0,0:0:0:0:
176,272,80720,6,0,L|136:125,1,133.333333333333
156,292,81220,6,0,L|116:145,1,133.333333333333
136,312,81620,6,0,L|96:165,1,133.333333333333
116,332,82120,6,0,L|76:185,1,133.333333333333
96,352,82520,6,0,L|56:205,1,133.333333333333
336,112,83120,6,0,L|375:258,1,133.333333333333
356,92,83620,6,0,L|395:238,1,133.333333333333
376,72,84020,6,0,L|415:218,1,133.333333333333
396,52,84520,6,0,L|435:198,1,133.333333333333
416,32,84870,5,0,0:0:0:0:
416,32,84920,2,0,L|455:178,1,133.333333333333
370,240,85220,1,0,0:0:0:0:
95,47,85520,6,0,P|115:151|259:191,1,266.666666666667
210,403,86020,6,0,P|290:334|253:189,1,266.666666666667
462,125,86420,6,0,P|362:90|255:195,1,266.666666666667
