osu file format v14

[General]
AudioFilename: audio.mp3
AudioLeadIn: 0
PreviewTime: 36447
Countdown: 0
SampleSet: Soft
StackLeniency: 0.2
Mode: 0
LetterboxInBreaks: 0
WidescreenStoryboard: 0

[Editor]
Bookmarks: 2747,7647,12447,19647,22047,26847,31647,36447,41247,46047,55647,57947,77247,82047,88047
DistanceSpacing: 0.4
BeatDivisor: 6
GridSize: 32
TimelineZoom: 2.4

[Metadata]
Title:VORACITY (TV Size)
TitleUnicode:VORACITY (TV Size)
Artist:MYTH & ROID
ArtistUnicode:MYTH & ROID
Creator:bite you death
Version:YONAKA'S VERY CRAZY INSANE
Source:オーバーロードⅢ
Tags:overlord 3 iii opening op theme song very crazy and no byd - matha -_matha_- shiinoha kotone tomadoi ohwow yonaka- hos hootowlstar
BeatmapID:1712876
BeatmapSetID:814486

[Difficulty]
HPDrainRate:6
CircleSize:4
OverallDifficulty:8
ApproachRate:8.5
SliderMultiplier:1.5
SliderTickRate:1

[Events]
//Background and Video events
Video,0,"video.avi"
0,0,"nej tack.jpg",0,0
//Break Periods
2,31847,35772
//Storyboard Layer 0 (Background)
//Storyboard Layer 1 (Fail)
//Storyboard Layer 2 (Pass)
//Storyboard Layer 3 (Foreground)
//Storyboard Sound Samples

[TimingPoints]
447,300,4,2,11,60,1,0
447,-200,4,2,11,60,0,0
2647,-200,4,2,11,60,0,0
2697,-200,4,2,11,60,0,0
2747,-200,4,2,11,60,0,0
3047,-200,4,2,11,60,0,0
3147,-200,4,2,11,60,0,0
3947,-200,4,2,11,5,0,0
4047,-200,4,2,11,60,0,0
4747,-200,4,2,11,5,0,0
4847,-200,4,2,11,60,0,0
5047,-200,4,2,11,5,0,0
5147,-200,4,2,11,60,0,0
5447,-200,4,2,11,60,0,0
5547,-200,4,2,11,60,0,0
6347,-200,4,2,11,5,0,0
6447,-200,4,2,11,60,0,0
6847,-200,4,2,11,60,0,0
6947,-200,4,2,11,60,0,0
7147,-200,4,2,11,5,0,0
7247,-200,4,2,11,60,0,0
7547,-200,4,2,11,5,0,0
7647,-200,4,2,11,60,0,0
9947,-200,4,2,11,5,0,0
10047,-200,4,2,11,60,0,0
10247,-200,4,2,11,5,0,0
10347,-200,4,2,11,60,0,0
10547,-200,4,2,11,5,0,0
10647,-200,4,2,11,60,0,0
10847,-200,4,2,11,5,0,0
10947,-200,4,2,11,60,0,0
11147,-200,4,2,11,5,0,0
11247,-66.6666666666667,4,2,11,60,0,0
11447,-66.6666666666667,4,2,11,60,0,0
11547,-133.333333333333,4,2,11,60,0,0
11747,-133.333333333333,4,2,11,60,0,0
11847,-66.6666666666667,4,2,11,60,0,0
12047,-66.6666666666667,4,2,11,60,0,0
12147,-133.333333333333,4,2,11,60,0,0
12397,-133.333333333333,4,2,11,60,0,0
12447,-133.333333333333,4,2,11,70,0,0
19647,-133.333333333333,4,2,11,70,0,0
19947,-133.333333333333,4,2,11,30,0,0
20847,-200,4,2,11,50,0,0
21347,-200,4,2,11,5,0,0
21447,-200,4,2,11,40,0,0
21847,-200,4,2,11,5,0,0
21947,-200,4,2,11,60,0,0
22047,-100,4,2,11,60,0,0
26897,-100,4,2,11,5,0,0
27347,-100,4,2,11,60,0,0
27397,-100,4,2,11,5,0,0
27747,-100,4,2,11,60,0,0
27797,-100,4,2,11,5,0,0
28247,-100,4,2,11,60,0,0
28297,-100,4,2,11,5,0,0
28647,-100,4,2,11,60,0,0
28697,-100,4,2,11,5,0,0
28947,-100,4,2,11,60,0,0
28997,-100,4,2,11,5,0,0
29247,-100,4,2,11,60,0,0
29297,-100,4,2,11,5,0,0
29747,-100,4,2,11,60,0,0
29797,-100,4,2,11,5,0,0
30147,-100,4,2,11,60,0,0
30197,-100,4,2,11,5,0,0
30647,-100,4,2,11,60,0,0
30697,-100,4,2,11,5,0,0
31047,-100,4,2,11,60,0,0
31097,-100,4,2,11,5,0,0
31347,-100,4,2,11,60,0,0
31397,-100,4,2,11,5,0,0
31647,-100,4,2,11,60,0,0
41247,-100,4,2,11,60,0,0
41297,-100,4,2,11,5,0,0
41747,-100,4,2,11,60,0,0
41797,-100,4,2,11,5,0,0
42147,-100,4,2,11,60,0,0
42197,-100,4,2,11,5,0,0
42647,-100,4,2,11,60,0,0
42697,-100,4,2,11,5,0,0
43047,-100,4,2,11,60,0,0
43097,-100,4,2,11,5,0,0
43347,-100,4,2,11,60,0,0
43397,-100,4,2,11,5,0,0
43647,-100,4,2,11,60,0,0
43697,-100,4,2,11,5,0,0
44147,-100,4,2,11,60,0,0
44197,-100,4,2,11,5,0,0
44547,-100,4,2,11,60,0,0
44597,-100,4,2,11,5,0,0
45047,-100,4,2,11,60,0,0
45097,-100,4,2,11,5,0,0
45447,-100,4,2,11,60,0,0
45497,-100,4,2,11,5,0,0
45747,-100,4,2,11,60,0,0
45797,-100,4,2,11,5,0,0
46047,-100,4,2,11,60,0,0
46647,-400,4,2,11,40,0,0
53247,-400,4,2,11,40,0,0
53847,-400,4,2,11,50,0,0
54447,-400,4,2,11,60,0,0
54747,-400,4,2,11,60,0,0
55047,-400,4,2,11,60,0,0
57447,-400,4,2,11,60,0,0
57947,-100,4,2,11,60,0,1
62847,-100,4,2,11,60,0,0
65297,-100,4,2,11,5,0,0
65847,-100,4,2,11,60,0,0
65897,-100,4,2,11,5,0,0
66447,-100,4,2,11,60,0,0
66497,-100,4,2,11,5,0,0
66947,-100,4,2,11,60,0,0
66997,-100,4,2,11,5,0,0
67247,-100,4,2,11,60,0,0
67547,-100,4,2,11,60,0,1
72447,-33.3333333333333,4,2,11,60,0,0
72497,-33.3333333333333,4,2,11,5,0,0
72547,-100,4,2,11,60,0,0
73047,-100,4,2,11,60,0,0
73097,-100,4,2,11,5,0,0
73347,-100,4,2,11,60,0,0
73647,-33.3333333333333,4,2,11,60,0,0
73697,-33.3333333333333,4,2,11,5,0,0
73747,-100,4,2,11,60,0,0
74297,-100,4,2,11,5,0,0
74347,-100,4,2,11,60,0,0
74847,-33.3333333333333,4,2,11,60,0,0
74897,-33.3333333333333,4,2,11,5,0,0
74947,-100,4,2,11,60,0,0
75497,-100,4,2,11,5,0,0
75547,-100,4,2,11,60,0,0
77247,-133.333333333333,4,2,11,60,0,0
79647,-133.333333333333,4,2,11,60,0,0
86847,-400,4,2,11,60,0,0
86947,-400,4,2,11,60,0,0
87347,-400,4,2,11,60,0,0
87447,-400,4,2,11,60,0,0
87747,-400,4,2,11,60,0,0
87847,-400,4,2,11,60,0,0

[Colours]
Combo1 : 237,18,193
Combo2 : 255,128,192

[HitObjects]
266,192,447,37,0,0:0:0:0:
266,192,1047,1,0,0:0:0:0:
266,192,1647,1,0,0:0:0:0:
266,192,1947,1,0,0:0:0:0:
266,192,2247,5,0,0:0:0:0:
179,207,2447,2,0,P|177:184|185:152,1,50,0|0,0:0|0:0,0:0:0:0:
256,97,2747,6,8,L|247:3,1,75,6|0,3:2|0:0,0:0:0:0:
246,3,3147,1,0,0:0:0:0:
266,192,3447,1,0,0:0:0:0:
275,286,3747,1,0,0:0:0:0:
365,42,4047,5,6,3:1:0:0:
339,133,4347,1,0,0:0:0:0:
441,186,4547,2,0,P|445:164|443:131,1,50,2|0,0:0|0:0,0:0:0:0:
434,109,4847,1,2,0:0:0:0:
190,276,5147,6,0,L|96:267,1,75,6|0,3:2|0:0,0:0:0:0:
95,266,5547,1,0,0:0:0:0:
284,285,5847,1,0,0:0:0:0:
378,295,6147,1,0,0:0:0:0:
190,276,6447,5,6,3:1:0:0:
241,206,6647,2,0,P|245:184|243:151,1,50,2|0,0:0|0:0,0:0:0:0:
234,129,6947,1,2,0:0:0:0:
66,52,7247,2,0,L|148:59,1,75,2|0,0:0|0:0,0:0:0:0:
169,61,7647,5,4,3:2:0:0:
308,122,7947,6,0,L|226:129,2,75,0|0|0,0:0|0:0|0:0,0:0:0:0:
438,196,8847,5,4,3:2:0:0:
457,123,9147,1,0,0:0:0:0:
383,103,9447,1,0,0:0:0:0:
363,176,9747,1,0,0:0:0:0:
94,188,10047,5,4,3:1:0:0:
75,261,10347,1,0,0:0:0:0:
94,188,10647,1,0,0:0:0:0:
149,281,10947,1,0,0:0:0:0:
113,115,11247,6,0,L|262:128,1,150.000005722046,0|0,3:0|0:0,0:0:0:0:
331,161,11547,2,0,P|338:124|327:89,1,75.000002861023,8|0,0:0|0:0,0:0:0:0:
0,294,11847,6,0,L|149:280,1,150.000005722046,0|0,3:0|0:0,0:0:0:0:
218,249,12147,2,0,P|225:285|214:320,1,75.000002861023,8|0,0:0|0:0,0:0:0:0:
315,339,12447,6,0,P|303:282|321:227,1,112.500004291535,4|8,3:2|0:0,0:0:0:0:
480,175,12947,1,0,3:0:0:0:
465,250,13047,2,0,P|430:280|385:290,1,75.000002861023,0|0,3:0|3:0,0:0:0:0:
159,146,13347,2,0,P|228:207|318:230,1,187.500007152558,8|0,0:0|0:0,0:0:0:0:
386,94,13947,2,0,P|351:107|324:133,1,75.000002861023,8|0,0:0|0:0,0:0:0:0:
236,26,14247,2,0,P|230:62|239:98,1,75.000002861023,0|0,3:0|3:0,0:0:0:0:
94,112,14547,2,0,P|122:135|158:145,1,75.000002861023,8|0,0:0|3:0,0:0:0:0:
218,249,14847,6,0,P|164:264|121:300,1,112.500004291535,4|8,3:1|0:0,0:0:0:0:
382,370,15347,1,0,3:0:0:0:
355,296,15447,2,0,P|320:266|275:256,1,75.000002861023,0|0,3:0|3:0,0:0:0:0:
429,305,15747,2,0,L|445:116,1,187.500007152558,8|0,0:0|0:0,0:0:0:0:
344,13,16347,2,0,P|337:49|346:86,1,75.000002861023,8|0,0:0|0:0,0:0:0:0:
404,202,16647,2,0,P|375:178|339:167,1,75.000002861023,0|0,3:0|3:0,0:0:0:0:
210,159,16947,2,0,P|245:146|272:120,1,75.000002861023,8|0,0:0|3:0,0:0:0:0:
34,104,17247,6,0,P|75:141|127:160,1,112.500004291535,4|8,3:1|0:0,0:0:0:0:
293,257,17747,1,0,3:0:0:0:
218,249,17847,2,0,P|183:261|156:287,1,75.000002861023,0|0,3:0|3:0,0:0:0:0:
210,373,18147,2,0,P|137:313|47:286,1,187.500007152558,8|0,0:0|0:0,0:0:0:0:
156,287,18747,2,0,L|171:196,1,75.000002861023,8|0,0:0|0:0,0:0:0:0:
88,132,19047,2,0,L|103:41,1,75.000002861023,0|0,3:0|3:0,0:0:0:0:
297,127,19347,2,0,L|312:36,1,75.000002861023,8|0,0:0|3:0,0:0:0:0:
205,58,19647,5,8,3:2:0:0:
205,58,19947,1,0,0:0:0:0:
205,58,20247,1,0,0:0:0:0:
205,58,20547,1,0,0:0:0:0:
297,127,20847,6,0,L|420:116,1,125,0|0,0:0|0:0,0:0:0:0:
411,290,21447,2,0,P|400:241|414:194,1,100,0|0,0:0|0:0,0:0:0:0:
485,161,21947,1,0,3:0:0:0:
482,245,22047,6,0,L|368:235,1,100,4|0,3:2|3:0,0:0:0:0:
307,229,22347,1,8,0:0:0:0:
193,220,22547,1,0,3:0:0:0:
236,158,22647,1,0,3:0:0:0:
96,245,22847,1,0,3:0:0:0:
128,314,22947,1,8,0:0:0:0:
22,220,23147,5,0,3:0:0:0:
75,166,23247,2,0,P|88:119|75:64,1,100,0|0,3:0|0:0,0:0:0:0:
236,158,23547,2,0,P|223:111|236:56,1,100,8|0,0:0|0:0,0:0:0:0:
408,117,23847,2,0,L|294:107,1,100,0|0,3:0|3:0,0:0:0:0:
128,314,24147,2,0,L|228:305,1,100,8|0,0:0|3:0,0:0:0:0:
476,284,24447,6,0,P|423:267|397:229,1,100,4|0,3:2|3:0,0:0:0:0:
472,207,24747,1,8,0:0:0:0:
323,265,24947,1,0,3:0:0:0:
330,186,25047,1,0,3:0:0:0:
229,79,25247,1,0,3:0:0:0:
236,158,25347,1,8,0:0:0:0:
135,265,25547,1,0,3:0:0:0:
142,186,25647,6,0,L|36:195,1,100,0|0,3:0|0:0,0:0:0:0:
89,99,25947,2,0,P|104:52|88:-1,1,100,8|0,0:0|0:0,0:0:0:0:
24,51,26247,6,0,L|144:60,1,100,0|0,3:0|3:0,0:0:0:0:
236,158,26547,2,0,L|356:148,1,100,8|0,0:0|3:0,0:0:0:0:
415,95,26847,6,0,L|392:93,1,25,2|0,3:2|0:0,0:0:0:0:
415,288,27347,2,0,L|392:291,1,25,2|0,3:2|0:0,0:0:0:0:
96,95,27747,6,0,L|120:93,1,25,2|0,3:2|0:0,0:0:0:0:
96,288,28247,2,0,L|120:291,1,25,2|0,3:2|0:0,0:0:0:0:
415,95,28647,6,0,L|417:71,1,25,2|0,3:2|0:0,0:0:0:0:
97,95,28947,2,0,L|94:71,1,25,2|0,3:2|0:0,0:0:0:0:
96,288,29247,6,0,L|120:291,1,25,2|0,3:2|0:0,0:0:0:0:
96,95,29747,2,0,L|120:93,1,25,2|0,3:2|0:0,0:0:0:0:
415,288,30147,6,0,L|392:291,1,25,2|0,3:2|0:0,0:0:0:0:
415,95,30647,2,0,L|392:93,1,25,2|0,3:2|0:0,0:0:0:0:
97,289,31047,6,0,L|94:312,1,25,2|0,3:2|0:0,0:0:0:0:
415,289,31347,2,0,L|417:312,1,25,2|0,3:2|0:0,0:0:0:0:
256,192,31647,5,10,3:2:0:0:
42,80,36447,6,0,L|156:70,1,100,4|0,3:2|3:0,0:0:0:0:
221,62,36747,1,8,0:0:0:0:
371,141,36947,1,0,3:0:0:0:
291,132,37047,1,0,3:0:0:0:
140,211,37247,1,0,3:0:0:0:
220,202,37347,1,8,0:0:0:0:
370,281,37547,1,0,3:0:0:0:
290,272,37647,6,0,P|296:318|338:358,1,100,0|0,3:0|0:0,0:0:0:0:
450,290,37947,2,0,P|444:244|402:204,1,100,8|0,0:0|0:0,0:0:0:0:
326,196,38247,2,0,L|334:94,1,100,0|0,3:0|3:0,0:0:0:0:
430,29,38547,2,0,L|438:128,1,100,8|0,0:0|3:0,0:0:0:0:
334,96,38847,6,0,P|287:84|226:98,1,100,4|0,3:2|3:0,0:0:0:0:
183,145,39147,1,8,0:0:0:0:
76,38,39347,1,0,3:0:0:0:
100,108,39447,1,0,3:0:0:0:
5,233,39647,1,0,3:0:0:0:
24,163,39747,1,8,0:0:0:0:
59,308,39947,1,0,3:0:0:0:
92,375,40047,6,0,L|195:363,1,100,0|0,3:0|0:0,0:0:0:0:
262,293,40347,2,0,L|365:304,1,100,8|0,0:0|0:0,0:0:0:0:
472,354,40647,2,0,P|454:311|470:255,1,100,0|0,3:0|3:0,0:0:0:0:
381,112,40947,2,0,P|398:154|382:210,1,100,8|0,0:0|3:0,0:0:0:0:
297,159,41247,6,0,L|322:162,1,25,2|0,3:2|0:0,0:0:0:0:
29,235,41747,2,0,L|4:232,1,25,2|0,3:2|0:0,0:0:0:0:
466,260,42147,6,0,L|491:263,1,25,2|0,3:2|0:0,0:0:0:0:
198,336,42647,2,0,L|173:333,1,25,2|0,3:2|0:0,0:0:0:0:
297,159,43047,6,0,L|322:162,1,25,2|0,3:2|0:0,0:0:0:0:
198,336,43347,2,0,L|173:333,1,25,2|0,3:2|0:0,0:0:0:0:
199,214,43647,6,0,L|174:211,1,25,2|0,3:2|0:0,0:0:0:0:
467,138,44147,2,0,L|492:141,1,25,2|0,3:2|0:0,0:0:0:0:
30,113,44547,6,0,L|5:110,1,25,2|0,3:2|0:0,0:0:0:0:
298,37,45047,2,0,L|323:40,1,25,2|0,3:2|0:0,0:0:0:0:
199,214,45447,6,0,L|174:211,1,25,2|0,3:2|0:0,0:0:0:0:
298,37,45747,2,0,L|323:40,1,25,2|0,3:2|0:0,0:0:0:0:
467,138,46047,5,14,3:2:0:0:
467,138,46647,6,0,L|398:131,1,62.5,2|0,0:0|0:0,0:0:0:0:
351,79,47247,2,0,L|274:85,1,75,2|0,0:0|0:0,0:0:0:0:
276,85,48147,1,2,0:0:0:0:
200,93,48447,1,2,0:0:0:0:
230,24,48747,1,2,0:0:0:0:
230,24,49347,1,2,0:0:0:0:
200,93,49647,1,2,0:0:0:0:
276,85,49947,1,2,0:0:0:0:
276,85,50847,6,0,L|315:88,1,37.5,0|0,0:0|0:0,0:0:0:0:
313,88,51447,6,0,P|308:123|313:152,1,62.5,2|0,0:0|0:0,0:0:0:0:
365,202,52047,2,0,P|373:243|365:276,1,75,2|0,0:0|0:0,0:0:0:0:
365,274,52947,1,2,0:0:0:0:
298,340,53247,2,0,L|235:333,1,62.5,0|0,0:0|0:0,0:0:0:0:
182,280,53847,2,0,L|119:286,1,62.5,0|0,0:0|0:0,0:0:0:0:
66,339,54447,2,0,P|46:288|89:218,1,137.5,0|0,0:0|0:0,0:0:0:0:
119,286,55647,5,10,3:2:0:0:
77,64,55947,1,10,3:2:0:0:
393,286,56247,1,10,3:2:0:0:
435,64,56547,1,10,3:2:0:0:
256,192,56847,5,10,3:2:0:0:
256,192,57447,5,0,0:0:0:0:
256,192,57647,1,0,0:0:0:0:
256,192,57947,6,0,P|278:126|253:48,1,150,6|0,3:2|3:0,0:0:0:0:
80,113,58347,2,0,L|180:121,1,100,10|0,0:0|3:0,0:0:0:0:
42,339,58647,2,0,P|26:276|46:226,1,100,2|0,3:2|3:0,0:0:0:0:
218,277,58947,2,0,L|117:285,1,100,10|0,0:0|3:0,0:0:0:0:
293,338,59247,5,2,3:2:0:0:
314,255,59347,1,0,0:0:0:0:
256,192,59447,1,2,0:0:0:0:
218,277,59547,6,0,L|163:282,1,50,10|0,0:0|0:0,0:0:0:0:
408,147,59747,2,0,P|385:217|407:287,1,150,2|2,0:0|3:2,0:0:0:0:
256,192,60147,2,0,L|202:187,1,50,10|0,0:0|0:0,0:0:0:0:
0,120,60347,6,0,L|154:106,1,150,6|0,3:2|3:0,0:0:0:0:
319,44,60747,2,0,L|219:35,1,100,10|0,0:0|3:0,0:0:0:0:
122,270,61047,2,0,P|185:286|235:266,1,100,2|0,3:2|3:0,0:0:0:0:
502,294,61347,2,0,P|439:278|389:298,1,100,10|0,0:0|3:0,0:0:0:0:
314,384,61647,6,0,L|318:327,1,50,2|0,3:2|0:0,0:0:0:0:
247,92,61847,2,0,L|258:228,1,100,2|0,0:0|0:0,0:0:0:0:
434,151,62147,6,0,P|371:135|321:155,1,100,2|0,0:0|0:0,0:0:0:0:
255,191,62447,1,2,3:2:0:0:
255,191,62747,5,0,3:2:0:0:
164,234,62847,2,0,L|171:133,1,100,4|0,3:2|3:0,0:0:0:0:
111,307,63147,2,0,P|174:323|224:303,1,100,10|0,0:0|3:0,0:0:0:0:
354,198,63447,2,0,L|253:190,1,100,2|0,3:2|3:0,0:0:0:0:
427,251,63747,2,0,P|443:188|423:138,1,100,10|0,0:0|3:0,0:0:0:0:
266,80,64047,5,2,3:2:0:0:
360,108,64147,1,0,0:0:0:0:
338,12,64247,1,2,0:0:0:0:
239,84,64347,6,0,L|138:92,1,100,10|2,0:0|0:0,0:0:0:0:
0,184,64647,2,0,L|101:192,1,100,2|2,3:2|3:2,0:0:0:0:
170,262,64947,2,0,P|186:325|166:375,1,100,10|0,0:0|0:0,0:0:0:0:
335,357,65247,6,0,L|331:322,1,25,2|0,3:2|0:0,0:0:0:0:
308,58,65847,2,0,L|311:93,1,25,2|0,3:2|0:0,0:0:0:0:
335,357,66447,6,0,L|331:322,1,25,2|0,3:2|0:0,0:0:0:0:
308,58,66947,2,0,L|311:93,1,25,2|0,3:2|0:0,0:0:0:0:
335,357,67247,5,0,3:0:0:0:
455,292,67347,2,0,L|397:285,1,50,8|0,0:0|0:0,0:0:0:0:
163,276,67547,6,0,L|312:260,1,150,6|0,3:2|3:0,0:0:0:0:
379,202,67947,2,0,P|394:155|379:101,1,100,10|0,0:0|3:0,0:0:0:0:
0,110,68247,6,0,L|119:122,1,100,2|0,3:2|3:0,0:0:0:0:
159,180,68547,2,0,P|174:227|159:281,1,100,10|0,0:0|3:0,0:0:0:0:
65,274,68847,5,6,3:2:0:0:
144,303,68947,1,0,0:0:0:0:
82,361,69047,1,2,0:0:0:0:
3,332,69147,1,10,0:0:0:0:
300,384,69347,6,0,L|289:282,1,100,2|0,0:0|0:0,0:0:0:0:
359,124,69647,2,0,L|349:224,1,100,2|0,3:2|0:0,0:0:0:0:
230,217,69947,6,0,L|215:68,1,150,6|0,3:2|3:0,0:0:0:0:
45,150,70347,2,0,P|93:162|141:147,1,100,10|0,0:0|3:0,0:0:0:0:
369,24,70647,6,0,L|359:124,1,100,2|0,3:2|3:0,0:0:0:0:
409,198,70947,2,0,P|456:213|504:201,1,100,10|0,0:0|3:0,0:0:0:0:
397,59,71247,6,0,L|392:109,1,50,2|0,3:2|0:0,0:0:0:0:
300,384,71447,2,0,L|295:333,1,50,2|8,0:0|0:0,0:0:0:0:
188,63,71647,2,0,L|183:113,1,50,2|0,0:0|0:0,0:0:0:0:
89,383,71847,2,0,L|84:332,1,50,2|0,3:2|0:0,0:0:0:0:
343,269,72047,1,0,3:0:0:0:
265,264,72147,2,0,P|249:272|226:295,1,50,8|0,0:0|0:0,0:0:0:0:
37,219,72347,1,0,3:0:0:0:
115,224,72447,6,0,P|141:209|179:172,1,75.0000028610231,6|0,3:2|0:0,0:0:0:0:
115,224,72747,1,0,3:2:0:0:
407,195,73047,2,0,P|399:190|387:179,1,25,2|0,3:2|0:0,0:0:0:0:
407,195,73347,1,0,3:2:0:0:
28,99,73547,1,0,3:0:0:0:
105,88,73647,6,0,P|131:73|166:37,1,75.0000028610231,2|0,3:2|0:0,0:0:0:0:
105,88,73947,1,0,3:2:0:0:
397,59,74247,2,0,P|389:54|377:43,1,25,2|0,3:2|0:0,0:0:0:0:
397,59,74547,1,0,3:2:0:0:
40,357,74747,1,0,3:0:0:0:
117,346,74847,6,0,P|143:331|178:295,1,75.0000028610231,4|0,3:2|0:0,0:0:0:0:
117,346,75147,1,2,3:2:0:0:
409,317,75447,2,0,P|401:312|389:301,1,25,2|0,3:2|0:0,0:0:0:0:
409,317,75747,1,2,3:2:0:0:
456,131,75947,1,0,3:0:0:0:
407,195,76047,6,0,P|357:208|297:195,1,100,2|0,3:2|0:0,0:0:0:0:
148,258,76347,2,0,P|198:251|246:264,1,100,10|0,0:0|0:0,0:0:0:0:
296,337,76647,1,2,3:2:0:0:
90,177,76847,1,0,3:0:0:0:
186,162,76947,1,10,0:0:0:0:
97,34,77147,1,0,3:0:0:0:
190,55,77247,6,0,P|202:112|184:167,1,112.500004291535,6|8,3:2|0:0,0:0:0:0:
25,226,77747,1,0,3:0:0:0:
40,144,77847,2,0,P|75:114|120:104,1,75.000002861023,0|0,3:0|3:0,0:0:0:0:
346,248,78147,2,0,P|277:187|187:164,1,187.500007152558,8|0,0:0|0:0,0:0:0:0:
119,300,78747,2,0,P|154:287|181:261,1,75.000002861023,8|0,0:0|0:0,0:0:0:0:
269,368,79047,2,0,P|275:332|266:296,1,75.000002861023,0|0,3:0|3:0,0:0:0:0:
411,282,79347,2,0,P|383:259|347:249,1,75.000002861023,8|0,0:0|3:0,0:0:0:0:
287,145,79647,6,0,P|341:130|384:94,1,112.500004291535,4|8,3:2|0:0,0:0:0:0:
121,12,80147,1,0,3:0:0:0:
150,98,80247,2,0,P|185:128|230:138,1,75.000002861023,0|0,3:0|3:0,0:0:0:0:
76,89,80547,2,0,L|60:278,1,187.500007152558,8|0,0:0|0:0,0:0:0:0:
161,381,81147,2,0,P|168:345|159:308,1,75.000002861023,8|0,0:0|0:0,0:0:0:0:
101,192,81447,2,0,P|130:216|166:227,1,75.000002861023,0|0,3:0|3:0,0:0:0:0:
295,235,81747,2,0,P|260:248|233:274,1,75.000002861023,8|0,0:0|3:0,0:0:0:0:
304,321,82047,5,2,3:2:0:0:
221,57,82547,1,2,3:2:0:0:
132,238,82947,5,2,3:2:0:0:
391,157,83447,1,2,3:2:0:0:
256,192,83847,5,2,3:2:0:0:
376,247,84447,5,2,3:2:0:0:
135,121,84947,1,2,3:2:0:0:
200,312,85347,5,2,3:2:0:0:
326,71,85847,1,2,3:2:0:0:
256,192,86247,5,10,3:2:0:0:
256,192,86547,1,0,3:0:0:0:
256,192,86847,5,10,3:2:0:0:
309,15,87347,1,10,3:2:0:0:
203,369,87747,1,10,3:2:0:0:
