osu file format v14

[General]
AudioFilename: audio.mp3
AudioLeadIn: 0
PreviewTime: 36447
Countdown: 0
SampleSet: Soft
StackLeniency: 0.2
Mode: 0
LetterboxInBreaks: 0
WidescreenStoryboard: 0

[Editor]
DistanceSpacing: 1
BeatDivisor: 6
GridSize: 32
TimelineZoom: 3.199999

[Metadata]
Title:VORACITY (TV Size)
TitleUnicode:VORACITY (TV Size)
Artist:MYTH & ROID
ArtistUnicode:MYTH & ROID
Creator:bite you death
Version:VERY VERY CRAZY EXTRA
Source:オーバーロードⅢ
Tags:overlord 3 iii opening op theme song very crazy and no byd - matha -_matha_- shiinoha kotone tomadoi ohwow yonaka- hos hootowlstar
BeatmapID:1707994
BeatmapSetID:814486

[Difficulty]
HPDrainRate:5.6
CircleSize:3.6
OverallDifficulty:8.7
ApproachRate:9.6
SliderMultiplier:2.2
SliderTickRate:1

[Events]
//Background and Video events
Video,0,"video.avi"
0,0,"overlord lol.jpg",0,0
//Break Periods
2,31847,34288
2,46247,52738
//Storyboard Layer 0 (Background)
//Storyboard Layer 1 (Fail)
//Storyboard Layer 2 (Pass)
//Storyboard Layer 3 (Foreground)
//Storyboard Sound Samples

[TimingPoints]
447,300,4,2,2,33,1,0
2697,-175.438596491228,4,2,2,50,0,0
11447,-175.438596491228,4,2,2,5,0,0
11547,-175.438596491228,4,2,2,50,0,0
11747,-175.438596491228,4,2,2,5,0,0
11847,-175.438596491228,4,2,2,50,0,0
12047,-175.438596491228,4,2,2,5,0,0
12147,-175.438596491228,4,2,2,50,0,0
12397,-84.0336134453781,4,2,2,5,0,0
12447,-84.0336134453781,4,2,2,60,0,0
13947,-98.0392156862745,4,2,2,60,0,0
14847,-87.719298245614,4,2,2,60,0,0
15747,-73.5294117647059,4,2,2,60,0,0
16047,-87.719298245614,4,2,2,60,0,0
18147,-68.9655172413793,4,2,2,60,0,0
18447,-87.719298245614,4,2,2,60,0,0
19647,-100,4,2,2,30,0,0
20847,-106.382978723404,4,2,2,40,0,0
21347,-106.382978723404,4,2,2,5,0,0
21447,-128.205128205128,4,2,2,40,0,0
21847,-128.205128205128,4,2,2,5,0,0
21947,-128.205128205128,4,2,2,60,0,0
22047,-98.0392156862745,4,2,2,55,0,0
23247,-81.3008130081301,4,2,2,55,0,0
24747,-98.0392156862745,4,2,2,55,0,0
25647,-81.3008130081301,4,2,2,55,0,0
26847,-103.092783505155,4,2,2,55,0,0
36447,-74.6268656716418,4,2,2,55,0,0
36747,-86.2068965517241,4,2,2,55,0,0
38847,-74.6268656716418,4,2,2,55,0,0
39147,-86.2068965517241,4,2,2,55,0,0
40047,-74.6268656716418,4,2,2,55,0,0
41247,-103.092783505155,4,2,2,55,0,0
53247,-232.558139534884,4,2,2,15,0,0
53847,-181.818181818182,4,2,2,25,0,0
54447,-126.582278481013,4,2,2,35,0,0
54747,-107.52688172043,4,2,2,45,0,0
55047,-85.4700854700855,4,2,2,55,0,0
57447,-100,4,2,2,33,0,0
57947,-68.0272108843537,4,2,2,65,0,1
65247,-68.0272108843537,4,2,2,65,0,0
66447,-78.125,4,2,2,65,0,0
67547,-65.359477124183,4,2,2,65,0,1
72447,-78.7401574803149,4,2,2,65,0,0
72747,-104.166666666667,4,2,2,65,0,0
73047,-78.7401574803149,4,2,2,65,0,0
73347,-104.166666666667,4,2,2,65,0,0
73647,-68.9655172413793,4,2,2,65,0,0
73947,-104.166666666667,4,2,2,65,0,0
74247,-78.7401574803149,4,2,2,65,0,0
74547,-104.166666666667,4,2,2,65,0,0
74847,-67.5675675675676,4,2,2,65,0,0
75147,-104.166666666667,4,2,2,65,0,0
75447,-74.0740740740741,4,2,2,65,0,0
75747,-104.166666666667,4,2,2,65,0,0
76047,-78.7401574803149,4,2,2,65,0,0
77247,-75.7575757575758,4,2,2,65,0,1
79647,-91.743119266055,4,2,2,55,0,0
80547,-75.187969924812,4,2,2,55,0,0
86847,-66.6666666666667,4,2,2,65,0,0
86947,-66.6666666666667,4,2,2,5,0,0
87347,-50,4,2,2,65,0,0
87447,-50,4,2,2,5,0,0
87747,-40,4,2,2,65,0,0
87847,-40,4,2,2,5,0,0

[Colours]
Combo1 : 132,0,132
Combo2 : 255,197,168
Combo3 : 255,183,255
Combo4 : 145,0,0

[HitObjects]
267,204,1647,5,0,1:0:0:0:
267,204,1947,1,0,1:0:0:0:
267,204,2247,2,0,B|281:148|281:148|272:119|272:119|287:56,1,146.666666666667,2|2,1:2|0:0,0:0:0:0:
285,62,2747,6,0,B|182:49|225:111|107:96,1,167.199997958984,6|2,3:2|0:0,0:0:0:0:
62,47,3447,2,0,P|71:105|82:181,1,125.399998469238,2|2,0:0|0:0,0:0:0:0:
57,313,4047,6,0,B|64:298|84:280|84:280|130:268|171:309,1,125.399998469238,6|2,3:2|0:0,0:0:0:0:
230,353,4547,2,0,P|276:320|367:337,1,125.399998469238,2|2,0:0|0:0,0:0:0:0:
422,371,5147,6,0,B|431:313|431:313|412:266|412:266|428:195,1,167.199997958984,6|2,3:2|0:0,0:0:0:0:
298,85,5847,2,0,P|294:143|341:192,1,125.399998469238,2|2,0:0|0:0,0:0:0:0:
478,147,6447,6,0,P|437:125|384:133,1,83.5999989794922,6|2,3:2|0:0,0:0:0:0:
221,212,6947,2,0,P|281:219|341:184,2,125.399998469238,2|2|0,0:0|0:0|0:0,0:0:0:0:
142,152,7647,5,4,3:2:0:0:
142,152,7947,6,0,B|148:73|148:73|143:78|143:78|148:73|148:73|153:23,2,125.399998469238,2|2|2,0:0|0:0|0:0,0:0:0:0:
125,335,8847,5,6,3:2:0:0:
325,168,9147,1,2,0:0:0:0:
142,152,9447,1,2,0:0:0:0:
309,351,9747,1,2,0:0:0:0:
333,77,10047,5,4,3:2:0:0:
333,77,10347,6,0,B|386:69|386:69|412:79|412:79|469:65,2,125.399998469238,2|2|2,0:0|0:0|0:0,0:0:0:0:
203,159,11247,6,0,P|170:204|169:236,1,83.5999989794922,6|0,3:2|0:0,0:0:0:0:
115,66,11547,2,0,P|170:72|198:56,1,83.5999989794922,6|0,3:2|0:0,0:0:0:0:
79,189,11847,2,0,P|56:137|29:121,1,83.5999989794922,6|0,3:2|0:0,0:0:0:0:
41,294,12147,6,0,L|161:273,1,104.499998724365,10|0,3:2|0:0,0:0:0:0:
221,222,12447,6,0,B|263:255|263:255|143:276,1,174.533329871216,6|0,3:2|0:0,0:0:0:0:
41,294,12747,2,0,P|58:245|64:199,1,87.2666649356079,8|0,0:0|0:0,0:0:0:0:
255,69,12947,1,0,0:0:0:0:
198,138,13047,2,0,P|215:187|221:233,1,87.2666649356079,0|0,3:0|0:0,0:0:0:0:
180,346,13247,1,0,0:0:0:0:
317,225,13347,2,0,B|355:206|371:225|371:225|394:214|394:214|408:233|427:241|427:241|448:228|480:228,1,174.533329871216,8|0,0:0|0:0,0:0:0:0:
346,335,13647,6,0,B|282:328|282:328|240:353|240:353|170:344,1,174.533329871216,0|0,3:0|0:0,0:0:0:0:
159,256,13947,2,0,P|102:288|89:367,1,149.600000913086,8|0,0:0|0:0,0:0:0:0:
101,138,14247,6,0,B|146:171|146:171|187:166|187:166|243:208,1,149.600000913086,2|0,3:1|0:0,0:0:0:0:
28,248,14547,2,0,B|34:191|34:191|9:158|9:158|17:89,1,149.600000913086,10|0,0:1|0:0,0:0:0:0:
205,8,14847,6,0,B|259:15|259:15|167:85,1,167.199997958984,2|0,3:2|3:0,0:0:0:0:
101,138,15147,1,8,0:0:0:0:
243,253,15347,1,2,3:2:0:0:
185,192,15447,2,0,B|155:239|155:239|187:359,1,167.199997958984,0|0,3:0|3:0,0:0:0:0:
341,118,15747,6,0,B|291:229|385:197|317:333,1,199.466667884115,10|0,0:0|0:0,0:0:0:0:
488,202,16047,6,0,P|415:176|373:199,1,83.5999989794922,0|0,3:0|0:0,0:0:0:0:
243,253,16247,1,2,0:0:0:0:
297,37,16347,2,0,B|358:26|358:26|398:47|398:47|497:30,1,167.199997958984,8|0,0:0|0:0,0:0:0:0:
229,129,16647,6,0,B|134:104|134:104|89:120|114:199,1,167.199997958984,2|0,3:1|3:0,0:0:0:0:
240,383,16947,2,0,B|309:313|309:313|317:266|236:248,1,167.199997958984,10|0,0:1|3:0,0:0:0:0:
14,265,17247,6,0,P|81:326|162:303,1,167.199997958984,6|0,3:2|3:0,0:0:0:0:
243,253,17547,1,8,0:0:0:0:
131,83,17747,1,2,3:2:0:0:
81,160,17847,2,0,P|91:202|102:263,1,83.5999989794922,0|0,3:0|0:0,0:0:0:0:
220,56,18047,1,0,3:0:0:0:
303,174,18147,6,0,B|372:187|372:187|429:159|429:159|517:176,1,212.666673156739,10|0,0:0|0:0,0:0:0:0:
406,31,18447,6,0,P|377:52|360:108,1,83.5999989794922,0|0,3:0|0:0,0:0:0:0:
451,258,18647,1,2,3:2:0:0:
276,158,18747,2,0,B|215:127|215:127|76:192,1,167.199997958984,8|0,0:0|0:0,0:0:0:0:
26,222,19047,5,2,3:1:0:0:
28,115,19147,1,0,3:0:0:0:
125,168,19247,1,0,3:0:0:0:
15,213,19347,5,10,0:1:0:0:
39,109,19447,1,8,0:0:0:0:
123,181,19547,1,8,0:0:0:0:
157,27,19647,5,0,3:2:0:0:
243,35,19947,1,0,3:0:0:0:
329,43,20247,1,0,3:0:0:0:
415,51,20547,1,0,3:0:0:0:
276,344,20847,6,0,B|180:312|160:158|248:139|292:156|327:204|307:257,1,344.666661407471,2|0,0:0|0:0,0:0:0:0:
307,254,21447,6,0,B|373:238|373:238|419:264|419:264|484:252|484:252|445:294,1,228.800007680664,2|0,0:0|0:0,0:0:0:0:
411,358,21947,1,0,3:0:0:0:
434,175,22047,6,0,P|424:98|414:3,1,149.600000913086,6|0,3:2|3:0,0:0:0:0:
338,82,22347,2,0,P|344:135|351:201,1,74.800000456543,10|0,0:0|0:0,0:0:0:0:
294,314,22547,1,2,0:0:0:0:
255,239,22647,2,0,P|261:185|268:119,1,74.800000456543,2|0,3:2|0:0,0:0:0:0:
211,7,22847,1,2,0:0:0:0:
172,82,22947,2,0,P|178:135|185:201,1,74.800000456543,10|0,0:0|0:0,0:0:0:0:
120,246,23147,1,0,0:0:0:0:
19,177,23247,6,0,B|114:127|114:127|188:159,1,180.400002752686,2|0,3:2|3:0,0:0:0:0:
376,35,23547,2,0,P|288:56|270:149,1,180.400002752686,10|0,0:0|0:0,0:0:0:0:
360,206,23847,2,0,P|354:157|348:102,1,90.2000013763428,2|0,3:1|0:0,0:0:0:0:
476,0,24047,1,0,3:0:0:0:
461,102,24147,2,0,P|455:150|449:206,1,90.2000013763428,10|0,0:1|0:0,0:0:0:0:
376,35,24347,1,0,3:0:0:0:
265,193,24447,6,0,B|234:234|234:234|307:215|360:204,1,180.400002752686,6|0,3:2|3:0,0:0:0:0:
247,321,24747,2,0,P|209:319|155:276,1,74.800000456543,10|0,0:0|0:0,0:0:0:0:
111,225,24947,1,2,0:2:0:0:
250,69,25047,6,0,P|267:102|256:170,1,74.800000456543,2|0,3:2|0:0,0:0:0:0:
234,234,25247,1,2,0:0:0:0:
31,193,25347,6,0,P|51:161|115:136,1,74.800000456543,10|0,0:0|0:0,0:0:0:0:
182,123,25547,1,2,0:2:0:0:
131,324,25647,6,0,B|0:334|0:334|43:292,1,180.400002752686,2|0,3:2|0:0,0:0:0:0:
234,234,25947,2,0,B|334:202|334:202|370:234|372:306,1,180.400002752686,10|0,0:0|0:0,0:0:0:0:
371,360,26247,5,2,3:1:0:0:
289,317,26347,1,0,3:0:0:0:
368,267,26447,1,0,3:0:0:0:
290,122,26547,5,10,0:1:0:0:
199,169,26647,1,8,0:0:0:0:
286,224,26747,1,8,0:0:0:0:
191,77,26847,6,0,B|145:90|145:90|142:95|142:95|145:90|145:90|104:102|7:134,1,177.833337539292,2|0,3:2|0:0,0:0:0:0:
311,1,27347,6,0,B|422:34|422:34|403:70|362:88,1,177.833337539292,2|0,3:2|0:0,0:0:0:0:
273,238,27747,6,0,B|284:168|293:109|293:109|309:139|328:157,1,177.833337539292,2|0,3:2|0:0,0:0:0:0:
412,323,28247,6,0,B|319:279|335:371|216:322,1,177.833337539292,2|0,3:2|0:0,0:0:0:0:
91,163,28647,6,0,B|67:214|67:214|98:277,1,106.700002523575,2|0,3:2|0:0,0:0:0:0:
178,259,28947,2,0,B|202:208|202:208|171:145,1,106.700002523575,2|0,3:2|0:0,0:0:0:0:
80,38,29247,5,2,3:2:0:0:
88,29,29747,5,2,3:2:0:0:
96,37,30147,5,2,3:2:0:0:
88,44,30647,5,2,3:2:0:0:
379,205,31047,5,2,3:2:0:0:
21,297,31347,1,2,3:2:0:0:
211,29,31647,5,2,3:2:0:0:
256,192,34797,12,0,36347,0:0:0:0:
340,229,36447,6,0,B|348:159|361:91|361:91|312:133,1,196.533324036866,6|0,3:2|0:0,0:0:0:0:
257,295,36747,2,0,P|292:326|359:334,1,85.0666692626954,10|0,0:0|0:0,0:0:0:0:
429,292,36947,1,2,0:0:0:0:
249,207,37047,2,0,P|200:217|142:230,1,85.0666692626954,2|0,3:2|0:0,0:0:0:0:
65,248,37247,1,2,0:0:0:0:
133,87,37347,2,0,P|181:97|240:110,1,85.0666692626954,10|0,0:0|0:0,0:0:0:0:
317,128,37547,1,2,0:0:0:0:
57,146,37647,6,0,B|33:63|33:63|96:-9,1,170.133338525391,2|0,3:2|3:0,0:0:0:0:
293,45,37947,2,0,B|317:128|317:128|254:200,1,170.133338525391,10|0,0:0|0:0,0:0:0:0:
141,319,38247,2,0,P|148:270|159:192,1,85.0666692626954,2|0,3:2|0:0,0:0:0:0:
169,130,38447,1,2,3:2:0:0:
289,380,38547,2,0,P|281:331|271:253,1,85.0666692626954,8|0,0:0|0:0,0:0:0:0:
261,191,38747,1,0,3:0:0:0:
383,288,38847,6,0,B|400:213|400:213|388:177|388:177|410:81,1,196.533324036866,6|2,3:2|0:0,0:0:0:0:
429,8,39147,1,8,0:0:0:0:
277,78,39347,1,2,0:0:0:0:
200,33,39447,2,0,P|151:40|70:52,1,85.0666692626954,2|0,3:2|0:0,0:0:0:0:
2,99,39647,1,2,0:0:0:0:
142,140,39747,2,0,B|80:128|26:120|26:120|30:152|57:188,1,170.133338525391,8|0,0:0|0:0,0:0:0:0:
114,281,40047,6,0,B|239:244|200:332|342:290,1,196.533324036866,2|0,3:2|0:0,0:0:0:0:
435,162,40347,2,0,P|309:164|274:238,1,196.533324036866,10|0,0:0|0:0,0:0:0:0:
329,384,40647,5,2,3:1:0:0:
390,319,40747,1,0,3:0:0:0:
303,299,40847,1,0,3:0:0:0:
172,237,40947,5,10,0:1:0:0:
204,135,41047,1,8,0:0:0:0:
277,213,41147,1,8,0:0:0:0:
115,80,41247,6,0,B|184:23|184:23|281:57,1,177.833337539292,2|0,3:2|0:0,0:0:0:0:
479,127,41747,6,0,B|409:118|409:118|373:141|373:141|282:131,1,177.833337539292,2|0,3:2|0:0,0:0:0:0:
121,300,42147,6,0,P|144:237|244:259,1,177.833337539292,2|0,3:2|0:0,0:0:0:0:
345,353,42647,6,0,P|354:278|366:186,1,142.266670031433,2|0,3:2|0:0,0:0:0:0:
267,63,43047,6,0,P|266:121|299:157,1,106.700002523575,2|0,3:2|0:0,0:0:0:0:
379,126,43347,2,0,P|382:73|349:33,1,106.700002523575,2|0,3:2|0:0,0:0:0:0:
172,21,43647,5,2,3:2:0:0:
180,12,44147,5,2,3:2:0:0:
187,22,44547,5,2,3:2:0:0:
178,27,45047,5,2,3:2:0:0:
415,234,45447,5,2,3:2:0:0:
43,151,45747,1,2,3:2:0:0:
486,63,46047,5,6,3:2:0:0:
424,223,53247,6,0,L|429:180,2,31.5333338144938,2|0|0,3:2|0:0|0:0,0:0:0:0:
362,305,53547,1,0,0:0:0:0:
363,320,53647,1,0,0:0:0:0:
365,336,53747,1,0,0:0:0:0:
433,208,53847,6,0,L|439:156,2,40.333334564209,2|0|0,3:2|0:0|0:0,0:0:0:0:
352,319,54147,1,0,0:0:0:0:
351,336,54247,1,0,0:0:0:0:
349,356,54347,1,0,0:0:0:0:
449,201,54447,6,0,L|455:144,2,57.9333347477214,2|0|0,3:2|0:0|0:0,0:0:0:0:
315,83,54747,1,0,0:0:0:0:
368,153,54847,1,0,0:0:0:0:
402,73,54947,1,0,0:0:0:0:
262,13,55047,6,0,L|177:30,1,85.800000327301
78,46,55247,5,0,0:0:0:0:
141,125,55347,1,0,0:0:0:0:
40,140,55447,1,0,0:0:0:0:
103,219,55547,1,0,0:0:0:0:
2,234,55647,5,2,3:2:0:0:
510,150,55947,5,2,3:2:0:0:
40,140,56247,5,2,3:2:0:0:
472,244,56547,5,2,3:2:0:0:
78,46,56847,5,2,3:2:0:0:
434,338,57447,6,0,P|390:298|381:210,1,146.666666666667,2|2,0:0|0:0,0:0:0:0:
379,214,57947,6,0,B|263:197|263:197|181:251|181:251|56:229,1,323.399984949189,6|0,3:2|3:0,0:0:0:0:
25,43,58347,2,0,P|94:38|152:169,1,215.599989966126,10|0,0:0|0:0,0:0:0:0:
245,384,58647,2,0,P|283:313|270:266,1,107.799994983063,2|0,3:2|0:0,0:0:0:0:
157,152,58847,1,0,3:0:0:0:
344,126,58947,2,0,B|376:141|391:176|391:176|304:139|235:220,1,215.599989966126,10|0,0:0|0:0,0:0:0:0:
89,331,59247,6,0,P|141:322|199:311,1,107.799994983063,2|0,3:2|0:0,0:0:0:0:
368,382,59447,1,0,3:0:0:0:
209,227,59547,6,0,P|261:236|319:247,1,107.799994983063,10|0,0:0|0:0,0:0:0:0:
447,186,59747,5,2,0:0:0:0:
387,114,59847,2,0,P|377:52|406:-2,1,107.799994983063,2|0,3:2|0:0,0:0:0:0:
313,200,60047,5,2,3:2:0:0:
297,107,60147,2,0,P|319:49|371:16,1,107.799994983063,8|0,0:0|0:0,0:0:0:0:
180,246,60347,6,0,B|133:252|99:226|99:226|62:239|62:239|36:204|-13:214|-13:214|-17:149|39:116,1,323.399984949189,6|0,3:2|3:0,0:0:0:0:
203,67,60747,2,0,B|242:21|242:21|160:35|89:45,1,215.599989966126,10|0,0:0|0:0,0:0:0:0:
180,246,61047,2,0,L|328:224,1,107.799994983063,2|0,3:2|0:0,0:0:0:0:
399,209,61247,1,0,3:0:0:0:
143,159,61347,2,0,B|88:203|88:203|99:348,1,215.599989966126,10|0,0:0|0:0,0:0:0:0:
286,230,61647,6,0,P|295:178|306:120,1,107.799994983063,2|0,3:2|0:0,0:0:0:0:
287,33,61847,1,0,3:0:0:0:
418,315,61947,2,0,P|409:263|398:204,1,107.799994983063,10|0,0:0|0:0,0:0:0:0:
417,118,62147,1,2,0:0:0:0:
286,230,62247,2,0,B|241:262|241:262|146:249,1,107.799994983063,0|0,3:2|0:0,0:0:0:0:
84,234,62447,1,2,3:2:0:0:
167,87,62547,5,8,0:0:0:0:
222,178,62647,1,8,0:0:0:0:
254,35,62747,1,8,0:0:0:0:
305,123,62847,6,0,B|378:112|452:103|452:103|389:69,1,215.599989966126,6|0,3:2|3:0,0:0:0:0:
141,6,63147,2,0,B|13:54|13:54|2:90|25:138,1,215.599989966126,10|0,0:0|0:0,0:0:0:0:
242,276,63447,2,0,P|246:217|212:170,1,107.799994983063,2|0,3:2|0:0,0:0:0:0:
142,136,63647,1,0,3:0:0:0:
170,338,63747,2,0,P|218:371|276:364,1,107.799994983063,10|0,0:0|0:0,0:0:0:0:
341,321,63947,1,0,0:0:0:0:
152,248,64047,6,0,B|76:256|1:265|1:265|60:291,1,215.599989966126,2|0,3:2|3:0,0:0:0:0:
341,321,64347,2,0,B|386:197|284:230|342:96,1,215.599989966126,10|0,0:0|0:0,0:0:0:0:
177,41,64647,2,0,P|207:91|202:158,1,107.799994983063,2|0,3:2|0:0,0:0:0:0:
286,10,64847,1,0,3:0:0:0:
107,117,64947,5,10,0:0:0:0:
76,18,65047,1,8,0:0:0:0:
177,41,65147,1,8,0:0:0:0:
114,279,65247,6,0,P|56:277|152:197,1,323.399984949189,2|2,3:2|0:0,0:0:0:0:
407,336,65847,6,0,B|219:384|219:384|150:328|231:239,1,323.399984949189,2|2,3:2|0:0,0:0:0:0:
336,48,66447,5,2,3:2:0:0:
320,154,66597,1,2,0:0:0:0:
304,261,66747,1,2,0:0:0:0:
32,103,66897,6,0,B|163:62|115:158|241:122|241:122|258:66|208:35|163:35,1,328.533333333333,2|0,3:2|3:0,0:0:0:0:
168,31,67347,1,0,3:0:0:0:
81,182,67547,6,0,B|112:246|112:246|96:301|96:301|125:375|125:375|166:346|166:346|192:261,1,336.60001515152,6|0,3:2|3:0,0:0:0:0:
350,194,67947,2,0,P|317:136|298:235,1,224.400010101014,10|0,0:0|0:0,0:0:0:0:
337,384,68247,2,0,P|358:337|340:269,1,112.200005050507,2|0,3:2|0:0,0:0:0:0:
275,228,68447,1,0,3:0:0:0:
468,98,68547,2,0,B|445:185|429:253|429:253|455:250|488:227,1,224.400010101014,10|0,0:0|0:0,0:0:0:0:
392,7,68847,6,0,P|343:-9|269:27,1,112.200005050507,2|0,3:2|0:0,0:0:0:0:
226,71,69047,1,2,3:2:0:0:
317,249,69147,2,0,P|355:214|361:132,1,112.200005050507,10|0,0:0|0:0,0:0:0:0:
344,73,69347,1,2,3:2:0:0:
265,164,69447,2,0,B|131:119|187:224|28:168,1,224.400010101014,0|0,0:0|3:0,0:0:0:0:
18,32,69747,2,0,P|72:46|99:132,1,112.200005050507,8|0,0:0|0:0,0:0:0:0:
212,259,69947,6,0,B|313:295|366:208|366:208|422:308|526:275,1,336.60001515152,6|0,3:2|3:0,0:0:0:0:
406,110,70347,2,0,B|358:85|291:109|265:164|265:164|259:119|224:103,1,224.400010101014,10|0,0:0|0:0,0:0:0:0:
88,136,70647,2,0,P|120:167|194:170,1,112.200005050507,2|0,3:2|0:0,0:0:0:0:
161,87,70847,1,0,3:0:0:0:
15,185,70947,5,8,0:0:0:0:
10,98,71047,1,8,0:0:0:0:
88,136,71147,1,8,0:0:0:0:
197,11,71247,6,0,P|134:9|78:68,1,112.200005050507,2|0,3:1|0:0,0:0:0:0:
303,168,71447,2,0,P|366:170|422:111,1,112.200005050507,2|8,3:1|0:0,0:0:0:0:
196,0,71647,6,0,P|133:-2|77:57,1,112.200005050507,2|0,0:1|0:0,0:0:0:0:
304,179,71847,2,0,P|367:181|423:122,1,112.200005050507,2|0,3:1|0:0,0:0:0:0:
249,89,72047,1,0,3:0:0:0:
199,182,72147,5,8,0:0:0:0:
196,0,72247,1,8,0:0:0:0:
254,272,72347,1,8,0:0:0:0:
333,42,72447,6,0,B|419:-2|419:-2|499:60,1,186.266665245565,6|0,3:2|0:0,0:0:0:0:
199,182,72747,2,0,P|113:172|3:158,1,140.8000034375,2|0,0:0|0:0,0:0:0:0:
285,305,73047,6,0,B|409:281|364:351|480:324,1,186.266665245565,2|0,3:2|0:0,0:0:0:0:
191,181,73347,2,0,P|105:171|-5:157,1,140.8000034375,2|0,0:0|0:0,0:0:0:0:
348,38,73647,6,0,B|509:20|509:20|500:55|463:79,1,212.666673156739,2|0,3:2|0:0,0:0:0:0:
183,180,73947,2,0,P|97:170|-13:156,1,140.8000034375,2|0,0:0|0:0,0:0:0:0:
296,315,74247,6,0,P|388:360|488:306,1,186.266665245565,2|0,3:2|0:0,0:0:0:0:
175,179,74547,2,0,P|89:169|-21:155,1,140.8000034375,2|0,0:0|0:0,0:0:0:0:
334,60,74847,6,0,B|408:37|408:37|462:72|462:72|542:49,1,217.066671966146,0|0,3:2|0:0,0:0:0:0:
167,178,75147,2,0,P|81:168|-29:154,1,140.8000034375,2|0,0:0|0:0,0:0:0:0:
286,338,75447,6,0,B|335:353|373:321|373:321|412:289|508:319,1,198.00000075531,2|0,3:2|0:0,0:0:0:0:
159,177,75747,2,0,P|73:167|-37:153,1,140.8000034375,2|0,0:0|0:0,0:0:0:0:
332,71,76047,6,0,B|434:18|434:18|475:39|493:94,1,186.266665245565,2|0,3:2|0:0,0:0:0:0:
316,183,76347,2,0,B|219:121|219:121|216:75|255:32,1,186.266665245565,2|0,3:2|0:0,0:0:0:0:
421,141,76647,2,0,P|407:188|399:254,1,93.1333326227824,2|0,3:2|0:0,0:0:0:0:
433,332,76847,1,0,3:0:0:0:
300,264,76947,5,10,0:0:0:0:
400,231,77047,1,8,0:0:0:0:
332,364,77147,1,8,0:0:0:0:
211,164,77247,6,0,B|197:227|182:301|182:301|146:242,1,193.59999940918,6|0,3:2|0:0,0:0:0:0:
145,243,77547,1,8,0:0:0:0:
94,48,77747,2,0,B|213:25|161:115|322:79,1,193.59999940918,2|0,3:2|0:0,0:0:0:0:
295,78,78047,1,0,3:0:0:0:
400,231,78147,2,0,B|329:217|329:217|278:237|278:237|201:216,1,193.59999940918,8|0,0:0|0:0,0:0:0:0:
96,181,78447,6,0,P|110:233|125:312,2,96.7999997045899,2|0|0,3:2|0:0|3:0,0:0:0:0:
43,365,78747,2,0,P|131:308|227:341,1,193.59999940918,8|0,0:0|0:0,0:0:0:0:
380,348,79047,6,0,B|369:286|369:286|400:232|400:232|384:156,1,193.59999940918,2|0,3:1|0:0,0:0:0:0:
309,33,79347,2,0,B|320:95|320:95|289:149|289:149|305:225,1,193.59999940918,10|0,0:1|0:0,0:0:0:0:
193,68,79647,6,0,P|143:58|51:131,1,159.866668374227,2|0,3:2|3:0,0:0:0:0:
29,204,79947,1,8,0:0:0:0:
125,309,80147,1,0,3:0:0:0:
125,309,80247,2,0,B|162:255|162:255|143:127,1,159.866668374227,0|0,3:0|0:0,0:0:0:0:
241,48,80547,6,0,B|278:11|278:11|269:81|260:155,1,195.066658630168,10|0,0:1|0:0,0:0:0:0:
247,264,80847,5,0,3:0:0:0:
405,358,81047,2,0,B|384:265|359:182|359:182|417:156|475:207,1,292.599987945252,2|0,0:0|0:0,0:0:0:0:
247,264,81447,6,0,P|169:306|58:231,1,195.066658630168,2|0,3:1|0:0,0:0:0:0:
76,171,81747,2,0,P|154:129|265:204,1,195.066658630168,10|0,0:1|0:0,0:0:0:0:
368,336,82047,5,2,3:2:0:0:
382,356,82547,5,2,3:2:0:0:
382,332,82947,5,2,3:2:0:0:
368,351,83447,5,2,3:2:0:0:
390,344,83847,5,2,3:2:0:0:
53,169,84447,5,2,3:2:0:0:
488,98,84947,5,2,3:2:0:0:
14,284,85347,5,2,3:2:0:0:
475,362,85847,5,2,3:2:0:0:
231,65,86247,5,2,3:2:0:0:
231,65,86847,6,0,P|214:124|268:193,1,110.000004196167,2|0,3:2|0:0,0:0:0:0:
427,154,87347,6,0,P|384:109|267:156,1,146.666666666667,2|0,3:2|0:0,0:0:0:0:
253,309,87747,6,0,P|312:294|344:179,1,183.333333333333,2|0,3:1|0:0,0:0:0:0:
