osu file format v14

[General]
AudioFilename: audio.mp3
AudioLeadIn: 0
PreviewTime: 36447
Countdown: 0
SampleSet: Soft
StackLeniency: 0.2
Mode: 0
LetterboxInBreaks: 0
WidescreenStoryboard: 0

[Editor]
Bookmarks: 65620
DistanceSpacing: 1
BeatDivisor: 3
GridSize: 32
TimelineZoom: 3.199999

[Metadata]
Title:VORACITY (TV Size)
TitleUnicode:VORACITY (TV Size)
Artist:MYTH & ROID
ArtistUnicode:MYTH & ROID
Creator:bite you death
Version:VERY CRAZY NORMAL
Source:オーバーロードⅢ
Tags:overlord 3 iii opening op theme song very crazy and no byd - matha -_matha_- shiinoha kotone tomadoi ohwow yonaka- hos hootowlstar
BeatmapID:1709137
BeatmapSetID:814486

[Difficulty]
HPDrainRate:3.5
CircleSize:3.3
OverallDifficulty:4
ApproachRate:5.5
SliderMultiplier:0.999999999999999
SliderTickRate:1

[Events]
//Background and Video events
Video,0,"video.avi"
0,0,"NOT STOLEN.jpg",0,0
//Break Periods
2,31847,35247
2,46247,52047
//Storyboard Layer 0 (Background)
//Storyboard Layer 1 (Fail)
//Storyboard Layer 2 (Pass)
//Storyboard Layer 3 (Foreground)
//Storyboard Sound Samples

[TimingPoints]
447,300,4,2,2,33,1,0
2697,-100,4,2,2,50,0,0
11447,-100,4,2,2,5,0,0
11547,-100,4,2,2,50,0,0
11747,-100,4,2,2,5,0,0
11847,-100,4,2,2,50,0,0
12047,-100,4,2,2,5,0,0
12147,-100,4,2,2,50,0,0
12397,-100,4,2,2,5,0,0
12447,-100,4,2,2,60,0,0
19647,-100,4,2,2,60,0,0
20847,-100,4,2,2,40,0,0
21347,-100,4,2,2,5,0,0
21447,-100,4,2,2,40,0,0
21847,-100,4,2,2,5,0,0
21947,-100,4,2,2,60,0,0
22047,-100,4,2,2,55,0,0
53247,-100,4,2,2,15,0,0
53847,-100,4,2,2,25,0,0
54447,-100,4,2,2,35,0,0
54747,-100,4,2,2,45,0,0
55047,-100,4,2,2,55,0,0
57447,-100,4,2,2,33,0,0
57947,-100,4,2,2,65,0,1
65247,-100,4,2,2,65,0,0
67547,-100,4,2,2,65,0,1
72447,-100,4,2,2,65,0,0
79647,-100,4,2,2,55,0,0
86847,-100,4,2,2,65,0,0
86947,-100,4,2,2,5,0,0
87347,-100,4,2,2,65,0,0
87447,-100,4,2,2,5,0,0
87747,-100,4,2,2,65,0,0
87847,-100,4,2,2,5,0,0

[Colours]
Combo1 : 132,0,132
Combo2 : 255,197,168
Combo3 : 255,183,255
Combo4 : 145,0,0

[HitObjects]
73,57,1647,5,0,1:0:0:0:
163,15,1947,1,0,1:0:0:0:
241,76,2247,2,0,L|224:181,1,99.9999999999999,2|0,1:2|0:0,0:0:0:0:
207,239,2747,6,0,P|77:179|32:341,1,333.333333333333,6|2,3:2|0:0,0:0:0:0:
111,277,4047,6,0,B|275:294|275:294|323:387,1,266.666666666666,6|2,3:2|0:0,0:0:0:0:
421,381,5147,6,0,B|322:190|322:190|387:183|452:218,1,333.333333333333,6|2,3:2|0:0,0:0:0:0:
423,111,6447,6,0,P|353:101|257:115,1,166.666666666667,6|2,3:2|0:0,0:0:0:0:
176,172,7247,1,2,0:0:0:0:
95,66,7647,5,4,3:2:0:0:
51,317,8847,5,6,3:2:0:0:
302,361,10047,5,4,3:2:0:0:
346,110,11247,6,0,P|302:133|235:131,1,99.9999999999999,6|6,3:2|3:2,0:0:0:0:
174,71,11847,2,0,P|124:73|80:96,1,99.9999999999999,6|10,3:2|3:2,0:0:0:0:
22,177,12447,6,0,P|36:260|46:343,1,166.666666666667,6|0,3:2|0:0,0:0:0:0:
157,267,13347,2,0,B|273:241|232:320|373:292,1,200,8|8,0:0|0:0,0:0:0:0:
419,224,14247,1,2,3:1:0:0:
394,127,14547,1,10,0:1:0:0:
369,30,14847,6,0,P|289:42|177:55,1,166.666666666667,2|2,3:2|3:2,0:0:0:0:
71,70,15747,2,0,P|25:132|58:240,1,166.666666666667,10|2,0:0|0:0,0:0:0:0:
125,316,16647,1,2,3:1:0:0:
223,296,16947,1,10,0:1:0:0:
321,276,17247,6,0,B|314:216|314:216|334:175|334:175|323:97,1,166.666666666667,6|2,3:2|3:2,0:0:0:0:
235,16,18147,2,0,P|169:49|69:25,1,166.666666666667,10|2,0:0|3:2,0:0:0:0:
16,149,19047,1,2,3:1:0:0:
41,245,19347,1,10,0:1:0:0:
66,341,19647,5,4,3:2:0:0:
66,341,20847,6,0,P|174:272|223:313,1,200,2|2,0:0|0:0,0:0:0:0:
216,303,22047,5,6,3:2:0:0:
280,379,22347,1,10,0:0:0:0:
356,314,22647,2,0,B|405:294|405:294|467:322,1,99.9999999999999,2|10,3:2|0:0,0:0:0:0:
512,236,23247,2,0,P|472:199|463:135,1,99.9999999999999,2|10,3:2|0:0,0:0:0:0:
363,143,23847,2,0,P|351:195|300:235,1,99.9999999999999,2|10,3:1|0:1,0:0:0:0:
220,239,24447,5,6,3:2:0:0:
122,217,24747,1,10,0:0:0:0:
24,196,25047,2,0,L|33:310,1,99.9999999999999,2|10,3:2|0:0,0:0:0:0:
102,366,25647,2,0,P|148:338|214:352,1,99.9999999999999,2|10,3:2|0:0,0:0:0:0:
277,287,26247,2,0,P|323:315|389:301,1,99.9999999999999,2|10,3:1|0:1,0:0:0:0:
451,258,26847,6,0,P|436:181|420:69,1,166.666666666667,2|2,3:2|3:2,0:0:0:0:
311,21,27747,2,0,P|246:66|150:47,1,166.666666666667,2|2,3:2|3:2,0:0:0:0:
71,152,28647,1,2,3:2:0:0:
96,248,28947,1,2,3:2:0:0:
124,342,29247,6,0,B|181:325|181:325|225:341|225:341|305:321,1,166.666666666667,2|2,3:2|3:2,0:0:0:0:
412,289,30147,2,0,P|444:229|404:133,1,166.666666666667,2|2,3:2|3:2,0:0:0:0:
298,72,31047,1,2,3:2:0:0:
199,88,31347,1,2,3:2:0:0:
100,104,31647,5,2,3:2:0:0:
100,104,36447,5,6,3:2:0:0:
184,156,36747,2,0,L|313:132,1,99.9999999999999,10|2,0:0|3:2,0:0:0:0:
380,118,37347,1,10,0:0:0:0:
347,211,37647,2,0,L|367:320,1,99.9999999999999,2|10,3:2|0:0,0:0:0:0:
463,330,38247,2,0,L|443:221,1,99.9999999999999,2|8,3:2|0:0,0:0:0:0:
482,138,38847,6,0,P|478:89|508:33,1,99.9999999999999,6|8,3:2|0:0,0:0:0:0:
401,19,39447,2,0,P|360:46|297:48,1,99.9999999999999,2|8,3:2|0:0,0:0:0:0:
215,21,40047,1,2,3:2:0:0:
231,119,40347,1,10,0:0:0:0:
247,217,40647,2,0,B|204:211|204:211|193:214|193:214|127:202,1,99.9999999999999,2|10,3:1|0:1,0:0:0:0:
80,132,41247,6,0,P|48:192|86:284,1,166.666666666667,2|2,3:2|3:2,0:0:0:0:
181,366,42147,2,0,B|236:345|236:345|286:364|286:364|366:340,1,166.666666666667,2|2,3:2|3:2,0:0:0:0:
455,284,43047,1,2,3:2:0:0:
423,189,43347,1,2,3:2:0:0:
391,94,43647,6,0,B|293:67|324:131|215:105,1,166.666666666667,2|2,3:2|3:2,0:0:0:0:
106,160,44547,2,0,B|156:196|156:196|138:331,1,166.666666666667,2|2,3:2|3:2,0:0:0:0:
253,373,45447,1,2,3:2:0:0:
336,318,45747,1,2,3:2:0:0:
419,373,46047,5,6,3:2:0:0:
419,373,53247,6,0,B|386:254|474:295|430:152,1,200,2|2,3:2|3:2,0:0:0:0:
268,72,54447,6,0,P|187:106|347:205,1,400,2|2,3:2|3:2,0:0:0:0:
398,138,55947,5,2,3:2:0:0:
438,230,56247,1,2,3:2:0:0:
478,322,56547,1,2,3:2:0:0:
378,310,56847,5,2,3:2:0:0:
210,200,57447,6,0,B|181:197|181:197|166:202|166:202|134:199,1,66.6666666666666,2|2,0:0|0:0,0:0:0:0:
50,165,57947,6,0,P|74:97|55:24,1,133.333333333333,6|10,3:2|0:0,0:0:0:0:
163,37,58647,2,0,P|209:91|260:105,1,99.9999999999999,2|10,3:2|0:0,0:0:0:0:
330,70,59247,2,0,B|379:44|379:44|358:165,1,166.666666666667,2|2,3:2|0:0,0:0:0:0:
340,251,60047,1,2,3:2:0:0:
320,348,60347,6,0,B|246:330|268:382|163:353,1,133.333333333333,6|10,3:2|0:0,0:0:0:0:
125,283,61047,2,0,P|133:232|141:164,1,99.9999999999999,2|10,3:2|0:0,0:0:0:0:
158,85,61647,2,0,B|271:61|271:61|325:112,1,166.666666666667,2|2,3:2|0:0,0:0:0:0:
370,174,62447,2,0,P|360:236|350:317,1,133.333333333333,2|6,3:2|3:2,0:0:0:0:
269,363,63147,6,0,P|214:338|174:342,1,99.9999999999999,10|2,0:0|3:2,0:0:0:0:
84,383,63747,1,10,0:0:0:0:
43,291,64047,2,0,L|57:161,1,99.9999999999999,2|10,3:2|0:0,0:0:0:0:
150,167,64647,2,0,L|136:37,1,99.9999999999999,2|10,3:2|0:0,0:0:0:0:
43,36,65247,5,2,3:2:0:0:
235,98,65847,1,2,3:2:0:0:
173,290,66447,1,2,3:2:0:0:
331,342,66947,2,0,L|325:220,1,99.9999999999999,0|0,3:0|3:0,0:0:0:0:
361,148,67547,6,0,B|313:141|313:141|278:154|278:154|215:144,1,133.333333333333,6|10,3:2|0:0,0:0:0:0:
179,61,68247,2,0,P|138:91|125:145,1,99.9999999999999,2|10,3:2|0:0,0:0:0:0:
24,131,68847,2,0,P|33:184|134:232,1,166.666666666667,2|2,3:2|3:2,0:0:0:0:
211,286,69647,1,0,3:0:0:0:
286,352,69947,6,0,P|351:341|418:336,1,133.333333333333,6|10,3:2|0:0,0:0:0:0:
499,277,70647,2,0,P|514:225|489:162,1,99.9999999999999,2|8,3:2|0:0,0:0:0:0:
426,116,71247,2,0,B|363:107|363:107|305:140|305:140|219:126,1,200,2|2,3:1|3:1,0:0:0:0:
138,109,72147,1,8,0:0:0:0:
39,89,72447,5,6,3:2:0:0:
59,188,72747,1,2,0:0:0:0:
79,287,73047,2,0,L|202:265,1,99.9999999999999,2|2,3:2|0:0,0:0:0:0:
197,368,73647,1,2,3:2:0:0:
296,348,73947,1,2,0:0:0:0:
395,328,74247,2,0,L|373:205,1,99.9999999999999,2|2,3:2|0:0,0:0:0:0:
476,210,74847,5,0,3:2:0:0:
456,111,75147,1,2,0:0:0:0:
436,12,75447,2,0,L|313:34,1,99.9999999999999,2|2,3:2|0:0,0:0:0:0:
265,99,76047,2,0,L|142:77,1,99.9999999999999,2|2,3:2|3:2,0:0:0:0:
67,63,76647,1,2,3:2:0:0:
100,158,76947,1,10,0:0:0:0:
67,253,77247,6,0,B|167:272|138:206|252:233,1,166.666666666667,6|2,3:2|3:2,0:0:0:0:
344,293,78147,2,0,B|384:249|384:249|362:118,1,166.666666666667,8|0,0:0|3:0,0:0:0:0:
342,12,79047,1,2,3:1:0:0:
244,35,79347,1,10,0:1:0:0:
146,58,79647,6,0,P|139:108|128:166,1,99.9999999999999,2|8,3:2|0:0,0:0:0:0:
56,223,80247,2,0,P|62:273|74:331,1,99.9999999999999,0|10,3:0|0:1,0:0:0:0:
157,374,80847,1,0,3:0:0:0:
242,321,81147,1,8,0:0:0:0:
327,374,81447,2,0,L|431:363,1,99.9999999999999,2|10,3:1|0:1,0:0:0:0:
492,287,82047,6,0,P|461:227|485:123,1,166.666666666667,2|2,3:2|3:2,0:0:0:0:
378,43,82947,2,0,B|314:40|314:40|288:63|288:63|201:56,1,166.666666666667,2|2,3:2|3:2,0:0:0:0:
87,46,83847,1,2,3:2:0:0:
6,228,84447,6,0,P|69:180|153:209,1,166.666666666667,2|2,3:2|3:2,0:0:0:0:
241,297,85347,2,0,B|295:277|295:277|342:294|342:294|415:273,1,166.666666666667,2|2,3:2|3:2,0:0:0:0:
498,188,86247,2,0,P|478:137|485:82,1,99.9999999999999,2|0,3:2|0:0,0:0:0:0:
413,19,86847,6,0,L|230:41,1,166.666666666667,2|2,3:2|3:2,0:0:0:0:
115,58,87747,1,2,3:1:0:0:
