osu file format v14

[General]
AudioFilename: audio.mp3
AudioLeadIn: 0
PreviewTime: 36447
Countdown: 0
SampleSet: Soft
StackLeniency: 0.2
Mode: 0
LetterboxInBreaks: 0
WidescreenStoryboard: 1

[Editor]
Bookmarks: 65620,66947
DistanceSpacing: 1
BeatDivisor: 3
GridSize: 32
TimelineZoom: 3.499999

[Metadata]
Title:VORACITY (TV Size)
TitleUnicode:VORACITY (TV Size)
Artist:MYTH & ROID
ArtistUnicode:MYTH & ROID
Creator:bite you death
Version:VERY CRAZY HARD
Source:オーバーロードⅢ
Tags:overlord 3 iii opening op theme song very crazy and no byd - matha -_matha_- shiinoha kotone tomadoi ohwow yonaka- hos hootowlstar
BeatmapID:1712875
BeatmapSetID:814486

[Difficulty]
HPDrainRate:5
CircleSize:3.5
OverallDifficulty:6.8
ApproachRate:7.7
SliderMultiplier:1.3
SliderTickRate:1

[Events]
//Background and Video events
Video,0,"video.avi"
0,0,"NOT STOLEN.jpg",0,0
//Break Periods
2,31847,35652
2,46247,52452
//Storyboard Layer 0 (Background)
//Storyboard Layer 1 (Fail)
//Storyboard Layer 2 (Pass)
//Storyboard Layer 3 (Foreground)
//Storyboard Sound Samples

[TimingPoints]
447,300,4,2,2,33,1,0
2697,-133.333333333333,4,2,2,50,0,0
11247,-111.111111111111,4,2,2,50,0,0
11447,-111.111111111111,4,2,2,5,0,0
11547,-111.111111111111,4,2,2,50,0,0
11747,-111.111111111111,4,2,2,5,0,0
11847,-111.111111111111,4,2,2,50,0,0
12047,-111.111111111111,4,2,2,5,0,0
12147,-111.111111111111,4,2,2,50,0,0
12397,-100,4,2,2,5,0,0
12447,-100,4,2,2,60,0,0
19647,-100,4,2,2,30,0,0
20847,-133.333333333333,4,2,2,40,0,0
21347,-133.333333333333,4,2,2,5,0,0
21447,-133.333333333333,4,2,2,40,0,0
21847,-133.333333333333,4,2,2,5,0,0
21947,-100,4,2,2,60,0,0
22047,-100,4,2,2,55,0,0
53247,-100,4,2,2,15,0,0
53847,-100,4,2,2,25,0,0
54447,-100,4,2,2,35,0,0
54747,-100,4,2,2,45,0,0
55047,-100,4,2,2,55,0,0
57447,-100,4,2,2,33,0,0
57947,-83.3333333333333,4,2,2,65,0,1
65247,-83.3333333333333,4,2,2,65,0,0
67547,-83.3333333333333,4,2,2,65,0,1
72447,-83.3333333333333,4,2,2,65,0,0
77247,-100,4,2,2,65,0,0
79647,-100,4,2,2,55,0,0
86847,-100,4,2,2,65,0,0
86947,-100,4,2,2,5,0,0
87347,-100,4,2,2,65,0,0
87447,-100,4,2,2,5,0,0
87747,-100,4,2,2,65,0,0
87847,-100,4,2,2,5,0,0

[Colours]
Combo1 : 132,0,132
Combo2 : 255,197,168
Combo3 : 255,183,255
Combo4 : 145,0,0

[HitObjects]
189,186,1647,5,0,1:0:0:0:
63,151,1947,1,0,1:0:0:0:
96,278,2247,2,0,B|108:319|108:319|75:384,1,86.6666666666667,2|2,1:2|0:0,0:0:0:0:
79,378,2747,6,0,P|158:342|213:368,1,130.000004959107,6|2,3:2|0:0,0:0:0:0:
281,307,3447,2,0,P|342:334|389:315,1,97.50000371933,2|2,0:0|0:0,0:0:0:0:
445,265,4047,6,0,P|439:218|434:155,1,97.50000371933,6|2,3:2|0:0,0:0:0:0:
376,138,4547,2,0,P|382:91|387:28,1,97.50000371933,2|2,0:0|0:0,0:0:0:0:
302,91,5147,6,0,P|244:107|172:70,1,130.000004959107,6|2,3:2|0:0,0:0:0:0:
111,13,5847,1,2,0:0:0:0:
87,108,6147,1,2,0:0:0:0:
141,188,6447,6,0,P|139:236|108:283,1,97.50000371933,6|0,3:2|0:0,0:0:0:0:
107,342,6947,2,0,P|149:319|205:323,1,97.50000371933,2|2,0:0|0:0,0:0:0:0:
316,375,7647,5,4,3:2:0:0:
316,375,8847,6,0,B|327:284|327:284|311:247|311:247|320:150|320:150|399:186|399:186|396:237|396:237|412:273,1,390.00001487732,6|4,3:2|3:2,0:0:0:0:
405,257,11247,6,0,P|445:204|450:184,1,77.999997619629,6|0,3:2|0:0,0:0:0:0:
487,176,11547,2,0,P|462:114|447:100,1,77.999997619629,6|0,3:2|0:0,0:0:0:0:
458,63,11847,2,0,P|392:54|373:60,1,77.999997619629,6|0,3:2|0:0,0:0:0:0:
345,32,12147,1,10,3:2:0:0:
258,129,12447,6,0,B|200:157|200:157|128:125,1,130,6|8,3:2|0:0,0:0:0:0:
98,206,12947,2,0,B|151:242|151:242|159:320,1,130,0|0,0:0|0:0,0:0:0:0:
153,351,13347,6,0,P|213:313|350:356,1,216.666666666667,8|0,0:0|0:0,0:0:0:0:
364,311,13947,1,8,0:0:0:0:
442,205,14247,2,0,P|421:161|424:113,1,86.6666666666667,2|0,3:1|0:0,0:0:0:0:
382,104,14547,2,0,P|409:63|452:42,1,86.6666666666667,10|0,0:1|0:0,0:0:0:0:
403,22,14847,6,0,P|345:1|259:42,1,130,2|8,3:2|0:0,0:0:0:0:
217,79,15347,1,2,3:2:0:0:
202,119,15447,2,0,P|211:168|216:217,1,86.6666666666667,0|0,3:0|3:0,0:0:0:0:
200,245,15747,6,0,B|274:226|274:226|335:255|335:255|423:239,1,216.666666666667,10|2,0:0|0:0,0:0:0:0:
426,203,16347,1,8,0:0:0:0:
454,75,16647,6,0,P|409:85|362:92,1,86.6666666666667,2|0,3:1|3:0,0:0:0:0:
336,120,16947,2,0,P|291:109|244:103,1,86.6666666666667,10|0,0:1|3:0,0:0:0:0:
216,77,17247,6,0,P|150:117|76:103,1,130,6|8,3:2|0:0,0:0:0:0:
26,66,17747,1,2,3:2:0:0:
26,66,17847,2,0,P|10:111|35:172,1,86.6666666666667,0|0,3:0|3:0,0:0:0:0:
45,181,18147,6,0,B|96:208|105:269|105:269|131:211|195:197,1,216.666666666667,10|2,0:0|3:2,0:0:0:0:
211,231,18747,1,8,0:0:0:0:
276,345,19047,2,0,P|329:326|363:335,1,86.6666666666667,2|0,3:1|3:0,0:0:0:0:
382,296,19347,2,0,P|424:332|434:366,1,86.6666666666667,10|8,0:1|0:0,0:0:0:0:
487,345,19647,5,0,3:2:0:0:
463,217,19947,1,0,3:0:0:0:
341,174,20247,1,0,3:0:0:0:
365,46,20547,1,0,3:0:0:0:
241,87,20847,6,0,P|176:131|89:102,1,162.500006198883,2|0,0:0|0:0,0:0:0:0:
76,135,21447,6,0,P|89:202|104:289,1,130.000004959107,2|0,0:0|0:0,0:0:0:0:
109,305,21947,1,0,3:0:0:0:
119,347,22047,6,0,L|219:337,1,86.6666666666667,6|0,3:2|3:0,0:0:0:0:
248,330,22347,2,0,P|291:343|317:378,1,86.6666666666667,10|2,0:0|0:0,0:0:0:0:
359,381,22647,1,2,3:2:0:0:
421,321,22847,1,2,0:0:0:0:
401,282,22947,2,0,P|405:240|410:185,1,86.6666666666667,10|0,0:0|0:0,0:0:0:0:
386,159,23247,6,0,P|346:144|287:164,1,86.6666666666667,2|0,3:2|3:0,0:0:0:0:
292,110,23547,2,0,P|259:137|246:198,1,86.6666666666667,10|0,0:0|0:0,0:0:0:0:
227,217,23847,2,0,P|180:205|136:201,1,86.6666666666667,2|0,3:1|3:0,0:0:0:0:
120,163,24147,2,0,P|73:174|29:179,1,86.6666666666667,10|0,0:1|3:0,0:0:0:0:
10,214,24447,5,6,3:2:0:0:
47,89,24747,1,10,0:0:0:0:
124,50,24947,1,2,0:2:0:0:
157,77,25047,2,0,P|206:89|263:64,1,86.6666666666667,2|2,3:2|0:0,0:0:0:0:
274,54,25347,2,0,P|315:45|357:57,1,86.6666666666667,10|2,0:0|0:2,0:0:0:0:
392,81,25647,5,2,3:2:0:0:
355,159,25847,1,0,0:0:0:0:
360,202,25947,2,0,L|372:320,1,86.6666666666667,10|0,0:0|0:0,0:0:0:0:
343,323,26247,2,0,P|295:290|232:303,1,86.6666666666667,2|0,3:1|3:0,0:0:0:0:
232,264,26547,2,0,P|184:297|121:284,1,86.6666666666667,10|8,0:1|0:0,0:0:0:0:
117,279,26847,6,0,P|107:172|87:51,1,216.666666666667,2|2,3:2|3:2,0:0:0:0:
89,64,27747,6,0,B|162:39|162:39|219:73|219:73|292:54,1,216.666666666667,2|2,3:2|3:2,0:0:0:0:
457,10,28647,1,2,3:2:0:0:
414,132,28947,1,2,3:2:0:0:
460,253,29247,6,0,B|342:288|382:198|228:251,1,216.666666666667,2|2,3:2|3:2,0:0:0:0:
250,243,30147,6,0,B|307:189|307:189|268:39,1,216.666666666667,2|2,3:2|3:2,0:0:0:0:
105,6,31047,1,2,3:2:0:0:
185,108,31347,1,2,3:2:0:0:
56,126,31647,5,2,3:2:0:0:
56,126,36447,6,0,P|84:192|100:282,1,130,6|10,3:2|0:0,0:0:0:0:
59,326,36947,1,2,0:0:0:0:
90,355,37047,2,0,P|135:346|182:371,1,86.6666666666667,2|2,3:2|0:0,0:0:0:0:
206,336,37347,2,0,P|251:345|298:320,1,86.6666666666667,10|2,0:0|0:0,0:0:0:0:
317,298,37647,6,0,P|308:254|299:195,1,86.6666666666667,2|0,3:2|3:0,0:0:0:0:
295,169,37947,1,10,0:0:0:0:
205,74,38247,2,0,P|196:117|187:177,1,86.6666666666667,2|2,3:2|3:2,0:0:0:0:
182,201,38547,2,0,P|140:182|86:191,1,86.6666666666667,8|0,0:0|3:0,0:0:0:0:
63,207,38847,5,6,3:2:0:0:
76,336,39147,1,8,0:0:0:0:
156,304,39347,1,2,0:0:0:0:
156,304,39447,1,2,3:2:0:0:
220,362,39647,2,0,P|263:376|341:347,1,130,2|0,0:0|0:0,0:0:0:0:
370,317,40047,6,0,P|356:272|347:228,1,86.6666666666667,2|0,3:2|0:0,0:0:0:0:
311,209,40347,2,0,P|324:164|334:120,1,86.6666666666667,10|0,0:0|0:0,0:0:0:0:
322,81,40647,2,0,P|270:82|232:105,1,86.6666666666667,2|0,3:1|3:0,0:0:0:0:
213,132,40947,2,0,P|174:113|131:114,1,86.6666666666667,10|8,0:1|0:0,0:0:0:0:
91,132,41247,6,0,B|110:207|110:207|94:260|94:260|121:360,1,216.666666666667,2|2,3:2|3:2,0:0:0:0:
115,341,42147,6,0,B|243:306|200:381|334:353,1,216.666666666667,2|2,3:2|3:2,0:0:0:0:
478,273,43047,1,2,3:2:0:0:
354,233,43347,1,2,3:2:0:0:
450,145,43647,6,0,B|439:78|430:4|430:4|379:87,1,216.666666666667,2|2,3:2|3:2,0:0:0:0:
391,67,44547,6,0,B|315:48|315:48|262:78|262:78|183:57,1,216.666666666667,2|2,3:2|3:2,0:0:0:0:
21,6,45447,1,2,3:2:0:0:
69,126,45747,1,2,3:2:0:0:
21,246,46047,5,6,3:2:0:0:
74,232,53247,6,0,P|139:191|108:292,1,216.666666666667,2|0,3:2|0:0,0:0:0:0:
126,243,53847,6,0,B|193:232|193:232|249:269|249:269|338:260,1,216.666666666667,2|0,3:2|0:0,0:0:0:0:
373,251,54447,6,0,P|453:218|271:155,1,476.666666666667,2|0,3:2|0:0,0:0:0:0:
278,164,55647,5,2,3:2:0:0:
154,123,55947,1,2,3:2:0:0:
181,251,56247,1,2,3:2:0:0:
60,292,56547,1,2,3:2:0:0:
157,377,56847,5,2,3:2:0:0:
157,377,57447,6,0,P|186:352|248:341,1,86.6666666666667,2|0,0:0|0:0,0:0:0:0:
373,275,57947,6,0,P|360:199|347:110,1,155.999995239258,6|0,3:2|3:0,0:0:0:0:
322,76,58347,2,0,P|262:62|216:86,1,103.999996826172,10|0,0:0|0:0,0:0:0:0:
182,48,58647,2,0,P|122:62|76:38,1,103.999996826172,2|0,3:2|3:0,0:0:0:0:
83,97,58947,2,0,P|125:141|127:193,1,103.999996826172,10|0,0:0|0:0,0:0:0:0:
97,223,59247,5,2,3:2:0:0:
62,261,59347,1,0,0:0:0:0:
59,312,59447,1,0,3:0:0:0:
93,351,59547,1,10,0:0:0:0:
170,281,59747,1,2,0:0:0:0:
170,281,59847,2,0,P|214:258|286:273,1,103.999996826172,2|2,3:2|3:2,0:0:0:0:
313,287,60147,1,8,0:0:0:0:
387,214,60347,6,0,P|373:131|361:40,1,155.999995239258,6|0,3:2|3:0,0:0:0:0:
357,8,60747,2,0,P|300:42|240:33,1,103.999996826172,10|0,0:0|0:0,0:0:0:0:
229,81,61047,2,0,P|172:47|112:56,1,103.999996826172,2|0,3:2|3:0,0:0:0:0:
87,67,61347,2,0,P|94:122|101:183,1,103.999996826172,10|0,0:0|0:0,0:0:0:0:
60,214,61647,5,2,3:2:0:0:
54,265,61747,1,0,0:0:0:0:
49,317,61847,1,0,3:0:0:0:
44,369,61947,1,10,0:0:0:0:
141,333,62147,1,2,0:0:0:0:
141,333,62247,2,0,P|196:322|250:348,1,103.999996826172,0|2,3:2|3:2,0:0:0:0:
277,375,62547,1,8,0:0:0:0:
357,309,62747,1,8,0:0:0:0:
357,309,62847,6,0,P|346:234|336:134,1,155.999995239258,6|10,3:2|0:0,0:0:0:0:
275,10,63447,2,0,B|177:7|228:67|97:54,1,155.999995239258,2|10,3:2|0:0,0:0:0:0:
31,176,64047,5,2,3:2:0:0:
73,146,64147,1,0,0:0:0:0:
124,143,64247,1,0,3:0:0:0:
169,168,64347,2,0,P|158:223|149:284,1,103.999996826172,10|0,0:0|0:0,0:0:0:0:
160,321,64647,2,0,P|213:293|267:300,1,103.999996826172,2|0,3:2|3:0,0:0:0:0:
298,266,64947,2,0,P|351:294|405:287,1,103.999996826172,10|0,0:0|0:0,0:0:0:0:
441,270,65247,5,2,3:2:0:0:
479,118,65547,1,2,0:0:0:0:
329,162,65847,1,2,3:2:0:0:
291,10,66147,1,2,0:0:0:0:
178,119,66447,6,0,P|142:173|148:233,1,103.999996826172,2|0,3:2|0:0,0:0:0:0:
154,261,66747,1,2,0:0:0:0:
207,350,66947,1,0,3:0:0:0:
237,200,67247,1,0,3:0:0:0:
237,200,67347,1,0,3:0:0:0:
309,274,67547,6,0,P|391:296|464:254,1,155.999995239258,6|0,3:2|3:0,0:0:0:0:
486,228,67947,2,0,P|472:181|462:103,1,103.999996826172,10|0,0:0|0:0,0:0:0:0:
462,74,68247,2,0,P|404:104|334:86,1,103.999996826172,2|0,3:2|3:0,0:0:0:0:
323,131,68547,2,0,P|265:101|195:119,1,103.999996826172,10|0,0:0|0:0,0:0:0:0:
187,135,68847,5,2,3:2:0:0:
140,158,68947,1,0,0:0:0:0:
88,153,69047,1,2,3:2:0:0:
51,116,69147,1,10,0:0:0:0:
7,210,69347,1,2,3:2:0:0:
7,210,69447,2,0,L|25:317,1,103.999996826172,0|0,0:0|3:0,0:0:0:0:
33,363,69747,1,8,0:0:0:0:
106,289,69947,6,0,P|169:254|270:302,1,155.999995239258,6|0,3:2|3:0,0:0:0:0:
283,312,70347,2,0,P|336:332|411:302,1,103.999996826172,10|0,0:0|0:0,0:0:0:0:
419,288,70647,2,0,L|402:171,1,103.999996826172,2|0,3:2|3:0,0:0:0:0:
393,134,70947,1,8,0:0:0:0:
406,30,71147,1,8,0:0:0:0:
406,30,71247,5,2,3:1:0:0:
310,71,71447,1,2,3:1:0:0:
214,30,71647,1,2,0:1:0:0:
118,71,71847,5,2,3:1:0:0:
159,167,72047,1,0,3:0:0:0:
159,167,72147,1,8,0:0:0:0:
118,263,72347,1,8,0:0:0:0:
118,263,72447,6,0,P|181:269|229:248,1,103.999996826172,6|0,3:2|0:0,0:0:0:0:
256,290,72747,2,0,P|319:284|367:305,1,103.999996826172,2|0,0:0|0:0,0:0:0:0:
405,280,73047,2,0,P|396:227|390:166,1,103.999996826172,2|0,3:2|0:0,0:0:0:0:
343,154,73347,2,0,P|351:101|358:40,1,103.999996826172,2|0,0:0|0:0,0:0:0:0:
324,9,73647,6,0,P|278:38|206:35,1,103.999996826172,2|0,3:2|0:0,0:0:0:0:
192,78,73947,2,0,P|146:49|74:52,1,103.999996826172,2|0,0:0|0:0,0:0:0:0:
51,70,74247,2,0,P|58:126|65:177,1,103.999996826172,2|0,3:2|0:0,0:0:0:0:
114,186,74547,2,0,P|106:242|100:293,1,103.999996826172,2|0,0:0|0:0,0:0:0:0:
51,302,74847,5,0,3:2:0:0:
201,262,75147,1,2,0:0:0:0:
242,112,75447,1,2,3:2:0:0:
392,152,75747,1,2,0:0:0:0:
288,34,76047,6,0,P|226:22|180:46,1,103.999996826172,2|0,3:2|0:0,0:0:0:0:
155,76,76347,2,0,P|106:92|57:79,1,103.999996826172,2|0,3:2|0:0,0:0:0:0:
24,38,76647,1,2,3:2:0:0:
0,139,76847,1,0,3:0:0:0:
0,139,76947,1,10,0:0:0:0:
24,240,77147,1,8,0:0:0:0:
56,211,77247,6,0,P|118:184|194:226,1,130,6|8,3:2|0:0,0:0:0:0:
231,268,77747,2,0,P|291:286|349:260,1,130,2|0,3:2|3:0,0:0:0:0:
374,223,78147,2,0,P|364:172|355:99,1,86.6666666666667,8|0,0:0|0:0,0:0:0:0:
338,99,78447,6,0,P|276:81|219:107,1,130,2|8,3:2|0:0,0:0:0:0:
120,192,79047,2,0,P|150:249|152:290,1,86.6666666666667,2|0,3:1|0:0,0:0:0:0:
195,282,79347,2,0,P|165:339|163:380,1,86.6666666666667,10|0,0:1|0:0,0:0:0:0:
124,382,79647,5,2,3:2:0:0:
251,355,79947,1,8,0:0:0:0:
195,282,80147,1,0,3:0:0:0:
195,282,80247,1,0,3:0:0:0:
286,270,80447,1,0,0:0:0:0:
286,270,80547,6,0,P|296:223|302:150,1,86.6666666666667,10|0,0:1|0:0,0:0:0:0:
300,141,80847,1,0,3:0:0:0:
381,171,81047,2,0,P|457:156|486:76,1,130,2|0,0:0|0:0,0:0:0:0:
498,74,81447,1,2,3:1:0:0:
425,26,81647,1,0,0:0:0:0:
425,26,81747,1,10,0:1:0:0:
352,74,81947,1,0,0:0:0:0:
352,74,82047,6,0,L|191:60,1,130,2|0,3:2|0:0,0:0:0:0:
206,147,82547,2,0,L|45:161,1,130,2|0,3:2|0:0,0:0:0:0:
33,165,82947,1,2,3:2:0:0:
197,306,83447,1,2,3:2:0:0:
34,365,83847,1,2,3:2:0:0:
239,205,84447,6,0,P|304:238|386:209,1,130,2|0,3:2|0:0,0:0:0:0:
377,144,84947,2,0,P|312:111|230:140,1,130,2|0,3:2|0:0,0:0:0:0:
224,92,85347,2,0,P|159:125|77:96,1,130,2|0,3:2|0:0,0:0:0:0:
35,63,85847,1,2,3:2:0:0:
73,231,86247,1,2,3:2:0:0:
277,70,86847,5,2,3:2:0:0:
234,282,87347,1,2,3:2:0:0:
175,119,87747,1,2,3:1:0:0:
