osu file format v14

[General]
AudioFilename: audio.mp3
AudioLeadIn: 0
PreviewTime: 36447
Countdown: 0
SampleSet: Soft
StackLeniency: 0.3
Mode: 0
LetterboxInBreaks: 0
WidescreenStoryboard: 1

[Editor]
Bookmarks: 2747,7647,12447,19647,22047,26847,31647,36447,41247,46047,55647,57947,65247,67547,72447,77247,82047,86847,88047
DistanceSpacing: 0.4
BeatDivisor: 6
GridSize: 32
TimelineZoom: 2.3

[Metadata]
Title:VORACITY (TV Size)
TitleUnicode:VORACITY (TV Size)
Artist:MYTH & ROID
ArtistUnicode:MYTH & ROID
Creator:bite you death
Version:OHWOW'S VERY CRAZY EXPERT
Source:オーバーロードⅢ
Tags:overlord 3 iii opening op theme song very crazy and no byd - matha -_matha_- shiinoha kotone tomadoi ohwow yonaka- hos hootowlstar
BeatmapID:1714756
BeatmapSetID:814486

[Difficulty]
HPDrainRate:5
CircleSize:4
OverallDifficulty:8
ApproachRate:9
SliderMultiplier:2
SliderTickRate:1

[Events]
//Background and Video events
Video,0,"video.avi"
0,0,"nej tack.jpg",0,0
//Break Periods
2,31947,35847
//Storyboard Layer 0 (Background)
//Storyboard Layer 1 (Fail)
//Storyboard Layer 2 (Pass)
//Storyboard Layer 3 (Foreground)
//Storyboard Sound Samples

[TimingPoints]
447,300,4,2,11,60,1,0
2747,-166.666666666667,4,2,11,60,0,0
3947,-166.666666666667,4,2,11,5,0,0
4047,-100,4,2,11,60,0,0
4747,-100,4,2,11,5,0,0
4847,-100,4,2,11,60,0,0
5047,-100,4,2,11,5,0,0
5147,-166.666666666667,4,2,11,60,0,0
6347,-166.666666666667,4,2,11,5,0,0
6447,-100,4,2,11,60,0,0
6547,-100,4,2,11,5,0,0
6647,-100,4,2,11,60,0,0
6847,-100,4,2,11,5,0,0
6947,-100,4,2,11,60,0,0
7147,-100,4,2,11,5,0,0
7247,-100,4,2,11,60,0,0
7547,-100,4,2,11,5,0,0
7647,-200,4,2,11,60,0,0
9947,-200,4,2,11,5,0,0
10047,-66.6666666666667,4,2,11,60,0,0
10247,-100,4,2,11,5,0,0
10347,-200,4,2,11,60,0,0
10547,-200,4,2,11,5,0,0
10647,-200,4,2,11,60,0,0
10847,-200,4,2,11,5,0,0
10947,-200,4,2,11,60,0,0
11147,-200,4,2,11,5,0,0
11247,-100,4,2,11,60,0,0
12447,-66.6666666666667,4,2,11,70,0,0
14247,-55.5555555555556,4,2,11,70,0,0
14347,-55.5555555555556,4,2,11,5,0,0
14447,-55.5555555555556,4,2,11,70,0,0
14647,-55.5555555555556,4,2,11,5,0,0
14747,-55.5555555555556,4,2,11,70,0,0
14847,-66.6666666666667,4,2,11,70,0,0
16647,-55.5555555555556,4,2,11,70,0,0
16747,-55.5555555555556,4,2,11,5,0,0
16847,-55.5555555555556,4,2,11,70,0,0
17047,-55.5555555555556,4,2,11,5,0,0
17147,-55.5555555555556,4,2,11,70,0,0
17247,-66.6666666666667,4,2,11,70,0,0
19047,-55.5555555555556,4,2,11,70,0,0
19147,-55.5555555555556,4,2,11,5,0,0
19247,-55.5555555555556,4,2,11,70,0,0
19447,-55.5555555555556,4,2,11,5,0,0
19547,-55.5555555555556,4,2,11,70,0,0
19647,-66.6666666666667,4,2,11,70,0,0
19947,-66.6666666666667,4,2,11,30,0,0
20847,-200,4,2,11,50,0,0
21347,-200,4,2,11,5,0,0
21447,-250,4,2,11,40,0,0
21847,-250,4,2,11,5,0,0
21947,-250,4,2,11,60,0,0
22047,-76.9230769230769,4,2,11,60,0,0
26897,-76.9230769230769,4,2,11,5,0,0
27347,-76.9230769230769,4,2,11,60,0,0
27397,-76.9230769230769,4,2,11,5,0,0
27747,-76.9230769230769,4,2,11,60,0,0
27797,-76.9230769230769,4,2,11,5,0,0
28247,-76.9230769230769,4,2,11,60,0,0
28297,-76.9230769230769,4,2,11,5,0,0
28647,-76.9230769230769,4,2,11,60,0,0
28697,-76.9230769230769,4,2,11,5,0,0
28947,-76.9230769230769,4,2,11,60,0,0
28997,-76.9230769230769,4,2,11,5,0,0
29247,-76.9230769230769,4,2,11,60,0,0
29297,-76.9230769230769,4,2,11,5,0,0
29747,-76.9230769230769,4,2,11,60,0,0
29797,-76.9230769230769,4,2,11,5,0,0
30147,-76.9230769230769,4,2,11,60,0,0
30197,-76.9230769230769,4,2,11,5,0,0
30647,-76.9230769230769,4,2,11,60,0,0
30697,-76.9230769230769,4,2,11,5,0,0
31047,-76.9230769230769,4,2,11,60,0,0
31097,-76.9230769230769,4,2,11,5,0,0
31347,-76.9230769230769,4,2,11,60,0,0
31397,-76.9230769230769,4,2,11,5,0,0
31647,-76.9230769230769,4,2,11,60,0,0
41297,-76.9230769230769,4,2,11,5,0,0
41747,-76.9230769230769,4,2,11,60,0,0
41797,-76.9230769230769,4,2,11,5,0,0
42147,-76.9230769230769,4,2,11,60,0,0
42197,-76.9230769230769,4,2,11,5,0,0
42647,-76.9230769230769,4,2,11,60,0,0
42697,-76.9230769230769,4,2,11,5,0,0
43047,-76.9230769230769,4,2,11,60,0,0
43097,-76.9230769230769,4,2,11,5,0,0
43347,-76.9230769230769,4,2,11,60,0,0
43397,-76.9230769230769,4,2,11,5,0,0
43647,-76.9230769230769,4,2,11,60,0,0
43697,-76.9230769230769,4,2,11,5,0,0
44147,-76.9230769230769,4,2,11,60,0,0
44197,-76.9230769230769,4,2,11,5,0,0
44547,-76.9230769230769,4,2,11,60,0,0
44597,-76.9230769230769,4,2,11,5,0,0
45047,-76.9230769230769,4,2,11,60,0,0
45097,-76.9230769230769,4,2,11,5,0,0
45447,-76.9230769230769,4,2,11,60,0,0
45497,-76.9230769230769,4,2,11,5,0,0
45747,-76.9230769230769,4,2,11,60,0,0
45797,-76.9230769230769,4,2,11,5,0,0
46047,-166.666666666667,4,2,11,40,0,0
53847,-125,4,2,11,50,0,0
54447,-100,4,2,11,60,0,0
55647,-66.6666666666667,4,2,11,60,0,0
55697,-66.6666666666667,4,2,11,5,0,0
55947,-66.6666666666667,4,2,11,60,0,0
55997,-66.6666666666667,4,2,11,5,0,0
56247,-66.6666666666667,4,2,11,60,0,0
56297,-66.6666666666667,4,2,11,5,0,0
56547,-66.6666666666667,4,2,11,60,0,0
56597,-66.6666666666667,4,2,11,5,0,0
56847,-66.6666666666667,4,2,11,60,0,0
56897,-66.6666666666667,4,2,11,5,0,0
57947,-62.5,4,2,11,80,0,1
65247,-50,4,2,11,60,0,0
65447,-50,4,2,11,5,0,0
65547,-200,4,2,11,60,0,0
65747,-200,4,2,11,5,0,0
65847,-50,4,2,11,60,0,0
66047,-50,4,2,11,5,0,0
66147,-200,4,2,11,60,0,0
66347,-200,4,2,11,5,0,0
66447,-50,4,2,11,60,0,0
66747,-100,4,2,11,60,0,0
67547,-62.5,4,2,11,80,0,1
72447,-66.6666666666667,4,2,11,60,0,0
72747,-200,4,2,11,60,0,0
73047,-66.6666666666667,4,2,11,60,0,0
73347,-200,4,2,11,60,0,0
73647,-66.6666666666667,4,2,11,60,0,0
73947,-200,4,2,11,60,0,0
74247,-66.6666666666667,4,2,11,60,0,0
74547,-200,4,2,11,60,0,0
74847,-66.6666666666667,4,2,11,60,0,0
75147,-200,4,2,11,60,0,0
75447,-66.6666666666667,4,2,11,60,0,0
75747,-200,4,2,11,60,0,0
76047,-100,4,2,11,60,0,0
77247,-66.6666666666667,4,2,11,70,0,0
79047,-55.5555555555556,4,2,11,70,0,0
79147,-55.5555555555556,4,2,11,5,0,0
79247,-55.5555555555556,4,2,11,70,0,0
79447,-55.5555555555556,4,2,11,5,0,0
79547,-55.5555555555556,4,2,11,70,0,0
79647,-66.6666666666667,4,2,11,70,0,0
81447,-55.5555555555556,4,2,11,70,0,0
81547,-55.5555555555556,4,2,11,5,0,0
81647,-55.5555555555556,4,2,11,70,0,0
81847,-55.5555555555556,4,2,11,5,0,0
81947,-55.5555555555556,4,2,11,70,0,0
82047,-100,4,2,11,60,0,0
86847,-100,4,2,11,60,0,0
86897,-100,4,2,11,5,0,0
87347,-100,4,2,11,60,0,0
87397,-100,4,2,11,5,0,0
87747,-100,4,2,11,60,0,0
87797,-100,4,2,11,5,0,0

[Colours]
Combo1 : 135,156,182
Combo2 : 187,0,0
Combo3 : 187,168,168
Combo4 : 55,97,166

[HitObjects]
256,192,447,12,0,2247,0:0:0:0:
8,295,2747,6,0,B|92:323|161:253|156:166|94:122|94:122|183:182|283:131,1,479.999985351563,6|0,3:2|0:0,0:0:0:0:
417,52,4047,6,0,P|322:47|283:133,1,200,6|0,3:1|0:0,0:0:0:0:
440,59,4547,2,0,P|398:31|313:38,1,133.333333333333,2|0,0:0|0:0,0:0:0:0:
460,70,4847,2,0,P|410:26|342:19,1,133.333333333333,2|0,0:0|0:0,0:0:0:0:
62,41,5147,6,0,B|123:47|177:77|177:77|109:149|109:149|179:190|179:190|117:277|182:357,1,479.999985351563,6|0,3:2|0:0,0:0:0:0:
388,262,6447,5,6,3:1:0:0:
388,262,6647,2,0,P|361:201|295:155,1,133.333333333333,2|0,0:0|0:0,0:0:0:0:
406,279,6947,2,0,P|404:212|390:143,1,133.333333333333,2|0,0:0|0:0,0:0:0:0:
423,295,7247,2,0,P|434:195|453:97,1,200,2|0,0:0|0:0,0:0:0:0:
487,14,7647,5,4,3:1:0:0:
487,14,8847,6,0,B|437:5|437:5|393:28|393:28|344:20|344:20|299:43|299:43|250:35|250:35|206:58|206:58|136:41,1,366.666666666667,4|0,3:2|0:0,0:0:0:0:
48,15,10047,6,0,P|71:112|78:211,1,200.000007629395,4|0,3:1|0:0,0:0:0:0:
11,345,10347,6,0,P|25:315|43:288,1,66.6666666666667
37,347,10647,2,0,P|60:323|86:304,1,66.6666666666667
60,357,10947,2,0,P|90:343|121:334,1,66.6666666666667
77,374,11247,6,0,P|110:369|144:370,1,66.6666666666667,0|0,3:0|0:0,0:0:0:0:
318,297,11447,1,0,0:0:0:0:
305,320,11547,2,0,P|272:315|238:316,1,66.6666666666667,8|0,0:0|0:0,0:0:0:0:
45,180,11747,1,0,0:0:0:0:
65,214,11847,2,0,P|95:226|124:243,1,66.6666666666667,0|0,3:0|0:0,0:0:0:0:
354,115,12047,1,0,0:0:0:0:
327,161,12147,2,0,P|296:173|267:190,1,66.6666666666667,8|0,0:0|0:0,0:0:0:0:
30,17,12347,1,0,0:0:0:0:
82,101,12447,6,0,P|175:66|277:70,1,200.000007629395,4|0,3:2|3:0,0:0:0:0:
462,0,12747,2,0,P|443:46|442:96,1,100.000003814697,8|0,0:0|0:0,0:0:0:0:
460,288,12947,5,0,3:0:0:0:
418,197,13047,1,0,3:0:0:0:
447,296,13247,5,0,3:0:0:0:
382,218,13347,2,0,P|336:198|286:193,1,100.000003814697,8|0,0:0|0:0,0:0:0:0:
57,297,13547,1,0,3:0:0:0:
64,310,13647,6,0,P|170:311|277:268,1,200.000007629395,0|0,3:0|0:0,0:0:0:0:
512,384,13947,2,0,P|406:385|299:342,1,200.000007629395,8|0,0:0|0:0,0:0:0:0:
464,98,14247,6,0,L|473:217,1,119.999996337891,0|0,3:0|0:0,0:0:0:0:
268,113,14447,1,0,3:0:0:0:
362,47,14547,2,0,L|371:166,1,119.999996337891,8|0,0:0|0:0,0:0:0:0:
166,62,14747,1,0,3:0:0:0:
349,31,14847,6,0,P|343:129|329:232,1,200.000007629395,4|0,3:1|3:0,0:0:0:0:
193,250,15147,2,0,P|189:203|176:143,1,100.000003814697,8|0,0:0|0:0,0:0:0:0:
57,43,15347,5,0,3:0:0:0:
86,138,15447,1,0,3:0:0:0:
20,64,15647,5,0,3:0:0:0:
72,148,15747,2,0,P|127:137|171:138,1,100.000003814697,8|0,0:0|0:0,0:0:0:0:
460,317,15947,1,0,3:0:0:0:
462,302,16047,6,0,B|473:243|473:243|334:263,1,200.000007629395,0|0,3:0|0:0,0:0:0:0:
153,376,16347,2,0,B|142:317|142:317|280:337,1,200.000007629395,8|0,0:0|0:0,0:0:0:0:
341,63,16647,6,0,P|322:119|314:178,1,119.999996337891,0|0,3:0|0:0,0:0:0:0:
252,8,16847,1,0,3:0:0:0:
211,121,16947,2,0,P|220:169|254:248,1,119.999996337891,8|0,0:0|0:0,0:0:0:0:
106,107,17147,1,0,3:0:0:0:
0,267,17247,6,0,P|93:234|181:294,1,200.000007629395,4|0,3:1|3:0,0:0:0:0:
367,331,17547,2,0,P|317:334|269:350,1,100.000003814697,8|0,0:0|0:0,0:0:0:0:
382,157,17747,5,0,3:0:0:0:
465,211,17847,1,0,3:0:0:0:
387,141,18047,5,0,3:0:0:0:
481,171,18147,2,0,P|488:220|486:270,1,100.000003814697,8|0,0:0|0:0,0:0:0:0:
128,240,18347,1,0,3:0:0:0:
138,229,18447,6,0,B|169:181|169:181|239:201|310:201,1,200.000007629395,0|0,3:0|0:0,0:0:0:0:
171,378,18747,2,0,B|140:330|140:330|70:350|-1:350,1,200.000007629395,8|0,0:0|0:0,0:0:0:0:
34,158,19047,6,0,L|65:42,1,119.999996337891,0|0,3:0|0:0,0:0:0:0:
119,249,19247,1,0,3:0:0:0:
142,131,19347,2,0,L|173:15,1,119.999996337891,8|0,0:0|0:0,0:0:0:0:
227,222,19547,1,0,3:0:0:0:
363,187,19647,5,8,3:2:0:0:
391,179,19947,1,0,0:0:0:0:
419,171,20247,1,0,0:0:0:0:
447,163,20547,1,0,0:0:0:0:
475,155,20847,6,0,L|315:201,1,166.666666666667
269,72,21447,6,0,L|371:101,1,106.666666666667
343,6,21947,1,0,3:0:0:0:
177,67,22047,6,0,P|193:105|218:242,1,173.333325398763,4|0,3:2|3:0,0:0:0:0:
318,253,22347,2,0,P|277:237|234:231,1,86.6666626993817,8|0,0:0|0:0,0:0:0:0:
69,169,22547,1,0,3:0:0:0:
86,170,22647,2,0,P|111:202|136:249,1,86.6666626993817,0|0,3:0|0:0,0:0:0:0:
195,327,22847,1,0,3:0:0:0:
203,341,22947,2,0,P|160:336|117:342,1,86.6666626993817,8|0,0:0|0:0,0:0:0:0:
0,273,23147,1,0,3:0:0:0:
15,264,23247,6,0,P|30:178|32:92,1,173.333325398763,0|0,3:0|0:0,0:0:0:0:
147,227,23547,2,0,P|139:140|119:56,1,173.333325398763,8|0,0:0|0:0,0:0:0:0:
264,157,23847,2,0,P|234:75|193:0,1,173.333325398763,0|0,3:0|3:0,0:0:0:0:
203,0,24147,2,0,P|244:76|273:157,1,173.333325398763,8|0,0:0|3:0,0:0:0:0:
210,303,24447,6,0,P|290:261|358:353,1,173.333325398763,4|0,3:2|3:0,0:0:0:0:
443,295,24747,2,0,P|402:310|359:316,1,86.6666626993817,8|0,0:0|0:0,0:0:0:0:
359,126,24947,1,0,3:0:0:0:
374,133,25047,2,0,P|389:173|395:216,1,86.6666626993817,0|0,3:0|0:0,0:0:0:0:
512,68,25247,1,0,3:0:0:0:
497,75,25347,2,0,P|481:115|475:158,1,86.6666626993817,8|0,0:0|0:0,0:0:0:0:
243,25,25547,1,0,3:0:0:0:
238,41,25647,6,0,B|300:51|300:51|346:37|346:37|407:46,1,173.333325398763,0|0,3:0|0:0,0:0:0:0:
120,122,25947,2,0,B|182:132|182:132|228:118|228:118|289:127,1,173.333325398763,8|0,0:0|0:0,0:0:0:0:
2,203,26247,2,0,B|64:213|64:213|110:199|110:199|171:208,1,173.333325398763,0|0,3:0|3:0,0:0:0:0:
171,218,26547,2,0,B|109:208|109:208|63:222|63:222|1:212,1,173.333325398763,8|0,0:0|3:0,0:0:0:0:
23,67,26847,6,0,L|27:110,1,43.3333313496908,2|0,3:2|0:0,0:0:0:0:
114,350,27347,2,0,L|118:306,1,43.3333313496908,2|0,3:2|0:0,0:0:0:0:
489,67,27747,6,0,L|484:110,1,43.3333313496908,2|0,3:2|0:0,0:0:0:0:
398,350,28247,2,0,L|393:306,1,43.3333313496908,2|0,3:2|0:0,0:0:0:0:
123,78,28647,6,0,L|168:86,1,43.3333313496908,2|0,3:2|0:0,0:0:0:0:
389,78,28947,2,0,L|344:86,1,43.3333313496908,2|0,3:2|0:0,0:0:0:0:
123,306,29247,6,0,L|168:298,1,43.3333313496908,2|0,3:2|0:0,0:0:0:0:
34,46,29747,2,0,L|26:88,1,43.3333313496908,2|0,3:2|0:0,0:0:0:0:
389,306,30147,6,0,L|344:298,1,43.3333313496908,2|0,3:2|0:0,0:0:0:0:
478,46,30647,2,0,L|485:88,1,43.3333313496908,2|0,3:2|0:0,0:0:0:0:
152,85,31047,6,0,L|144:127,1,43.3333313496908,2|0,3:2|0:0,0:0:0:0:
360,85,31347,2,0,L|368:127,1,43.3333313496908,2|0,3:2|0:0,0:0:0:0:
256,336,31647,5,10,3:2:0:0:
57,214,36447,6,0,B|94:169|94:169|208:185,1,173.333325398763,4|0,3:2|3:0,0:0:0:0:
232,285,36747,2,0,P|214:245|206:202,1,86.6666626993817,8|0,0:0|0:0,0:0:0:0:
326,363,36947,1,0,3:0:0:0:
342,363,37047,2,0,P|359:323|369:281,1,86.6666626993817,0|0,3:0|0:0,0:0:0:0:
116,366,37247,1,0,3:0:0:0:
109,351,37347,2,0,P|117:308|134:268,1,86.6666626993817,8|0,0:0|0:0,0:0:0:0:
245,103,37547,1,0,3:0:0:0:
258,113,37647,6,0,L|229:305,1,173.333325398763,0|0,3:0|0:0,0:0:0:0:
381,81,37947,2,0,L|352:273,1,173.333325398763,8|0,0:0|0:0,0:0:0:0:
504,49,38247,2,0,L|475:241,1,173.333325398763,0|0,3:0|3:0,0:0:0:0:
469,223,38547,2,0,L|494:51,1,173.333325398763,8|0,0:0|3:0,0:0:0:0:
347,3,38847,6,0,B|329:13|309:32|309:32|251:4|180:14,1,173.333325398763,4|0,3:2|3:0,0:0:0:0:
89,9,39147,2,0,P|132:12|173:24,1,86.6666626993817,8|0,0:0|0:0,0:0:0:0:
52,168,39347,1,0,3:0:0:0:
35,160,39447,2,0,P|31:116|20:75,1,86.6666626993817,0|0,3:0|0:0,0:0:0:0:
121,248,39647,1,0,3:0:0:0:
138,240,39747,2,0,P|141:196|152:155,1,86.6666626993817,8|0,0:0|0:0,0:0:0:0:
242,333,39947,1,0,3:0:0:0:
236,349,40047,6,0,P|159:327|90:391,1,173.333325398763,0|0,3:0|0:0,0:0:0:0:
363,219,40347,2,0,P|282:197|219:252,1,173.333325398763,8|0,0:0|0:0,0:0:0:0:
490,89,40647,2,0,P|409:67|346:122,1,173.333325398763,0|0,3:0|3:0,0:0:0:0:
348,132,40947,2,0,P|410:77|491:98,1,173.333325398763,8|0,0:0|3:0,0:0:0:0:
480,345,41247,6,0,L|470:302,1,43.3333313496908,2|0,3:2|0:0,0:0:0:0:
268,134,41747,2,0,L|277:176,1,43.3333313496908,2|0,3:2|0:0,0:0:0:0:
399,352,42147,6,0,L|389:309,1,43.3333313496908,2|0,3:2|0:0,0:0:0:0:
187,141,42647,2,0,L|196:183,1,43.3333313496908,2|0,3:2|0:0,0:0:0:0:
318,359,43047,6,0,L|308:316,1,43.3333313496908,2|0,3:2|0:0,0:0:0:0:
237,366,43347,2,0,L|227:323,1,43.3333313496908,2|0,3:2|0:0,0:0:0:0:
32,39,43647,6,0,L|41:81,1,43.3333313496908,2|0,3:2|0:0,0:0:0:0:
244,250,44147,2,0,L|234:207,1,43.3333313496908,2|0,3:2|0:0,0:0:0:0:
113,32,44547,6,0,L|122:74,1,43.3333313496908,2|0,3:2|0:0,0:0:0:0:
325,243,45047,2,0,L|315:200,1,43.3333313496908,2|0,3:2|0:0,0:0:0:0:
194,25,45447,6,0,L|203:67,1,43.3333313496908,2|0,3:2|0:0,0:0:0:0:
275,18,45747,2,0,L|284:60,1,43.3333313496908,2|0,3:2|0:0,0:0:0:0:
480,345,46047,5,14,3:2:0:0:
480,345,46647,6,0,P|370:298|252:309,1,239.999992675781,2|2,0:0|0:0,0:0:0:0:
252,309,48147,1,2,0:0:0:0:
130,238,48447,5,2,0:0:0:0:
171,367,48747,2,0,L|149:248,1,119.999996337891,2|0,0:0|0:0,0:0:0:0:
190,377,49347,1,2,0:0:0:0:
218,152,49647,1,2,0:0:0:0:
259,281,49947,2,0,L|237:162,1,119.999996337891,2|0,0:0|0:0,0:0:0:0:
278,291,50847,5,0,0:0:0:0:
297,301,51447,1,2,0:0:0:0:
370,245,52047,6,0,B|323:195|257:218|257:218|204:257|147:231,1,239.999992675781,2|0,0:0|0:0,0:0:0:0:
35,76,52947,1,2,0:0:0:0:
108,146,53247,6,0,L|121:80,5,39.9999987792969,2|0|0|0|0|0,0:0|0:0|0:0|0:0|0:0|0:0,0:0:0:0:
199,49,53847,2,0,L|209:101,5,53.3333333333333,2|0|0|0|0|0,0:0|0:0|0:0|0:0|0:0|0:0,0:0:0:0:
298,154,54447,6,0,L|310:88,11,66.6666666666667,2|0|0|0|0|0|0|0|0|0|0|0,0:0|0:0|0:0|0:0|0:0|0:0|0:0|0:0|0:0|0:0|0:0|0:0,0:0:0:0:
400,20,55647,6,0,L|449:28,1,50.0000019073487,10|0,3:2|0:0,0:0:0:0:
408,109,55947,6,0,L|457:117,1,50.0000019073487,10|0,3:2|0:0,0:0:0:0:
416,198,56247,6,0,L|465:206,1,50.0000019073487,10|0,3:2|0:0,0:0:0:0:
424,287,56547,6,0,L|473:295,1,50.0000019073487,10|0,3:2|0:0,0:0:0:0:
432,376,56847,6,0,L|481:384,1,50.0000019073487,10|0,3:2|0:0,0:0:0:0:
432,375,57947,6,0,P|425:244|317:318,1,320,6|0,3:2|3:0,0:0:0:0:
422,381,58347,2,0,P|319:352|213:344,1,213.333333333333,10|0,0:0|3:0,0:0:0:0:
25,272,58647,2,0,P|30:182|112:219,1,213.333333333333,2|0,3:2|3:0,0:0:0:0:
36,278,58947,2,0,P|138:249|244:241,1,213.333333333333,10|0,0:0|3:0,0:0:0:0:
350,37,59247,6,0,L|245:16,1,106.666666666667,6|0,3:1|0:0,0:0:0:0:
459,86,59447,1,2,0:0:0:0:
358,118,59547,2,0,L|256:152,1,106.666666666667,10|0,0:0|0:0,0:0:0:0:
476,105,59747,1,2,0:0:0:0:
405,184,59847,2,0,L|334:264,1,106.666666666667,2|0,3:2|0:0,0:0:0:0:
500,113,60047,1,2,3:2:0:0:
478,217,60147,2,0,L|457:321,1,106.666666666667,10|0,0:0|0:0,0:0:0:0:
138,341,60347,6,0,B|98:251|98:251|319:263,1,320,6|0,3:2|3:0,0:0:0:0:
247,372,60747,2,0,B|33:384,1,213.333333333333,10|0,0:0|3:0,0:0:0:0:
133,152,61047,2,0,B|159:92|159:92|12:100,1,213.333333333333,2|0,3:2|3:0,0:0:0:0:
128,162,61347,2,0,B|342:174,1,213.333333333333,10|0,0:0|3:0,0:0:0:0:
436,384,61647,6,0,L|329:377,1,106.666666666667,6|0,3:1|0:0,0:0:0:0:
512,259,61847,1,2,0:0:0:0:
416,304,61947,2,0,L|319:351,1,106.666666666667,10|0,0:0|0:0,0:0:0:0:
419,159,62147,1,2,0:0:0:0:
360,247,62247,2,0,L|300:336,1,106.666666666667,2|0,3:2|0:0,0:0:0:0:
290,118,62447,1,2,0:0:0:0:
282,225,62547,2,0,L|275:330,1,106.666666666667,10|0,0:0|0:0,0:0:0:0:
56,305,62747,1,0,0:0:0:0:
1,155,62847,6,0,B|41:102|41:102|186:127,1,213.333333333333,4|0,3:2|3:0,0:0:0:0:
245,14,63147,2,0,B|140:-4,1,106.666666666667,10|0,0:0|0:0,0:0:0:0:
291,118,63347,1,0,3:0:0:0:
313,122,63447,2,0,B|382:41,1,106.666666666667,2|0,3:2|0:0,0:0:0:0:
200,110,63647,1,0,3:0:0:0:
186,127,63747,2,0,B|223:227,1,106.666666666667,10|0,0:0|0:0,0:0:0:0:
180,383,63947,1,2,0:0:0:0:
29,326,64048,6,0,P|15:274|6:222,1,106.666666666667,6|0,3:1|0:0,0:0:0:0:
391,221,64247,1,2,0:0:0:0:
482,163,64348,2,0,P|496:111|505:59,1,106.666666666667,10|0,0:0|0:0,0:0:0:0:
163,22,64547,1,2,0:0:0:0:
105,113,64648,2,0,P|53:127|1:135,1,106.666666666667,2|0,3:2|0:0,0:0:0:0:
292,277,64847,1,2,0:0:0:0:
381,336,64948,2,0,P|433:329|484:314,1,106.666666666667,10|0,0:0|0:0,0:0:0:0:
495,47,65247,6,0,P|407:135|298:75,1,266.666666666667,2|0,3:2|0:0,0:0:0:0:
295,63,65547,2,0,P|263:68|230:61,1,66.6666666666667,2|0,0:0|0:0,0:0:0:0:
25,309,65847,6,0,P|114:221|223:281,1,266.666666666667,2|0,3:2|0:0,0:0:0:0:
224,293,66147,2,0,P|257:288|290:295,1,66.6666666666667,2|0,0:0|0:0,0:0:0:0:
443,318,66447,6,0,L|395:55,1,266.666666666667,2|0,3:2|0:0,0:0:0:0:
393,43,66747,1,2,0:0:0:0:
433,315,66947,6,0,P|367:302|301:295,1,133.333333333333,2|0,3:2|0:0,0:0:0:0:
150,322,67247,1,0,3:0:0:0:
163,345,67347,1,8,0:0:0:0:
352,209,67547,6,0,B|292:217|292:217|263:132|263:132|432:139,1,320,6|0,3:2|3:0,0:0:0:0:
457,65,67947,2,0,B|243:55,1,213.333333333333,10|0,0:0|3:0,0:0:0:0:
152,384,68247,2,0,B|175:314|175:314|36:320,1,213.333333333333,2|0,3:2|3:0,0:0:0:0:
0,246,68547,2,0,B|213:236,1,213.333333333333,10|0,0:0|3:0,0:0:0:0:
512,182,68847,6,0,P|517:129|508:76,1,106.666666666667,6|0,3:1|0:0,0:0:0:0:
462,291,69047,1,2,0:0:0:0:
430,190,69147,2,0,P|408:141|374:100,1,106.666666666667,10|0,0:0|0:0,0:0:0:0:
443,308,69347,1,2,0:0:0:0:
364,237,69447,2,0,P|320:206|270:187,1,106.666666666667,2|0,3:2|0:0,0:0:0:0:
435,332,69647,1,2,3:2:0:0:
331,310,69747,2,0,P|278:304|225:313,1,106.666666666667,10|0,0:0|0:0,0:0:0:0:
7,90,69947,6,0,P|136:119|47:217,1,320,6|0,3:2|3:0,0:0:0:0:
0,290,70347,2,0,P|91:236|196:233,1,213.333333333333,10|0,0:0|3:0,0:0:0:0:
413,49,70647,2,0,P|326:68|385:134,1,213.333333333333,2|0,3:2|3:0,0:0:0:0:
445,205,70947,2,0,P|353:151|248:148,1,213.333333333333,10|0,0:0|3:0,0:0:0:0:
88,157,71247,5,6,3:1:0:0:
103,178,71347,1,0,0:0:0:0:
196,233,71447,1,2,0:0:0:0:
170,235,71547,1,8,0:0:0:0:
76,288,71647,1,2,0:0:0:0:
86,264,71747,1,0,0:0:0:0:
169,330,71847,6,0,P|218:311|271:303,1,106.666666666667,2|0,3:2|0:0,0:0:0:0:
465,173,72047,1,0,3:0:0:0:
382,239,72147,2,0,P|332:220|279:212,1,106.666666666667,8|0,0:0|0:0,0:0:0:0:
4,256,72347,1,0,3:0:0:0:
85,384,72447,6,0,P|94:278|124:160,1,200.000007629395,6|0,3:1|3:0,0:0:0:0:
121,175,72747,2,0,P|89:180|55:180,1,66.6666666666667,0|0,3:2|3:0,0:0:0:0:
92,34,73047,6,0,P|180:0|244:68,1,200.000007629395,2|0,3:2|3:0,0:0:0:0:
242,82,73347,2,0,P|274:77|308:77,1,66.6666666666667,0|0,3:2|3:0,0:0:0:0:
459,255,73647,6,0,B|425:200|425:200|229:236,1,200.000007629395,6|0,3:2|3:0,0:0:0:0:
279,228,73947,2,0,P|284:196|284:162,1,66.6666666666667,0|0,3:2|3:0,0:0:0:0:
128,293,74247,6,0,L|344:316,1,200.000007629395,2|0,3:2|3:0,0:0:0:0:
339,318,74547,2,0,P|338:351|343:384,1,66.6666666666667,0|0,3:2|3:0,0:0:0:0:
464,368,74847,6,0,P|440:271|433:172,1,200.000007629395,4|0,3:1|3:0,0:0:0:0:
512,39,75147,6,0,P|500:63|451:105,1,66.6666666666667,2|0,3:2|3:0,0:0:0:0:
349,186,75447,6,0,P|322:90|269:7,1,200.000007629395,2|0,3:2|3:0,0:0:0:0:
151,37,75747,6,0,P|139:61|90:103,1,66.6666666666667,2|0,3:2|3:0,0:0:0:0:
22,209,76047,6,0,P|50:191|86:180,1,66.6666666666667,2|0,3:2|0:0,0:0:0:0:
233,208,76247,1,0,0:0:0:0:
239,233,76348,2,0,P|210:215|178:206,1,66.6666666666667,10|0,0:0|0:0,0:0:0:0:
39,303,76547,1,0,0:0:0:0:
47,342,76648,2,0,P|63:312|85:288,1,66.6666666666667,2|0,3:2|0:0,0:0:0:0:
235,321,76847,1,0,3:0:0:0:
223,373,76948,2,0,P|206:343|184:319,1,66.6666666666667,10|0,0:0|0:0,0:0:0:0:
85,60,77147,1,0,3:0:0:0:
155,131,77247,6,0,B|201:87|201:87|334:112,1,200.000007629395,6|0,3:2|3:0,0:0:0:0:
424,260,77547,2,0,P|408:212|406:162,1,100.000003814697,8|0,0:0|0:0,0:0:0:0:
512,24,77747,5,0,3:0:0:0:
427,77,77847,1,0,3:0:0:0:
506,9,78047,5,0,3:0:0:0:
409,37,78147,2,0,P|359:30|311:14,1,100.000003814697,8|0,0:0|0:0,0:0:0:0:
78,73,78347,1,0,3:0:0:0:
85,60,78447,6,0,P|173:29|243:103,1,200.000007629395,0|0,3:0|0:0,0:0:0:0:
443,161,78747,2,0,P|352:131|285:197,1,200.000007629395,8|0,0:0|0:0,0:0:0:0:
371,357,79047,6,0,P|378:297|377:237,1,119.999996337891,0|0,3:0|0:0,0:0:0:0:
246,326,79247,1,0,3:0:0:0:
278,210,79347,2,0,P|269:150|253:92,1,119.999996337891,8|0,0:0|0:0,0:0:0:0:
130,291,79547,1,0,3:0:0:0:
60,126,79647,6,0,B|41:153|46:186|46:186|114:202|180:175,1,200.000007629395,4|0,3:1|3:0,0:0:0:0:
260,0,79947,2,0,P|244:48|242:98,1,100.000003814697,8|0,0:0|0:0,0:0:0:0:
369,250,80147,5,0,3:0:0:0:
423,165,80247,1,0,3:0:0:0:
378,262,80447,5,0,3:0:0:0:
452,192,80547,2,0,P|451:143|444:93,1,100.000003814697,8|0,0:0|0:0,0:0:0:0:
292,300,80747,1,0,3:0:0:0:
300,313,80847,6,0,B|339:365|339:365|503:334,1,200.000007629395,0|0,3:0|0:0,0:0:0:0:
336,165,81147,2,0,B|297:217|297:217|133:186,1,200.000007629395,8|0,0:0|0:0,0:0:0:0:
12,132,81447,6,0,B|34:249,1,119.999996337891,0|0,3:0|0:0,0:0:0:0:
216,78,81647,1,0,3:0:0:0:
125,0,81747,2,0,B|103:117,1,119.999996337891,8|0,0:0|0:0,0:0:0:0:
330,39,81947,1,0,3:0:0:0:
397,227,82047,5,2,3:2:0:0:
24,28,82547,5,2,3:2:0:0:
94,284,82947,5,2,3:2:0:0:
484,36,83447,5,2,3:2:0:0:
115,101,83847,5,2,3:2:0:0:
471,363,84447,5,2,3:2:0:0:
310,17,84947,5,2,3:2:0:0:
76,199,85347,5,2,3:2:0:0:
466,143,85847,5,2,3:2:0:0:
228,358,86247,6,0,P|142:306|45:283,1,200,10|0,3:2|3:0,0:0:0:0:
98,110,86847,6,0,L|92:142,1,33.3333333333333,10|0,3:2|0:0,0:0:0:0:
258,175,87347,6,0,L|253:208,1,33.3333333333333,10|0,3:2|0:0,0:0:0:0:
418,240,87747,6,0,L|412:272,1,33.3333333333333,10|0,3:2|0:0,0:0:0:0:
