osu file format v14

[General]
AudioFilename: audio.mp3
AudioLeadIn: 0
PreviewTime: 36447
Countdown: 0
SampleSet: Soft
StackLeniency: 0.5
Mode: 0
LetterboxInBreaks: 0
WidescreenStoryboard: 1

[Editor]
Bookmarks: 2747,7647,12447,19647,22047,26847,31647,36447,39347,41247,46047,55647,57947,77247,82047,88047
DistanceSpacing: 1.1
BeatDivisor: 3
GridSize: 32
TimelineZoom: 2.2

[Metadata]
Title:VORACITY (TV Size)
TitleUnicode:VORACITY (TV Size)
Artist:MYTH & ROID
ArtistUnicode:MYTH & ROID
Creator:bite you death
Version:HOS' VERY CRAZY ADVANCED
Source:オーバーロードⅢ
Tags:overlord 3 iii opening op theme song very crazy and no byd - matha -_matha_- shiinoha kotone tomadoi ohwow yonaka- hos hootowlstar
BeatmapID:1731840
BeatmapSetID:814486

[Difficulty]
HPDrainRate:5
CircleSize:3.5
OverallDifficulty:5
ApproachRate:6.5
SliderMultiplier:1.1
SliderTickRate:1

[Events]
//Background and Video events
0,0,"nej tack.jpg",0,0
Video,0,"video.avi"
//Break Periods
2,31847,34272
//Storyboard Layer 0 (Background)
//Storyboard Layer 1 (Fail)
//Storyboard Layer 2 (Pass)
//Storyboard Layer 3 (Foreground)
//Storyboard Sound Samples

[TimingPoints]
447,300,4,2,11,60,1,0
46047,-133.333333333333,4,2,11,40,0,0
53247,-117.647058823529,4,2,11,40,0,0
53847,-111.111111111111,4,2,11,50,0,0
54447,-105.263157894737,4,2,11,60,0,0
55647,-100,4,2,11,60,0,0
57947,-100,4,2,11,60,0,1
62847,-100,4,2,11,60,0,0
65447,-100,4,2,11,5,0,0
65547,-100,4,2,11,60,0,0
65747,-100,4,2,11,5,0,0
65847,-100,4,2,11,60,0,0
66047,-100,4,2,11,5,0,0
66147,-100,4,2,11,60,0,0
66347,-100,4,2,11,5,0,0
66447,-100,4,2,11,60,0,0
67547,-100,4,2,11,60,0,1
72447,-100,4,2,11,60,0,0

[Colours]
Combo1 : 32,223,194
Combo2 : 1,89,107
Combo3 : 128,64,64
Combo4 : 150,0,0
Combo5 : 128,128,128
Combo6 : 192,192,192

[HitObjects]
0,104,447,6,0,L|20:216,1,110,0|0,0:0|0:0,0:0:0:0:
136,180,1047,2,0,L|116:292,1,110,0|0,0:0|0:0,0:0:0:0:
196,380,1647,1,0,0:0:0:0:
315,363,1947,1,0,0:0:0:0:
435,346,2247,2,0,L|507:355,1,73.3333333333333,0|0,0:0|0:0,0:0:0:0:
464,220,2747,6,0,B|408:232|408:232|357:215|357:215|297:233|297:233|248:219|204:140|272:76,1,366.666666666667,6|0,3:2|0:0,0:0:0:0:
388,52,4047,2,0,B|192:84|192:84|104:28,1,293.333333333333,6|0,3:1|0:0,0:0:0:0:
28,120,5147,6,0,B|48:151|48:195|16:231|16:231|-35:271|-11:343|28:367|76:363|100:363|123:323,1,366.666666666667,6|0,3:2|0:0,0:0:0:0:
148,204,6447,1,6,3:1:0:0:
228,296,6747,2,0,B|292:284|292:284|376:316|376:316|456:300,1,220,0|0,3:0|0:0,0:0:0:0:
512,204,7647,5,4,3:2:0:0:
512,204,8847,6,0,B|412:232|424:372|424:372|396:312|332:304|332:304|280:340|212:320,1,440,4|4,3:2|3:1,0:0:0:0:
224,323,11247,6,0,P|260:327|294:340,1,73.3333333333333,0|0,3:0|0:0,0:0:0:0:
320,372,11547,1,8,0:0:0:0:
432,324,11847,2,0,P|468:320|502:307,1,73.3333333333333,0|0,3:0|0:0,0:0:0:0:
512,268,12147,2,0,L|496:184,1,73.3333333333333,8|0,0:0|0:0,0:0:0:0:
459,188,12447,6,0,P|517:121|491:38,1,183.333333333333,4|0,3:2|3:0,0:0:0:0:
460,8,13047,1,0,3:0:0:0:
344,40,13347,2,0,B|252:8|252:72|160:40,1,183.333333333333,8|0,0:0|0:0,0:0:0:0:
140,8,13947,1,8,0:0:0:0:
24,40,14247,2,0,L|36:128,1,73.3333333333333,0|0,3:0|3:0,0:0:0:0:
64,136,14547,2,0,P|56:180|36:208,1,73.3333333333333,8|0,0:0|3:0,0:0:0:0:
8,228,14847,6,0,B|72:220|72:220|120:244|120:244|196:232,1,183.333333333333,4|0,3:1|3:0,0:0:0:0:
208,204,15447,1,0,3:0:0:0:
328,228,15747,2,0,P|400:296|380:368,1,183.333333333333,8|0,0:0|0:0,0:0:0:0:
344,384,16347,1,8,0:0:0:0:
232,340,16647,2,0,L|160:348,1,73.3333333333333,0|0,3:0|3:0,0:0:0:0:
128,376,16947,2,0,P|84:372|52:352,1,73.3333333333333,8|0,0:0|3:0,0:0:0:0:
24,376,17247,6,0,L|40:188,1,183.333333333333,4|0,3:1|3:0,0:0:0:0:
8,168,17847,1,0,3:0:0:0:
76,68,18147,2,0,B|192:92|192:92|247:58,1,183.333333333333,8|0,0:0|0:0,0:0:0:0:
256,20,18747,1,8,0:0:0:0:
372,60,19047,2,0,L|360:136,1,73.3333333333333,0|0,3:0|3:0,0:0:0:0:
376,172,19347,2,0,P|408:188|456:192,1,73.3333333333333,8|0,0:0|3:0,0:0:0:0:
480,172,19647,5,8,3:2:0:0:
507,288,19947,1,0,0:0:0:0:
405,352,20247,1,0,0:0:0:0:
313,274,20547,1,0,0:0:0:0:
358,162,20847,2,0,L|148:144,1,183.333333333333,0|0,0:0|0:0,0:0:0:0:
148,116,21447,2,0,P|128:180|4:160,1,183.333333333333,0|0,0:0|3:0,0:0:0:0:
0,152,22047,6,0,L|16:268,1,110,4|8,3:2|0:0,0:0:0:0:
0,380,22647,2,0,P|48:364|76:360,1,73.3333333333333,0|0,3:0|3:0,0:0:0:0:
92,328,22947,2,0,P|137:350|159:367,1,73.3333333333333,8|0,0:0|3:0,0:0:0:0:
192,384,23247,2,0,L|208:268,1,110,0|8,3:0|0:0,0:0:0:0:
312,212,23847,2,0,L|322:289,1,73.3333333333333,0|0,3:0|3:0,0:0:0:0:
332,324,24147,1,8,0:0:0:0:
436,384,24447,6,0,L|452:268,1,110,4|8,3:2|0:0,0:0:0:0:
508,168,25047,2,0,P|477:147|444:132,1,73.3333333333333,0|0,3:0|3:0,0:0:0:0:
422,164,25347,2,0,P|386:170|351:183,1,73.3333333333333,8|0,0:0|3:0,0:0:0:0:
324,216,25647,2,0,L|308:100,1,110,0|8,3:0|0:0,0:0:0:0:
244,4,26247,1,0,3:0:0:0:
143,68,26547,1,8,0:0:0:0:
207,171,26847,6,0,B|152:164|152:164|100:184|100:184|68:168|24:160,1,183.333333333333,2|2,3:2|3:2,0:0:0:0:
128,292,27747,2,0,B|183:285|183:285|235:305|235:305|267:289|311:281,1,183.333333333333,2|2,3:2|3:2,0:0:0:0:
40,376,28647,1,2,3:2:0:0:
40,376,28947,1,2,3:2:0:0:
0,260,29247,6,0,B|6:225|20:200|20:200|4:136|4:136|16:108|20:72,1,183.333333333333,2|2,3:2|3:2,0:0:0:0:
164,12,30147,2,0,B|166:35|178:63|178:63|162:127|162:127|175:153|182:187,1,183.333333333333,2|2,3:2|3:2,0:0:0:0:
336,236,31047,1,2,3:2:0:0:
453,204,31347,1,2,3:2:0:0:
368,119,31647,5,10,3:2:0:0:
368,119,35247,6,0,B|436:100|504:128|504:128|464:104|444:64,1,220,0|0,0:0|0:0,0:0:0:0:
208,24,36447,6,0,L|92:40,1,110,4|8,3:2|0:0,0:0:0:0:
0,112,37047,2,0,P|28:168|32:196,1,73.3333333333333,0|0,3:0|3:0,0:0:0:0:
68,192,37347,2,0,P|40:248|36:276,1,73.3333333333333,8|0,0:0|3:0,0:0:0:0:
0,276,37647,2,0,L|116:292,1,110,0|8,3:0|0:0,0:0:0:0:
192,380,38247,2,0,L|269:369,1,73.3333333333333,0|0,3:0|3:0,0:0:0:0:
284,336,38547,2,0,P|320:336|360:356,1,73.3333333333333,8|0,0:0|3:0,0:0:0:0:
380,380,38847,5,4,3:2:0:0:
480,316,39147,2,0,P|490:281|510:250,1,73.3333333333333,8|0,0:0|3:0,0:0:0:0:
472,235,39447,2,0,P|461:200|441:169,1,73.3333333333333,0|0,3:0|3:0,0:0:0:0:
472,140,39747,1,8,0:0:0:0:
372,72,40047,2,0,L|256:88,1,110,0|8,3:0|0:0,0:0:0:0:
160,24,40647,2,0,L|87:34,1,73.3333333333333,0|0,3:0|3:0,0:0:0:0:
52,12,40947,1,8,0:0:0:0:
0,120,41247,6,0,B|28:168|28:168|12:248|12:248|40:296,1,183.333333333333,2|2,3:2|3:2,0:0:0:0:
164,384,42147,2,0,B|187:344|187:344|171:264|171:264|199:216,1,183.333333333333,2|2,3:2|3:2,0:0:0:0:
328,120,43047,2,0,L|336:208,1,73.3333333333333,2|0,3:2|0:0,0:0:0:0:
340,232,43347,1,2,3:2:0:0:
276,336,43647,6,0,B|363:304|363:376|463:340,1,183.333333333333,2|2,3:2|3:2,0:0:0:0:
512,192,44547,2,0,B|424:160|424:232|324:196,1,183.333333333333,2|2,3:2|3:2,0:0:0:0:
192,124,45447,1,2,3:2:0:0:
309,92,45747,1,2,3:2:0:0:
224,7,46047,5,14,3:2:0:0:
52,68,46647,2,0,P|88:116|96:204,1,137.500005245209,2|0,0:0|0:0,0:0:0:0:
128,204,47247,2,0,P|56:192|0:264,1,165.000006294251,2|0,0:0|0:0,0:0:0:0:
56,364,48147,5,2,0:0:0:0:
146,352,48447,1,2,0:0:0:0:
236,341,48747,2,0,L|328:360,1,82.5000031471254,2|0,0:0|0:0,0:0:0:0:
456,376,49347,5,2,0:0:0:0:
444,285,49647,1,2,0:0:0:0:
433,195,49947,2,0,L|451:103,1,82.5000031471254,2|0,0:0|0:0,0:0:0:0:
468,24,50547,1,0,0:0:0:0:
324,72,50847,6,0,P|264:64|240:52,1,82.5000031471254,0|0,0:0|0:0,0:0:0:0:
156,28,51447,2,0,P|84:24|40:76,1,137.500005245209,2|0,0:0|0:0,0:0:0:0:
20,48,52047,2,0,P|40:120|52:216,1,165.000006294251,2|0,0:0|0:0,0:0:0:0:
0,284,52947,1,2,0:0:0:0:
92,364,53247,6,0,P|136:316|220:336,1,155.833336305618,2|0,0:0|0:0,0:0:0:0:
232,300,53847,6,0,P|256:348|360:336,1,164.9999949646,2|0,0:0|0:0,0:0:0:0:
388,364,54447,6,0,P|360:308|488:344,1,313.499991628647,2|0,0:0|0:0,0:0:0:0:
336,288,55647,6,0,L|220:296,1,110,10|10,3:2|3:2,0:0:0:0:
112,252,56247,1,10,3:2:0:0:
132,372,56547,1,10,3:2:0:0:
16,336,56847,1,10,3:2:0:0:
16,336,57447,2,0,L|4:260,1,73.3333333333333,0|0,0:0|0:0,0:0:0:0:
28,144,57947,6,0,P|100:144|136:168,1,110,6|0,3:2|3:0,0:0:0:0:
160,192,58347,2,0,P|200:184|228:168,1,73.3333333333333,10|0,0:0|3:0,0:0:0:0:
244,132,58647,2,0,L|232:59,1,73.3333333333333,2|0,3:2|3:0,0:0:0:0:
256,24,58947,1,10,0:0:0:0:
368,72,59247,2,0,B|452:60,1,73.3333333333333,2|2,3:2|0:0,0:0:0:0:
476,84,59547,2,0,P|497:113|507:148,1,73.3333333333333,10|2,0:0|0:0,0:0:0:0:
476,176,59847,2,0,L|488:248,1,73.3333333333333,2|2,3:2|3:2,0:0:0:0:
508,280,60147,2,0,P|484:316|476:352,1,73.3333333333333,10|6,0:0|3:2,0:0:0:0:
488,384,60447,5,0,0:0:0:0:
376,340,60747,2,0,P|320:348|296:364,1,73.3333333333333,10|0,0:0|3:0,0:0:0:0:
276,384,61047,2,0,L|164:372,1,110,2|10,3:2|0:0,0:0:0:0:
48,384,61647,2,0,P|16:344|8:324,1,73.3333333333333,2|2,3:2|0:0,0:0:0:0:
40,296,61947,2,0,P|45:245|54:225,1,73.3333333333333,10|2,0:0|0:0,0:0:0:0:
92,216,62247,2,0,P|132:184|152:176,1,73.3333333333333,2|2,3:2|3:2,0:0:0:0:
180,208,62547,2,0,P|230:213|250:222,1,73.3333333333333,10|0,0:0|3:2,0:0:0:0:
280,248,62847,5,4,3:2:0:0:
352,152,63147,2,0,L|340:64,1,73.3333333333333,10|0,0:0|3:0,0:0:0:0:
372,52,63447,1,2,3:2:0:0:
476,116,63747,2,0,L|464:204,1,73.3333333333333,10|0,0:0|3:0,0:0:0:0:
496,216,64047,1,2,3:2:0:0:
452,328,64347,2,0,P|396:336|376:352,1,73.3333333333333,10|2,0:0|0:0,0:0:0:0:
356,376,64647,2,0,P|304:376|256:340,1,110,2|10,3:2|0:0,0:0:0:0:
256,220,65247,5,2,3:2:0:0:
256,220,65847,2,0,P|288:176|292:116,1,110,2|2,3:2|0:0,0:0:0:0:
208,36,66447,2,0,B|144:32|144:32|100:52|100:52|28:44,1,183.333333333333,2|2,3:2|3:2,0:0:0:0:
0,164,67247,2,0,L|8:208,1,36.6666666666667,0|8,3:0|0:0,0:0:0:0:
6,200,67547,6,0,P|80:192|120:248,1,146.666666666667,6|10,3:2|0:0,0:0:0:0:
104,364,68247,2,0,P|140:360|174:348,1,73.3333333333333,2|0,3:2|3:0,0:0:0:0:
212,364,68547,1,10,0:0:0:0:
320,308,68847,2,0,P|356:311|390:323,1,73.3333333333333,2|2,3:2|0:0,0:0:0:0:
404,364,69147,2,0,L|484:356,1,73.3333333333333,10|2,0:0|0:0,0:0:0:0:
512,332,69447,2,0,P|506:295|491:262,1,73.3333333333333,2|2,3:2|3:2,0:0:0:0:
460,236,69747,2,0,L|468:160,1,73.3333333333333,10|6,0:0|3:2,0:0:0:0:
488,124,70047,5,0,0:0:0:0:
392,52,70347,2,0,B|356:68|356:68|320:60,1,73.3333333333333,10|0,0:0|3:0,0:0:0:0:
296,28,70647,2,0,L|184:40,1,110,2|10,3:2|0:0,0:0:0:0:
68,8,71247,2,0,P|52:41|45:77,1,73.3333333333333,2|2,3:2|0:0,0:0:0:0:
4,92,71547,2,0,P|16:126|37:156,1,73.3333333333333,8|0,0:0|0:0,0:0:0:0:
10,187,71847,2,0,P|43:202|79:209,1,73.3333333333333,2|0,3:2|3:0,0:0:0:0:
94,249,72147,2,0,P|128:236|158:215,1,73.3333333333333,8|0,0:0|3:0,0:0:0:0:
176,180,72447,6,0,L|156:364,1,183.333333333333,6|0,3:2|3:0,0:0:0:0:
192,384,73047,1,2,3:2:0:0:
296,324,73347,2,0,P|332:328|372:352,1,73.3333333333333,0|0,3:2|3:0,0:0:0:0:
364,384,73647,2,0,L|476:368,1,110,2|0,3:2|3:2,0:0:0:0:
512,252,74247,2,0,L|496:176,1,73.3333333333333,2|0,3:2|3:0,0:0:0:0:
456,172,74547,2,0,L|472:96,1,73.3333333333333,0|0,3:2|3:0,0:0:0:0:
480,60,74847,5,4,3:2:0:0:
360,80,75147,2,0,P|304:72|276:56,1,73.3333333333333,2|0,3:2|3:0,0:0:0:0:
264,32,75447,2,0,P|188:36|160:68,1,110,2|2,3:2|3:2,0:0:0:0:
52,24,76047,2,0,L|40:96,1,73.3333333333333,2|0,3:2|0:0,0:0:0:0:
0,108,76347,2,0,L|12:180,1,73.3333333333333,10|0,0:0|0:0,0:0:0:0:
52,192,76647,2,0,L|40:264,1,73.3333333333333,2|0,3:2|3:0,0:0:0:0:
0,276,76947,2,0,L|12:348,1,73.3333333333333,10|0,0:0|3:0,0:0:0:0:
40,376,77247,5,6,3:2:0:0:
156,344,77547,2,0,L|236:332,1,73.3333333333333,8|0,0:0|3:0,0:0:0:0:
268,328,77847,1,0,3:0:0:0:
220,216,78147,2,0,B|156:212|156:212|116:236|116:236|40:228,1,183.333333333333,8|0,0:0|0:0,0:0:0:0:
8,248,78747,1,8,0:0:0:0:
32,128,79047,2,0,L|24:52,1,73.3333333333333,0|0,3:0|3:0,0:0:0:0:
56,32,79347,2,0,B|88:52|88:52|128:44,1,73.3333333333333,8|0,0:0|3:0,0:0:0:0:
144,80,79647,6,0,P|184:24|292:56,1,183.333333333333,4|0,3:2|3:0,0:0:0:0:
320,24,80247,1,0,3:0:0:0:
296,144,80547,2,0,B|344:136|344:136|388:152|388:152|424:120|472:120,1,183.333333333333,8|0,0:0|0:0,0:0:0:0:
500,144,81147,1,8,0:0:0:0:
460,260,81447,2,0,L|472:336,1,73.3333333333333,0|0,3:0|3:0,0:0:0:0:
480,372,81747,1,8,0:0:0:0:
360,348,82047,6,0,P|260:324|228:384,1,183.333333333333,2|2,3:2|3:2,0:0:0:0:
132,251,82947,2,0,P|53:285|0:218,1,183.333333333333,2|2,3:2|3:2,0:0:0:0:
96,88,83847,2,0,P|164:84|216:72,1,110,2|0,3:2|0:0,0:0:0:0:
304,8,84447,6,0,L|328:196,1,183.333333333333,2|2,3:2|3:2,0:0:0:0:
480,140,85347,2,0,L|460:290,1,146.666666666667,2|0,3:2|0:0,0:0:0:0:
480,324,85847,2,0,P|412:320|380:352,1,110,2|0,3:2|0:0,0:0:0:0:
364,380,86247,2,0,L|244:368,1,110,10|0,3:2|3:0,0:0:0:0:
132,380,86847,6,0,B|164:316|164:316|132:192,1,183.333333333333,10|10,3:2|3:2,0:0:0:0:
0,296,87747,1,10,3:2:0:0:
