osu file format v14

[General]
AudioFilename: audio.mp3
AudioLeadIn: 0
PreviewTime: 56120
Countdown: 0
SampleSet: Soft
StackLeniency: 0.7
Mode: 0
LetterboxInBreaks: 0
WidescreenStoryboard: 1

[Editor]
Bookmarks: 20738,25488,30288,35138,44738,54338,56638,80688
DistanceSpacing: 1.1
BeatDivisor: 6
GridSize: 32
TimelineZoom: 3.499998

[Metadata]
Title:VORACITY (TV Size)
TitleUnicode:VORACITY (TV Size)
Artist:MYTH & ROID
ArtistUnicode:MYTH & ROID
Creator:Trynna
Version:SETO'S HARD
Source:オーバーロードⅢ
Tags:Overlord 3 III opening op Seto Kousuke Net0 SrSkyPlayer Ataraxia Kalibe
BeatmapID:1704260
BeatmapSetID:812308

[Difficulty]
HPDrainRate:5
CircleSize:4
OverallDifficulty:7
ApproachRate:8
SliderMultiplier:1.7
SliderTickRate:1

[Events]
//Background and Video events
0,0,"lafa is a god.jpg",0,0
Video,-900,"lafayla ranks voracity 2019.mp4"
//Break Periods
2,30520,34370
//Storyboard Layer 0 (Background)
//Storyboard Layer 1 (Fail)
//Storyboard Layer 2 (Pass)
//Storyboard Layer 3 (Foreground)
//Storyboard Sound Samples

[TimingPoints]
320,300,4,2,1,50,1,0
1420,-112.994350282486,4,2,1,50,0,0
2120,-133.333333333333,4,2,1,50,0,0
3220,-133.333333333333,4,2,1,50,0,0
3820,-117.647058823529,4,2,1,50,0,0
4520,-109.289617486339,4,2,1,50,0,0
5120,-111.111111111111,4,2,1,50,0,0
5620,-117.647058823529,4,2,1,50,0,0
7520,-142.857142857143,4,2,1,50,0,0
9920,-111.111111111111,4,2,1,70,0,0
11120,-111.111111111111,4,2,1,60,0,0
18320,-153.846153846153,4,2,1,40,0,0
19520,-222.22222222222,4,2,1,50,0,0
20620,-111.111111111111,4,2,1,60,0,0
45320,-333.333333333333,4,2,1,40,0,0
51920,-333.333333333333,4,2,1,45,0,0
52520,-200,4,2,1,50,0,0
53120,-500.000000000003,4,2,1,55,0,0
53720,-111.111111111111,4,2,1,55,0,0
54095,-111.111111111111,4,2,1,5,0,0
54320,-111.111111111111,4,2,1,65,0,0
56120,-111.111111111111,4,2,1,50,0,0
56620,-100,4,2,1,70,0,1
63920,-100,4,2,1,70,0,0
66220,-100,4,2,1,70,0,1
75920,-111.111111111111,4,2,1,60,0,0
80720,-111.111111111111,4,2,1,70,0,0
86270,-111.111111111111,4,2,1,5,0,0
86420,-111.111111111111,4,2,1,70,0,0

[Colours]
Combo1 : 170,157,112
Combo2 : 201,99,99
Combo3 : 196,165,193
Combo4 : 196,165,163

[HitObjects]
127,231,1420,6,0,P|207:248|230:150,1,200.600006504441,4|0,1:0|0:0,0:0:0:0:
161,71,2120,2,0,L|298:66,1,127.500004863739,2|0,0:0|0:0,0:0:0:0:
426,128,2720,6,0,P|358:134|347:199,1,127.500004863739,4|0,1:2|0:0,0:0:0:0:
373,285,3220,2,0,B|305:307|309:258|241:284,1,127.500004863739,2|2,0:0|0:0,0:0:0:0:
150,362,3820,6,0,L|141:169,1,192.666670341492,4|0,1:0|0:0,0:0:0:0:
53,80,4520,2,0,P|128:82|183:30,1,155.549997211132,2|0,0:0|0:0,0:0:0:0:
337,13,5120,6,0,P|318:60|333:108,1,101.999996887207,4|2,1:2|0:0,0:0:0:0:
431,70,5620,2,0,L|431:234,1,144.500002756119,2|2,0:0|0:0,0:0:0:0:
301,362,6320,5,4,1:2:0:0:
424,168,7520,2,0,B|352:192|316:116|316:116|280:144|256:200|256:200|232:144|196:116|196:116|160:192|88:168,1,475.999985473633,4|4,1:2|1:0,0:0:0:0:
66,64,9920,6,0,P|94:104|85:170,1,101.999996887207,0|0,1:0|0:0,0:0:0:0:
73,190,10220,1,0,1:0:0:0:
32,349,10520,6,0,P|52:304|111:276,1,101.999996887207,0|0,1:0|0:0,0:0:0:0:
136,278,10820,1,0,1:0:0:0:
292,228,11120,6,0,P|241:224|203:192,1,101.999996887207,6|0,1:2|3:3,0:0:0:0:
187,159,11420,2,0,P|182:122|222:60,1,101.999996887207,0|2,1:3|0:0,0:0:0:0:
242,47,11720,2,0,L|360:43,1,101.999996887207,0|0,1:3|3:0,0:0:0:0:
380,45,12020,1,6,1:2:0:0:
458,120,12320,2,0,P|422:161|444:218,1,101.999996887207,0|0,1:0|0:3,0:0:0:0:
444,234,12620,2,0,L|274:227,2,152.999995330811,0|2|2,3:0|1:2|1:2,0:0:0:0:
383,324,13520,6,0,L|279:319,1,101.999996887207,6|0,1:2|3:0,0:0:0:0:
253,343,13820,2,0,P|220:309|153:323,1,101.999996887207,0|2,1:2|0:2,0:0:0:0:
136,329,14120,2,0,P|145:272|103:244,1,101.999996887207,0|0,1:3|3:0,0:0:0:0:
79,237,14420,1,6,1:2:0:0:
30,139,14720,2,0,P|78:143|138:111,1,101.999996887207,0|0,1:0|0:0,0:0:0:0:
160,133,15020,2,0,P|118:75|145:5,2,152.999995330811,0|2|2,3:0|1:2|1:2,0:0:0:0:
242,61,15920,6,0,P|291:72|359:49,1,101.999996887207,6|0,1:2|3:0,0:0:0:0:
373,44,16220,2,0,L|398:158,1,101.999996887207,0|2,1:3|0:0,0:0:0:0:
419,170,16520,2,0,P|358:166|323:199,1,101.999996887207,0|0,1:3|3:0,0:0:0:0:
309,221,16820,1,6,1:2:0:0:
219,282,17120,2,0,P|228:233|202:190,1,101.999996887207,0|0,1:0|0:0,0:0:0:0:
171,172,17420,2,0,B|130:157|94:169|94:169|54:185|21:171,2,152.999995330811,0|2|2,3:0|1:2|1:2,0:0:0:0:
276,86,18320,5,0,1:0:0:0:
377,79,18620,1,0,3:0:0:0:
430,167,18920,1,0,3:0:0:0:
360,241,19220,1,0,3:0:0:0:
360,241,19520,6,0,P|289:222|236:274,1,152.999995330811,2|2,0:0|0:0,0:0:0:0:
80,334,20620,5,0,0:0:0:0:
108,311,20720,2,0,P|118:257|100:201,1,101.999996887207,4|0,1:2|0:0,0:0:0:0:
85,182,21020,1,8,0:3:0:0:
144,100,21220,1,0,1:0:0:0:
175,117,21320,2,0,L|282:113,1,101.999996887207,8|0,0:3|0:0,0:0:0:0:
296,82,21620,2,0,L|352:172,1,101.999996887207,0|0,1:0|0:0,0:0:0:0:
333,201,21920,1,0,1:0:0:0:
465,185,22220,1,0,1:0:0:0:
475,317,22520,2,0,P|434:287|385:292,1,101.999996887207,2|0,1:2|0:0,0:0:0:0:
354,310,22820,1,2,1:2:0:0:
251,243,23120,6,0,P|264:291|244:336,1,101.999996887207,2|0,1:2|0:0,0:0:0:0:
213,355,23420,2,0,L|109:355,1,101.999996887207,8|0,0:3|1:0,0:0:0:0:
80,373,23720,2,0,P|91:315|62:275,1,101.999996887207,8|0,0:3|0:0,0:0:0:0:
35,267,24020,2,0,P|84:254|116:201,1,101.999996887207,0|0,1:0|0:0,0:0:0:0:
118,179,24320,1,0,1:0:0:0:
56,58,24620,1,0,1:0:0:0:
190,78,24920,2,0,P|258:62|282:20,1,101.999996887207,2|0,1:2|2:0,0:0:0:0:
292,8,25220,1,2,1:2:0:0:
431,136,25520,6,0,P|438:68|371:144,1,254.999992218018,2|0,1:2|1:0,0:0:0:0:
219,253,26420,2,0,P|246:347|285:257,1,254.999992218018,0|0,1:0|1:0,0:0:0:0:
178,82,27320,2,0,P|126:121|182:155,1,152.999995330811,2|2,1:2|1:2,0:0:0:0:
288,80,27920,6,0,P|382:107|292:146,1,254.999992218018,2|0,1:2|1:0,0:0:0:0:
127,51,28820,2,0,P|33:78|123:117,1,254.999992218018,0|0,1:0|1:0,0:0:0:0:
307,33,29720,1,2,1:2:0:0:
353,131,30020,1,2,1:2:0:0:
256,192,30320,5,4,1:2:0:0:
132,82,35120,6,0,P|182:57|223:73,1,101.999996887207,0|0,1:0|0:0,0:0:0:0:
258,79,35420,2,0,L|253:191,1,101.999996887207,8|12,0:3|0:3,0:0:0:0:
240,214,35720,2,0,P|290:189|331:205,1,101.999996887207,0|4,1:0|0:3,0:0:0:0:
366,211,36020,2,0,L|361:323,1,101.999996887207,0|0,1:2|0:0,0:0:0:0:
360,349,36320,1,4,0:3:0:0:
453,261,36620,1,2,1:2:0:0:
427,135,36920,2,0,P|382:114|329:123,1,101.999996887207,2|0,1:3|0:0,0:0:0:0:
302,143,37220,1,2,1:3:0:0:
212,40,37520,6,0,P|179:64|178:139,1,101.999996887207,0|0,1:0|0:0,0:0:0:0:
183,155,37820,2,0,L|63:174,1,101.999996887207,8|4,0:3|0:3,0:0:0:0:
50,154,38120,1,0,1:0:0:0:
43,252,38320,1,4,0:3:0:0:
75,268,38419,2,0,L|175:252,1,101.999996887207,0|0,1:0|0:0,0:0:0:0:
211,259,38720,1,4,0:3:0:0:
295,152,39020,1,2,1:2:0:0:
402,223,39320,1,2,1:3:0:0:
465,151,39520,1,0,0:0:0:0:
476,116,39620,2,0,P|457:66|411:45,1,101.999996887207,2|0,1:3|0:0,0:0:0:0:
379,45,39920,6,0,B|273:80|224:1|124:51,1,254.999992218018,0|0,1:0|1:0,0:0:0:0:
131,218,40820,2,0,B|225:265|274:186|380:221,1,254.999992218018,0|0,1:0|1:0,0:0:0:0:
210,139,41720,1,2,1:2:0:0:
304,84,42020,1,2,1:2:0:0:
404,145,42320,6,0,P|446:156|385:299,1,254.999992218018,0|0,1:0|1:0,0:0:0:0:
210,139,43220,2,0,P|168:150|229:293,1,254.999992218018,0|0,1:0|1:0,0:0:0:0:
312,114,44120,1,2,1:2:0:0:
308,222,44420,1,2,1:2:0:0:
309,330,44720,1,4,1:2:0:0:
309,330,45320,6,0,P|263:307|211:313,1,101.999996887207,2|0,0:0|0:0,0:0:0:0:
109,342,46820,1,2,3:2:0:0:
109,342,47120,6,0,L|113:292,1,50.9999984436036,2|0,0:0|3:2,0:0:0:0:
210,261,47720,2,0,L|206:211,1,50.9999984436036,2|0,0:0|3:2,0:0:0:0:
111,175,48320,2,0,L|115:125,1,50.9999984436036,2|0,3:2|3:0,0:0:0:0:
212,94,48920,2,0,P|196:45|149:24,1,101.999996887207,0|2,0:0|0:0,0:0:0:0:
53,72,50720,5,2,0:3:0:0:
155,36,51620,1,2,0:3:0:0:
155,36,51920,6,0,P|182:32|209:35,1,50.9999984436036,0|2,3:0|0:3,0:0:0:0:
292,117,52520,6,0,P|249:126|203:110,1,85,0|2,3:0|0:3,0:0:0:0:
93,193,53120,6,0,P|141:179|209:210,1,118.999996368408,2|0,0:3|0:0,0:0:0:0:
238,234,54320,5,12,0:3:0:0:
390,212,54620,1,12,0:3:0:0:
303,147,54920,1,12,0:3:0:0:
325,299,55220,1,12,0:3:0:0:
238,234,55520,1,12,0:3:0:0:
242,238,56120,6,0,L|138:221,1,101.999996887207,2|2,0:0|0:0,0:0:0:0:
141,221,56620,6,0,P|166:142|99:96,1,170,4|0,0:0|3:0,0:0:0:0:
72,71,57020,2,0,P|137:63|185:23,1,113.333333333333,0|0,1:0|3:0,0:0:0:0:
212,35,57320,2,0,P|258:65|314:69,1,113.333333333333,2|0,0:0|3:0,0:0:0:0:
346,49,57620,1,0,1:0:0:0:
475,157,57920,2,0,P|389:128|342:188,1,170,6|0,0:0|1:0,0:0:0:0:
246,153,58420,2,0,P|302:168|259:244,1,170,2|0,0:0|3:0,0:0:0:0:
223,237,58820,1,0,1:0:0:0:
116,165,59020,6,0,P|78:248|118:319,1,170,6|0,0:0|3:0,0:0:0:0:
143,337,59420,2,0,B|194:359|208:324|266:339,1,113.333333333333,0|0,1:0|3:0,0:0:0:0:
286,360,59720,1,2,0:0:0:0:
370,296,59920,1,0,3:0:0:0:
391,329,60020,2,0,P|446:346|498:310,1,113.333333333333,0|0,1:0|3:0,0:0:0:0:
500,280,60320,2,0,B|488:214|488:214|497:152,1,113.333333333333,6|0,0:0|3:0,0:0:0:0:
503,128,60620,2,0,P|453:144|386:124,1,113.333333333333,0|0,1:0|3:0,0:0:0:0:
366,101,60920,1,2,0:0:0:0:
282,36,61120,1,0,3:0:0:0:
269,74,61220,2,0,P|213:100|147:73,1,113.333333333333,0|2,1:0|3:2,0:0:0:0:
126,75,61520,6,0,P|140:139|102:194,1,113.333333333333,6|0,0:0|3:0,0:0:0:0:
84,199,61820,2,0,P|142:196|207:240,1,113.333333333333,0|0,1:0|3:0,0:0:0:0:
227,205,62120,2,0,L|224:328,1,113.333333333333,2|0,1:2|3:0,0:0:0:0:
202,352,62420,2,0,P|244:328|322:351,1,113.333333333333,2|0,1:2|3:0,0:0:0:0:
338,362,62720,1,6,0:0:0:0:
442,339,62920,1,0,0:0:0:0:
411,312,63020,2,0,P|394:256|429:192,1,113.333333333333,0|0,1:0|3:0,0:0:0:0:
448,187,63320,1,0,1:0:0:0:
473,82,63520,1,0,0:0:0:0:
438,101,63620,2,0,L|321:96,1,113.333333333333,0|0,1:0|3:0,0:0:0:0:
285,86,63920,5,6,0:0:0:0:
50,27,64520,1,6,0:0:0:0:
209,208,65120,1,6,0:0:0:0:
123,367,65620,2,0,P|149:290|94:230,1,170,4|0,0:0|0:0,0:0:0:0:
64,205,66020,1,0,1:0:0:0:
162,123,66220,6,0,B|235:123|235:123|273:137|273:137|342:137,1,170,6|0,0:0|3:0,0:0:0:0:
369,132,66620,2,0,P|345:185|376:249,1,113.333333333333,0|0,1:0|3:0,0:0:0:0:
392,260,66920,2,0,P|333:278|304:341,1,113.333333333333,2|0,0:0|3:0,0:0:0:0:
307,360,67220,2,0,P|261:328|182:343,1,113.333333333333,0|0,1:0|3:0,0:0:0:0:
167,343,67520,1,6,0:0:0:0:
83,286,67720,1,0,3:0:0:0:
120,271,67820,2,0,P|141:219|107:157,1,113.333333333333,0|2,1:0|3:2,0:0:0:0:
96,136,68120,2,0,L|224:134,1,113.333333333333,2|0,1:2|3:0,0:0:0:0:
245,152,68420,1,0,1:0:0:0:
248,30,68620,6,0,P|336:55|362:133,1,170,4|0,0:0|0:0,0:0:0:0:
356,162,69020,2,0,L|273:251,1,113.333333333333,0|0,1:0|3:0,0:0:0:0:
239,255,69320,1,2,0:0:0:0:
274,355,69520,1,0,3:0:0:0:
313,364,69620,2,0,L|396:275,1,113.333333333333,0|0,1:0|0:0,0:0:0:0:
415,249,69920,2,0,P|478:256|503:315,2,113.333333333333,6|0|2,0:0|3:0|0:0,0:0:0:0:
305,287,70520,2,0,B|237:306|237:306|185:297,1,113.333333333333,2|0,0:0|3:0,0:0:0:0:
159,279,70820,1,0,1:0:0:0:
130,183,71020,1,2,0:0:0:0:
147,146,71120,6,0,L|278:114,1,113.333333333333,6|0,0:0|0:0,0:0:0:0:
296,127,71420,1,0,0:0:0:0:
421,247,71720,2,0,L|288:278,1,113.333333333333,6|0,0:0|0:0,0:0:0:0:
272,266,72020,1,0,0:0:0:0:
145,369,72320,2,0,L|113:236,1,113.333333333333,6|0,0:0|0:0,0:0:0:0:
126,219,72620,1,0,0:0:0:0:
253,117,72920,2,0,L|285:252,1,113.333333333333,6|0,0:0|0:0,0:0:0:0:
272,266,73220,1,0,0:0:0:0:
417,342,73520,6,0,P|473:334|491:271,1,113.333333333333,6|0,0:0|0:0,0:0:0:0:
507,247,73820,1,0,0:0:0:0:
496,86,74120,2,0,L|387:58,1,113.333333333333,6|0,0:0|0:0,0:0:0:0:
346,61,74420,1,0,0:0:0:0:
193,100,74720,6,0,P|169:150|213:212,1,113.333333333333,6|0,0:0|3:0,0:0:0:0:
207,236,75020,2,0,L|90:234,1,113.333333333333,0|0,1:0|3:0,0:0:0:0:
53,235,75320,1,2,0:0:0:0:
21,334,75520,1,0,3:0:0:0:
48,363,75620,2,0,L|176:365,1,113.333333333333,0|0,1:0|3:0,0:0:0:0:
200,372,75920,6,0,P|218:334|291:335,1,101.999996887207,6|0,0:0|3:0,0:0:0:0:
301,345,76220,2,0,B|356:327|367:359|414:343,1,101.999996887207,0|2,1:0|0:2,0:0:0:0:
434,331,76520,2,0,P|451:283|421:224,1,101.999996887207,2|0,0:0|3:0,0:0:0:0:
404,215,76820,1,4,1:2:0:0:
317,152,77120,2,0,P|327:200|298:240,1,101.999996887207,2|0,0:0|0:0,0:0:0:0:
265,254,77420,2,0,L|99:239,2,152.999995330811,0|2|0,3:0|0:0|1:0,0:0:0:0:
192,335,78320,6,0,L|76:324,1,101.999996887207,6|0,0:0|3:0,0:0:0:0:
58,341,78620,2,0,P|52:285|16:258,1,101.999996887207,0|2,1:0|0:2,0:0:0:0:
14,222,78920,2,0,L|53:124,1,101.999996887207,2|0,0:0|3:0,0:0:0:0:
84,111,79220,1,4,1:2:0:0:
187,58,79520,2,0,P|165:103|185:149,1,101.999996887207,2|0,0:0|0:0,0:0:0:0:
210,174,79820,2,0,B|251:189|287:177|287:177|327:161|360:175,2,152.999995330811,0|2|2,3:0|1:2|1:2,0:0:0:0:
118,232,80720,5,6,0:0:0:0:
260,343,81220,1,0,1:0:0:0:
384,189,81620,2,0,P|290:219|380:262,1,254.999992218018,6|0,0:0|1:0,0:0:0:0:
452,108,82520,1,6,0:0:0:0:
210,43,83120,6,0,P|207:133|242:50,1,254.999992218018,6|0,0:0|1:0,0:0:0:0:
81,33,84020,1,6,0:0:0:0:
72,213,84520,2,0,B|121:216|151:202|151:202|200:221|200:221|231:208|289:219,1,203.999993774414,0|6,1:0|0:0,0:0:0:0:
362,273,85220,1,0,1:0:0:0:
362,273,85520,6,0,P|363:217|449:183,1,152.999995330811,6|0,0:0|0:0,0:0:0:0:
493,94,86020,2,0,P|418:102|344:83,1,152.999995330811,6|0,0:0|0:0,0:0:0:0:
314,63,86420,1,6,0:0:0:0:
