osu file format v14

[General]
AudioFilename: audio.mp3
AudioLeadIn: 0
PreviewTime: 56120
Countdown: 0
SampleSet: Soft
StackLeniency: 0.7
Mode: 0
LetterboxInBreaks: 0
WidescreenStoryboard: 1

[Editor]
DistanceSpacing: 1.1
BeatDivisor: 4
GridSize: 32
TimelineZoom: 3.699998

[Metadata]
Title:VORACITY (TV Size)
TitleUnicode:VORACITY (TV Size)
Artist:MYTH & ROID
ArtistUnicode:MYTH & ROID
Creator:Trynna
Version:NORMAL
Source:オーバーロードⅢ
Tags:Overlord 3 III opening op Seto Kousuke Net0 SrSkyPlayer Ataraxia Kalibe
BeatmapID:1703877
BeatmapSetID:812308

[Difficulty]
HPDrainRate:4
CircleSize:3
OverallDifficulty:4
ApproachRate:5
SliderMultiplier:0.9
SliderTickRate:1

[Events]
//Background and Video events
0,0,"lafa is a god.jpg",0,0
Video,-900,"lafayla ranks voracity 2019.mp4"
//Break Periods
2,30520,33920
//Storyboard Layer 0 (Background)
//Storyboard Layer 1 (Fail)
//Storyboard Layer 2 (Pass)
//Storyboard Layer 3 (Foreground)
//Storyboard Sound Samples

[TimingPoints]
320,300,4,2,1,50,1,0
1420,-100,4,2,1,50,0,0
6310,-100,4,2,1,50,0,0
6420,-100,4,2,1,5,0,0
6610,-100,4,2,1,5,0,0
6620,-100,4,2,1,50,0,0
7520,-100,4,2,1,50,0,0
8710,-100,4,2,1,50,0,0
8720,-100,4,2,1,70,0,0
8970,-100,4,2,1,5,0,0
9020,-100,4,2,1,70,0,0
9910,-100,4,2,1,70,0,0
10160,-100,4,2,1,10,0,0
10210,-100,4,2,1,70,0,0
10460,-100,4,2,1,10,0,0
10510,-100,4,2,1,70,0,0
10760,-100,4,2,1,10,0,0
10810,-100,4,2,1,70,0,0
11060,-100,4,2,1,10,0,0
11110,-100,4,2,1,60,0,0
18620,-100,4,2,1,40,0,0
19520,-100,4,2,1,50,0,0
20570,-100,4,2,1,50,0,0
20720,-100,4,2,1,60,0,0
25520,-100,4,2,1,60,0,0
25970,-100,4,2,1,60,0,0
26420,-100,4,2,1,60,0,0
26870,-100,4,2,1,60,0,0
27320,-100,4,2,1,60,0,0
27920,-100,4,2,1,60,0,0
28370,-100,4,2,1,60,0,0
28820,-100,4,2,1,60,0,0
29270,-100,4,2,1,60,0,0
29720,-100,4,2,1,60,0,0
39920,-100,4,2,1,60,0,0
40370,-100,4,2,1,60,0,0
40820,-100,4,2,1,60,0,0
41270,-100,4,2,1,60,0,0
41720,-100,4,2,1,60,0,0
42320,-100,4,2,1,60,0,0
42770,-100,4,2,1,60,0,0
43220,-100,4,2,1,60,0,0
43670,-100,4,2,1,60,0,0
44120,-100,4,2,1,60,0,0
44720,-100,4,2,1,60,0,0
45320,-100,4,2,1,40,0,0
51920,-100,4,2,1,45,0,0
52520,-100,4,2,1,50,0,0
53120,-100,4,2,1,55,0,0
54320,-100,4,2,1,65,0,0
56120,-100,4,2,1,50,0,0
56220,-100,4,2,1,5,0,0
56270,-100,4,2,1,50,0,0
56620,-100,4,2,1,70,0,1
63970,-100,4,2,1,5,0,1
64020,-100,4,2,1,70,0,1
64570,-100,4,2,1,5,0,1
64620,-100,4,2,1,70,0,1
65170,-100,4,2,1,5,0,1
65220,-100,4,2,1,70,0,1
65870,-100,4,2,1,5,0,1
65920,-100,4,2,1,70,0,1
71170,-100,4,2,1,5,0,1
71220,-100,4,2,1,70,0,1
71770,-100,4,2,1,5,0,1
71820,-100,4,2,1,70,0,1
72370,-100,4,2,1,5,0,1
72420,-100,4,2,1,70,0,1
72970,-100,4,2,1,5,0,1
73020,-100,4,2,1,70,0,1
73570,-100,4,2,1,5,0,1
73620,-100,4,2,1,70,0,1
74170,-100,4,2,1,5,0,1
74220,-100,4,2,1,70,0,1
75920,-100,4,2,1,60,0,0
80720,-100,4,2,1,70,0,0
85820,-100,4,2,1,5,0,0
85870,-100,4,2,1,70,0,0
86320,-100,4,2,1,5,0,0
86370,-100,4,2,1,70,0,0

[Colours]
Combo1 : 170,157,112
Combo2 : 201,99,99
Combo3 : 196,165,193
Combo4 : 196,165,163

[HitObjects]
86,101,1420,6,0,P|150:90|206:118,1,120,4|0,1:0|0:0,0:0:0:0:
208,214,2120,2,0,P|285:175|296:87,1,180,2|4,0:0|1:2,0:0:0:0:
454,37,3220,2,0,P|446:83|439:136,1,90,2|2,0:0|0:0,0:0:0:0:
382,206,3820,6,0,P|412:256|416:316,1,120,4|0,1:0|0:0,0:0:0:0:
325,355,4520,2,0,P|276:350|235:352,1,90,2|0,0:0|0:0,0:0:0:0:
138,372,5120,1,0,1:0:0:0:
46,234,5620,1,2,0:0:0:0:
90,138,5920,2,0,P|76:93|66:18,1,120,2|4,0:0|1:2,0:0:0:0:
379,54,7520,2,0,P|359:93|354:138,1,90,4|2,1:2|0:0,0:0:0:0:
441,185,8120,2,0,P|461:224|466:269,1,90,0|2,0:0|0:0,0:0:0:0:
409,350,8720,5,4,1:2:0:0:
128,326,9920,2,0,L|133:233,1,90,4|0,1:2|1:0,0:0:0:0:
64,164,10520,2,0,L|90:73,1,90,0|0,1:0|1:0,0:0:0:0:
183,47,11120,6,0,B|263:32|249:83|328:69,1,150,6|2,2:0|0:0,0:0:0:0:
458,40,12020,2,0,P|427:108|437:218,1,180,6|0,1:2|3:3,0:0:0:0:
479,299,12920,1,2,1:2:0:0:
408,368,13220,1,2,1:2:0:0:
309,360,13520,6,0,P|263:303|275:231,1,150,6|2,1:2|0:0,0:0:0:0:
147,197,14420,2,0,P|150:129|140:17,1,180,6|0,1:2|3:0,0:0:0:0:
233,51,15320,1,2,1:2:0:0:
325,16,15620,1,2,1:2:0:0:
409,68,15920,6,0,P|470:58|508:127,1,150,6|2,1:2|0:0,0:0:0:0:
400,204,16820,2,0,P|385:259|366:385,1,180,6|0,1:2|3:0,0:0:0:0:
267,377,17720,1,2,1:2:0:0:
186,318,18020,1,2,1:2:0:0:
106,376,18320,5,0,1:0:0:0:
256,53,19520,2,0,B|228:147|282:132|256:229,1,180,2|2,0:0|0:0,0:0:0:0:
97,347,20720,6,0,P|80:305|82:261,1,90,4|8,1:2|0:3,0:0:0:0:
136,177,21320,1,8,0:3:0:0:
79,95,21620,1,0,1:0:0:0:
159,33,21920,2,0,P|247:17|334:36,1,180,0|2,1:0|1:2,0:0:0:0:
457,191,23120,5,2,1:2:0:0:
398,271,23420,1,8,0:3:0:0:
447,357,23720,2,0,P|404:371|361:362,1,90,8|0,0:3|1:0,0:0:0:0:
282,298,24320,2,0,P|203:264|130:311,1,180,0|2,1:0|1:2,0:0:0:0:
51,129,25520,6,0,P|109:172|175:143,1,150,2|0,1:2|1:0,0:0:0:0:
276,58,26420,2,0,P|265:134|279:207,1,150,0|0,1:0|1:0,0:0:0:0:
267,337,27320,1,2,1:2:0:0:
362,362,27620,1,2,1:2:0:0:
456,332,27920,6,0,P|493:270|474:199,1,150,0|0,1:0|1:0,0:0:0:0:
497,69,28820,2,0,B|444:87|444:87|351:71,1,150,0|0,1:0|1:0,0:0:0:0:
257,163,29720,1,2,1:2:0:0:
171,113,30020,1,2,1:2:0:0:
89,169,30320,5,4,1:2:0:0:
256,191,35120,6,0,P|257:236|256:281,1,90,0|8,1:0|0:3,0:0:0:0:
175,338,35720,1,0,1:0:0:0:
85,298,36020,1,0,1:2:0:0:
89,199,36320,2,0,B|112:104|60:120|88:22,1,180,4|2,0:3|1:3,0:0:0:0:
280,67,37520,6,0,P|324:74|368:65,1,90,0|8,1:0|0:3,0:0:0:0:
445,127,38120,1,0,1:0:0:0:
372,193,38420,1,0,1:0:0:0:
428,271,38720,2,0,P|341:282|281:219,1,180,4|2,0:3|1:3,0:0:0:0:
140,78,39920,6,0,P|175:131|119:186,1,150,0|0,1:0|1:0,0:0:0:0:
82,311,40820,2,0,P|146:291|231:307,1,150,0|0,1:0|1:0,0:0:0:0:
355,340,41720,1,2,1:2:0:0:
324,245,42020,1,2,1:2:0:0:
373,159,42320,6,0,P|400:99|361:24,1,150,0|0,1:0|1:0,0:0:0:0:
254,98,43220,2,0,P|189:80|103:87,1,150,0|0,1:0|1:0,0:0:0:0:
145,212,44120,1,2,1:2:0:0:
85,291,44420,1,2,1:2:0:0:
182,309,44720,5,4,1:2:0:0:
382,312,45320,2,0,P|378:267|368:223,1,90,2|0,0:0|0:0,0:0:0:0:
402,130,45920,2,0,B|306:110|320:173|228:159,1,180,2|0,0:0|0:0,0:0:0:0:
51,71,47120,6,0,P|95:61|136:76,1,90,2|0,0:0|3:2,0:0:0:0:
90,164,47720,2,0,P|133:178|161:212,1,90,2|0,0:0|3:2,0:0:0:0:
104,292,48320,2,0,P|187:313|249:253,1,180,2|0,3:2|3:0,0:0:0:0:
257,55,49520,5,2,0:0:0:0:
447,2,50120,2,0,P|456:52|452:109,1,90,2|0,0:0|0:0,0:0:0:0:
384,160,50720,2,0,B|296:130|296:186|207:157,1,180,2|0,0:0|0:0,0:0:0:0:
82,311,51920,6,0,P|131:293|167:298,1,90,2|2,0:0|3:0,0:0:0:0:
258,259,52520,2,0,P|298:292|311:326,1,90,2|2,0:0|3:3,0:0:0:0:
409,346,53120,2,0,B|396:244|447:275|422:169,1,180,2|0,0:3|0:0,0:0:0:0:
257,60,54320,6,0,P|213:73|168:74,1,90,12|12,0:3|0:3,0:0:0:0:
73,47,54920,1,12,0:3:0:0:
36,138,55220,1,12,0:3:0:0:
79,227,55520,1,12,0:3:0:0:
448,192,56620,6,0,P|465:136|455:77,1,120,4|0,0:0|1:0,0:0:0:0:
360,103,57320,1,2,0:0:0:0:
262,86,57620,1,0,1:0:0:0:
295,179,57920,2,0,L|282:329,1,150,6|2,0:0|0:0,0:0:0:0:
83,313,59020,6,0,P|59:259|67:201,1,120,6|0,0:0|1:0,0:0:0:0:
158,163,59720,1,2,0:0:0:0:
93,89,60020,1,0,1:0:0:0:
187,61,60320,2,0,P|254:74|343:59,1,150,6|0,0:0|3:0,0:0:0:0:
427,28,61120,1,0,3:0:0:0:
389,180,61520,6,0,L|394:269,1,90,6|0,0:0|1:0,0:0:0:0:
307,318,62120,2,0,L|302:229,1,90,2|2,1:2|1:2,0:0:0:0:
212,184,62720,1,4,0:0:0:0:
156,265,63020,1,0,1:0:0:0:
210,347,63320,2,0,P|166:364|120:355,1,90,2|0,0:0|1:0,0:0:0:0:
48,293,63920,6,0,B|28:195|86:216|63:117,1,180,6|6,0:0|0:0,0:0:0:0:
252,59,65120,2,0,P|308:95|386:73,1,150,6|6,0:0|0:0,0:0:0:0:
467,21,65920,1,0,3:0:0:0:
469,119,66220,6,0,L|476:248,1,120,6|0,0:0|1:0,0:0:0:0:
436,330,66920,1,2,0:0:0:0:
339,308,67220,1,0,1:0:0:0:
250,352,67520,2,0,P|236:287|278:213,1,150,6|0,0:0|3:0,0:0:0:0:
187,43,68620,6,0,P|128:39|69:50,1,120,6|0,0:0|1:0,0:0:0:0:
7,127,69320,1,2,0:0:0:0:
102,155,69620,1,0,1:0:0:0:
46,237,69920,2,0,L|39:326,2,90,6|0|2,0:0|1:0|0:0,0:0:0:0:
102,155,70820,1,0,1:0:0:0:
192,191,71120,6,0,P|270:159|257:77,1,180,6|6,0:0|0:0,0:0:0:0:
455,73,72320,2,0,P|438:131|426:261,1,180,6|6,0:0|0:0,0:0:0:0:
253,347,73520,2,0,P|249:290|176:336,1,180,6|6,0:0|0:0,0:0:0:0:
37,192,74720,2,0,L|126:186,1,90,6|0,0:0|1:0,0:0:0:0:
107,89,75320,2,0,L|196:94,1,90,2|0,0:0|1:0,0:0:0:0:
271,28,75920,6,0,B|352:17|328:61|417:47,1,150,6|2,0:0|0:0,0:0:0:0:
453,174,76820,2,0,P|393:145|300:205,1,180,4|0,1:2|3:0,0:0:0:0:
243,278,77720,1,2,0:0:0:0:
163,219,78020,1,0,1:0:0:0:
101,296,78320,6,0,P|63:241|76:153,1,150,6|2,0:0|0:0,0:0:0:0:
146,59,79220,2,0,P|212:70|334:68,1,180,4|0,1:2|3:0,0:0:0:0:
358,162,80120,1,2,0:0:0:0:
315,251,80420,1,0,1:0:0:0:
352,342,80720,6,0,P|415:362|492:320,1,150,6|6,0:0|0:0,0:0:0:0:
465,195,81620,2,0,P|402:175|325:217,1,150,6|6,0:0|0:0,0:0:0:0:
237,304,82520,1,6,0:0:0:0:
52,231,83120,6,0,P|52:163|57:75,1,150,6|6,0:0|0:0,0:0:0:0:
183,43,84020,2,0,P|182:110|178:199,1,150,6|6,0:0|0:0,0:0:0:0:
256,299,84920,1,6,0:0:0:0:
305,107,85520,5,6,0:0:0:0:
451,183,86020,2,0,P|451:241|422:293,1,120,6|6,0:0|0:0,0:0:0:0:
