osu file format v14

[General]
AudioFilename: audio.mp3
AudioLeadIn: 0
PreviewTime: 56120
Countdown: 0
SampleSet: Soft
StackLeniency: 0.7
Mode: 0
LetterboxInBreaks: 0
WidescreenStoryboard: 1

[Editor]
DistanceSpacing: 1.1
BeatDivisor: 6
GridSize: 32
TimelineZoom: 4.699997

[Metadata]
Title:VORACITY (TV Size)
TitleUnicode:VORACITY (TV Size)
Artist:MYTH & ROID
ArtistUnicode:MYTH & ROID
Creator:Trynna
Version:KALIBE'S EXPERT
Source:オーバーロードⅢ
Tags:Overlord 3 III opening op Seto Kousuke Net0 SrSkyPlayer Ataraxia Kalibe
BeatmapID:1704259
BeatmapSetID:812308

[Difficulty]
HPDrainRate:6
CircleSize:4.2
OverallDifficulty:8.2
ApproachRate:9.2
SliderMultiplier:1.9
SliderTickRate:1

[Events]
//Background and Video events
0,0,"lafa is a god.jpg",0,0
Video,-900,"lafayla ranks voracity 2019.mp4"
//Break Periods
//Storyboard Layer 0 (Background)
//Storyboard Layer 1 (Fail)
//Storyboard Layer 2 (Pass)
//Storyboard Layer 3 (Foreground)
//Storyboard Sound Samples

[TimingPoints]
320,300,4,2,1,50,1,0
1420,-150.375939849624,4,2,1,50,0,0
1820,-133.333333333333,4,2,1,50,0,0
2120,-133.333333333333,4,2,1,50,0,0
2720,-133.333333333333,4,2,1,50,0,0
3220,-133.333333333333,4,2,1,50,0,0
3820,-141.843971631206,4,2,1,50,0,0
4220,-133.333333333333,4,2,1,50,0,0
4520,-144.927536231884,4,2,1,50,0,0
4820,-133.333333333333,4,2,1,50,0,0
5120,-133.333333333333,4,2,1,50,0,0
5320,-172.413793103448,4,2,1,50,0,0
5420,-133.333333333333,4,2,1,50,0,0
5570,-105.263157894737,4,2,1,50,0,0
6020,-82.6446280991736,4,2,1,50,0,0
6320,-133.333333333333,4,2,1,50,0,0
6620,-133.333333333333,4,2,1,50,0,0
7520,-125,4,2,1,50,0,0
8570,-83.3333333333333,4,2,1,50,0,0
8720,-399.999999999994,4,2,1,50,0,0
9920,-133.333333333333,4,2,1,70,0,0
10220,-100,4,2,1,70,0,0
10520,-133.333333333333,4,2,1,70,0,0
10820,-100,4,2,1,70,0,0
11123,-95.2380952380952,4,2,1,60,0,0
12920,-86.9565217391304,4,2,1,60,0,0
13520,-95.2380952380952,4,2,1,60,0,0
18320,-95.2380952380952,4,2,1,40,0,0
18370,-95.2380952380952,4,2,1,5,0,0
18620,-400,4,2,1,40,0,0
19520,-200,4,2,1,50,0,0
20570,-100,4,2,1,50,0,0
20720,-100,4,2,1,60,0,0
25520,-83.3333333333333,4,2,1,60,0,0
25970,-133.333333333333,4,2,1,60,0,0
26420,-83.3333333333333,4,2,1,60,0,0
26870,-133.333333333333,4,2,1,60,0,0
27320,-100,4,2,1,60,0,0
27920,-83.3333333333333,4,2,1,60,0,0
28370,-133.333333333333,4,2,1,60,0,0
28820,-83.3333333333333,4,2,1,60,0,0
29270,-133.333333333333,4,2,1,60,0,0
29720,-100,4,2,1,60,0,0
30320,-133.333333333333,4,2,1,45,0,0
34520,-100,4,2,1,60,0,0
39920,-83.3333333333333,4,2,1,60,0,0
40370,-133.333333333333,4,2,1,60,0,0
40820,-83.3333333333333,4,2,1,60,0,0
41270,-133.333333333333,4,2,1,60,0,0
41720,-100,4,2,1,60,0,0
42320,-83.3333333333333,4,2,1,60,0,0
42770,-133.333333333333,4,2,1,60,0,0
43220,-83.3333333333333,4,2,1,60,0,0
43670,-133.333333333333,4,2,1,60,0,0
44120,-100,4,2,1,60,0,0
44720,-333.333333333333,4,2,1,40,0,0
51920,-250,4,2,1,45,0,0
52520,-200,4,2,1,50,0,0
53120,-166.666666666667,4,2,1,55,0,0
54320,-66.6666666666667,4,2,1,65,0,0
56120,-133.333333333333,4,2,1,50,0,0
56320,-111.111111111111,4,2,1,50,0,0
56570,-133.333333333333,4,2,1,5,0,0
56620,-62.5,4,2,1,70,0,1
56870,-76.9230769230769,4,2,1,70,0,1
71420,-125,4,2,1,70,0,1
71720,-76.9230769230769,4,2,1,70,0,1
72020,-125,4,2,1,70,0,1
72320,-76.9230769230769,4,2,1,70,0,1
73820,-125,4,2,1,70,0,1
74120,-76.9230769230769,4,2,1,70,0,1
74420,-125,4,2,1,70,0,1
74720,-76.9230769230769,4,2,1,70,0,1
75920,-100,4,2,1,60,0,0
80720,-100,4,2,1,70,0,0
81620,-71.4285714285714,4,2,1,70,0,0
82520,-62.5,4,2,1,70,0,0
84520,-100,4,2,1,70,0,0
84920,-55.5555555555556,4,2,1,70,0,0
85620,-55.5555555555556,4,2,1,5,0,0
86001,-52.6315789473684,4,2,1,70,0,0
86120,-52.6315789473684,4,2,1,5,0,0
86420,-50,4,2,1,70,0,0
86520,-50,4,2,1,5,0,0

[Colours]
Combo1 : 170,157,112
Combo2 : 201,99,99
Combo3 : 196,165,193
Combo4 : 196,165,163

[HitObjects]
391,344,1420,5,4,1:0:0:0:
461,98,1820,1,0,0:0:0:0:
483,302,2119,5,2,0:0:0:0:
380,158,2420,1,0,0:0:0:0:
501,195,2720,6,0,B|423:199|449:234|362:244,1,142.500005435944,4|0,1:2|0:0,0:0:0:0:
298,384,3220,2,0,P|267:346|270:297,1,95.0000036239625,2|0,0:0|0:0,0:0:0:0:
282,287,3520,2,0,P|313:325|306:375,1,95.0000036239625,2|0,0:0|0:0,0:0:0:0:
217,239,3820,5,4,1:0:0:0:
282,6,4220,1,0,0:0:0:0:
180,50,4520,5,2,0:0:0:0:
307,190,4820,1,0,0:0:0:0:
311,105,5120,6,0,P|247:118|204:124,1,95.0000036239625,0|0,1:0|0:0,0:0:0:0:
162,187,5420,1,0,1:0:0:0:
53,191,5620,6,0,P|107:188|160:306,1,180.49999518013,2|2,0:0|0:0,0:0:0:0:
269,384,6020,2,0,B|282:335|282:335|256:298|256:298|276:244,1,153.266662340139,2|0,0:0|0:0,0:0:0:0:
368,186,6320,1,4,1:2:0:0:
368,186,6620,6,0,P|322:179|271:164,1,95.0000036239625,2|0,0:0|0:0,0:0:0:0:
197,94,6920,2,0,P|232:88|295:72,1,95.0000036239625,2|0,0:0|0:0,0:0:0:0:
367,6,7220,2,0,P|379:84|390:114,1,95.0000036239625,2|0,0:0|0:0,0:0:0:0:
475,237,7520,6,0,P|435:207|386:213,1,101.333333333333,4|0,1:2|0:0,0:0:0:0:
359,333,7820,2,0,P|398:364|447:355,1,101.333333333333,2|0,0:0|0:0,0:0:0:0:
314,256,8120,2,0,P|251:267|156:292,1,152,2|2,0:0|0:0,0:0:0:0:
27,254,8570,6,0,P|0:281|0:318,1,75.9999976806641,0|0,1:0|1:0,0:0:0:0:
38,384,8720,1,4,1:2:0:0:
216,100,9020,6,0,P|222:77|232:55,2,47.5,2|2|2,0:3|0:0|0:3,0:0:0:0:
0,144,9920,6,0,P|20:118|96:127,1,95.0000036239625,0|0,1:0|0:0,0:0:0:0:
221,186,10220,2,0,B|181:182|181:182|143:201|143:201|79:186,1,126.666666666667,0|0,1:0|0:0,0:0:0:0:
274,301,10520,6,0,P|254:275|178:284,1,95.0000036239625,0|0,1:0|0:0,0:0:0:0:
52,348,10820,2,0,B|92:344|92:344|130:363|130:363|194:348,1,126.666666666667,0|0,1:0|0:0,0:0:0:0:
252,373,11120,6,0,B|303:374|342:386|342:386|329:367|325:337,1,126.666666666667,6|0,0:0|3:0,0:0:0:0:
315,327,11420,1,0,1:2:0:0:
477,193,11620,1,2,0:0:0:0:
498,187,11720,2,0,B|534:219|534:219|507:323,1,132.999995941162,0|0,1:3|3:0,0:0:0:0:
434,364,12020,2,0,P|401:293|434:243,1,132.999995941162,4|0,1:2|3:0,0:0:0:0:
349,196,12320,6,0,B|319:202|319:202|308:210|308:210|271:219,2,66.4999979705811,2|0|0,1:2|3:0|0:0,0:0:0:0:
210,146,12620,6,0,B|188:140|188:140|177:132|177:132|147:126,2,66.4999979705811,0|0|0,1:0|3:0|0:0,0:0:0:0:
76,244,12920,6,0,B|100:237|100:237|111:229|111:229|144:222,1,72.833334722519,2|0,1:2|3:0,0:0:0:0:
229,296,13120,1,0,0:0:0:0:
133,311,13220,6,0,B|166:318|166:318|177:326|177:326|214:335,1,72.833334722519,0|0,1:0|3:0,0:0:0:0:
301,246,13420,1,0,0:0:0:0:
394,308,13520,6,0,P|442:318|508:254,1,132.999995941162,6|0,0:0|3:0,0:0:0:0:
512,246,13820,1,0,1:3:0:0:
229,296,14020,1,2,0:0:0:0:
207,281,14120,2,0,B|184:199|184:199|237:160,1,132.999995941162,0|0,1:3|3:0,0:0:0:0:
325,220,14420,2,0,B|311:267|311:267|325:301|325:301|302:386,1,132.999995941162,6|0,1:2|3:0,0:0:0:0:
208,384,14720,6,0,P|145:367|101:350,2,66.4999979705811,2|0|0,1:2|3:0|0:0,0:0:0:0:
411,305,15020,2,0,P|473:288|518:271,2,66.4999979705811,0|0|0,1:0|3:0|1:0,0:0:0:0:
298,201,15320,6,0,B|347:213|347:213|378:196|378:196|439:217,1,132.999995941162,2|0,1:2|3:0,0:0:0:0:
203,140,15620,2,0,B|154:152|154:152|123:135|123:135|62:156,1,132.999995941162,0|0,1:0|3:0,0:0:0:0:
13,216,15920,6,0,B|-17:180|-17:180|11:79,1,132.999995941162,4|0,1:2|3:0,0:0:0:0:
14,72,16220,1,0,1:3:0:0:
191,243,16420,1,2,0:0:0:0:
196,224,16520,1,0,1:3:0:0:
446,48,16720,1,0,3:0:0:0:
453,66,16820,2,0,B|414:56|414:56|385:66|385:66|357:54|357:54|322:61,1,132.999995941162,6|0,1:2|3:0,0:0:0:0:
245,12,17120,6,0,B|224:38|224:38|231:78,1,66.4999979705811,2|0,1:2|3:0,0:0:0:0:
319,189,17320,1,2,0:0:0:0:
309,284,17420,2,0,B|281:249|281:249|309:152,1,132.999995941162,0|0,1:0|3:0,0:0:0:0:
498,188,17720,6,0,B|421:196|459:226|359:240,1,132.999995941162,2|0,1:2|3:0,0:0:0:0:
135,329,18020,2,0,B|212:337|174:367|274:381,1,132.999995941162,2|0,1:2|3:0,0:0:0:0:
393,343,18320,6,0,L|340:336,1,33.2499989852906,14|0,1:3|0:0,0:0:0:0:
111,196,18620,6,0,P|134:191|159:177,2,47.5,2|0|0,0:0|2:0|2:0,0:0:0:0:
47,156,19520,6,0,B|169:167|105:220|223:234,1,190,2|2,0:0|0:0,0:0:0:0:
512,40,20620,5,0,1:0:0:0:
435,0,20720,2,0,B|397:20|397:20|421:132,1,126.666666666667,4|0,1:2|0:0,0:0:0:0:
420,131,21020,1,8,0:3:0:0:
315,383,21220,1,0,1:0:0:0:
299,364,21320,2,0,P|306:338|315:283,1,63.3333333333333,8|0,0:3|0:0,0:0:0:0:
494,203,21520,1,0,0:0:0:0:
506,223,21620,2,0,P|473:254|393:250,1,126.666666666667,0|0,1:0|0:0,0:0:0:0:
266,181,21920,5,0,1:0:0:0:
342,18,22120,1,0,0:0:0:0:
361,38,22220,2,0,P|306:83|202:62,1,126.666666666667,0|0,1:0|0:0,0:0:0:0:
190,272,22520,2,0,P|220:207|323:183,1,126.666666666667,2|0,1:2|0:0,0:0:0:0:
155,20,22820,2,0,P|172:88|109:174,1,126.666666666667,2|0,1:2|0:0,0:0:0:0:
66,212,23120,6,0,B|37:186|37:186|53:87,1,126.666666666667,2|0,1:2|0:0,0:0:0:0:
56,72,23420,1,8,0:3:0:0:
263,220,23620,1,0,1:0:0:0:
245,242,23720,2,0,B|218:253|218:253|204:265|204:265|172:280,1,63.3333333333333,8|0,0:3|0:0,0:0:0:0:
49,357,23920,1,0,0:0:0:0:
69,337,24020,2,0,P|114:337|184:380,1,126.666666666667,0|0,1:0|0:0,0:0:0:0:
278,317,24320,5,0,1:0:0:0:
411,93,24520,1,2,3:0:0:0:
387,108,24620,2,0,P|398:174|472:200,1,126.666666666667,0|0,1:0|0:0,0:0:0:0:
487,116,24920,6,0,B|483:96|483:96|488:73|488:73|474:19,1,63.3333333333333,2|0,1:2|0:0,0:0:0:0:
282,186,25120,1,0,2:0:0:0:
293,45,25220,2,0,B|278:96|278:96|294:126|294:126|282:199,1,126.666666666667,2|0,1:2|2:0,0:0:0:0:
386,350,25520,6,0,B|428:328|428:328|399:268|325:252|276:303,1,227.999993041992,2|0,1:2|0:0,0:0:0:0:
39,128,26020,6,0,B|14:139|14:139|39:182|93:177,1,118.750004529953,0|0,1:0|0:0,0:0:0:0:
196,279,26420,6,0,B|137:260|98:201|98:201|80:265|34:286,1,227.999993041992,2|0,1:2|0:0,0:0:0:0:
283,6,26920,6,0,B|317:44|317:44|296:123,1,118.750004529953,0|0,1:0|0:0,0:0:0:0:
189,300,27320,6,0,B|171:223|171:223|187:196|226:205,1,126.666666666667,2|0,1:2|0:0,0:0:0:0:
370,149,27620,2,0,B|387:225|387:225|372:253|333:244,1,126.666666666667,2|0,1:2|0:0,0:0:0:0:
286,372,27920,6,0,P|318:296|469:325,1,227.999993041992,2|0,1:2|0:0,0:0:0:0:
289,176,28420,2,0,L|305:49,1,118.750004529953,0|0,1:0|0:0,0:0:0:0:
405,30,28820,6,0,B|348:10|306:55|306:55|257:105|184:71,1,227.999993041992,2|0,1:2|0:0,0:0:0:0:
385,238,29320,2,0,P|443:235|484:194,1,118.750004529953,0|0,1:0|0:0,0:0:0:0:
496,56,29720,6,0,B|428:35|428:35|419:69|406:93,1,126.666666666667,2|0,1:2|0:0,0:0:0:0:
319,191,30020,2,0,B|251:212|251:212|242:178|229:154,1,126.666666666667,2|0,1:2|0:0,0:0:0:0:
99,75,30320,6,0,B|177:67|154:27|244:22,1,142.500005435944,4|0,1:2|0:0,0:0:0:0:
136,267,30820,1,2,0:0:0:0:
157,175,30920,6,0,P|149:222|131:282,1,95.0000036239625
92,335,31220,2,0,P|139:341|185:352,1,95.0000036239625,2|2,0:0|0:0,0:0:0:0:
409,260,31520,6,0,P|383:288|323:293,1,95.0000036239625,2|2,0:0|0:0,0:0:0:0:
252,300,31820,2,0,P|269:343|310:366,1,95.0000036239625
323,27,32320,5,0,0:0:0:0:
323,27,32420,2,0,P|328:57|335:125,1,95.0000036239625,2|0,0:0|0:0,0:0:0:0:
311,155,32720,1,2,0:0:0:0:
109,144,32920,6,0,B|186:141|161:95|259:88,1,142.500005435944,2|2,0:0|0:0,0:0:0:0:
68,340,33520,1,0,0:0:0:0:
17,260,33620,2,0,L|125:238,1,95.0000036239625,2|2,0:0|0:0,0:0:0:0:
225,308,33920,6,0,B|231:289|231:289|230:275|230:275|239:249,2,47.5000018119813,2|2|0,0:0|0:0|0:0,0:0:0:0:
324,166,34220,2,0,B|330:185|330:185|329:199|329:199|338:225,2,47.5000018119813,2|2|0,0:0|0:0|0:0,0:0:0:0:
428,260,34520,2,0,B|383:270|340:233|340:233|350:290|314:327,1,190,2|2,0:3|0:0,0:0:0:0:
21,29,35120,6,0,B|89:30|74:62|141:63,1,126.666666666667,4|0,1:2|0:0,0:0:0:0:
169,48,35420,1,8,0:3:0:0:
46,210,35620,1,12,0:3:0:0:
46,210,35720,2,0,P|10:170|61:93,1,126.666666666667,0|4,1:0|0:3,0:0:0:0:
133,170,36020,2,0,B|176:159|176:159|201:134|201:134|254:120,1,126.666666666667,0|0,1:2|0:0,0:0:0:0:
324,58,36320,6,0,B|325:85|325:85|332:105|332:105|335:155,1,63.3333333333333,4|2,0:3|0:3,0:0:0:0:
403,253,36520,1,4,0:3:0:0:
458,195,36620,2,0,B|437:161|437:161|325:201,1,126.666666666667,2|0,1:2|0:0,0:0:0:0:
200,311,36920,2,0,B|221:277|221:277|333:317,1,126.666666666667,2|0,1:3|0:0,0:0:0:0:
329,317,37220,1,2,1:3:0:0:
129,204,37420,1,0,0:0:0:0:
62,246,37520,6,0,P|32:205|61:130,1,126.666666666667,4|0,1:2|0:0,0:0:0:0:
73,121,37820,1,8,0:3:0:0:
258,0,38020,1,4,0:3:0:0:
258,0,38120,2,0,B|300:27|300:27|284:106,1,126.666666666667,0|0,1:0|0:0,0:0:0:0:
209,169,38420,2,0,P|177:131|206:53,1,126.666666666667,2|0,1:2|0:0,0:0:0:0:
335,24,38720,6,0,B|410:31|384:58|454:69,1,126.666666666667,4|8,0:3|0:3,0:0:0:0:
330,208,39020,2,0,B|405:201|379:174|449:163,1,126.666666666667,2|0,1:2|0:0,0:0:0:0:
509,212,39320,1,2,1:3:0:0:
347,99,39520,1,0,0:0:0:0:
341,126,39620,1,2,1:3:0:0:
155,363,39820,1,0,3:0:0:0:
155,363,39920,6,0,B|101:313|101:313|179:244|246:322,1,227.999993041992,2|0,1:2|0:0,0:0:0:0:
406,225,40420,2,0,B|425:292|425:292|420:317|390:324,1,118.750004529953,0|0,1:0|0:0,0:0:0:0:
233,156,40820,6,0,P|320:130|290:221,1,227.999993041992,2|0,1:2|0:0,0:0:0:0:
73,303,41320,6,0,B|27:286|-8:278|-8:278|9:265|22:250,1,118.750004529953,0|0,1:0|0:0,0:0:0:0:
145,35,41720,6,0,B|123:75|123:75|130:107|130:107|110:153,1,126.666666666667,2|0,1:2|0:0,0:0:0:0:
257,297,42020,2,0,B|235:256|235:256|242:224|242:224|222:178,1,126.666666666667,2|0,1:2|0:0,0:0:0:0:
310,34,42320,6,0,B|436:15|392:124|524:116,1,227.999993041992,2|0,1:2|0:0,0:0:0:0:
454,380,42820,6,0,P|389:360|387:298,1,118.750004529953,0|0,1:0|0:0,0:0:0:0:
421,143,43220,6,0,B|475:116|475:116|454:214|341:194,1,227.999993041992,2|0,1:2|0:0,0:0:0:0:
143,50,43720,6,0,B|216:68|180:92|260:114,1,118.750004529953,0|0,1:0|0:0,0:0:0:0:
26,213,44120,6,0,B|76:167|76:167|153:191,1,126.666666666667,2|0,1:2|0:0,0:0:0:0:
289,309,44420,2,0,B|239:263|239:263|162:287,1,126.666666666667,2|0,1:2|0:0,0:0:0:0:
43,355,44720,5,4,1:2:0:0:
434,74,45320,2,0,P|441:130|447:163,1,85.4999973907472,2|0,0:0|0:0,0:0:0:0:
446,158,45920,1,2,0:0:0:0:
375,380,46820,6,0,P|385:341|388:316,1,56.9999982604981,2|2,3:2|0:0,0:0:0:0:
425,254,47420,1,0,3:2:0:0:
475,369,47720,1,2,0:0:0:0:
290,255,48020,6,0,P|296:227|300:199,1,56.9999982604981,0|2,3:2|3:2,0:0:0:0:
244,145,48620,1,0,3:0:0:0:
185,285,48920,1,2,0:0:0:0:
244,145,49220,1,0,0:0:0:0:
32,361,49520,6,0,P|48:329|51:304,1,56.9999982604981,2|0,0:0|0:0,0:0:0:0:
130,154,50120,2,0,P|146:186|149:211,1,56.9999982604981
232,353,50720,2,0,P|268:311|377:306,1,170.999994781494,2|2,3:2|0:3,0:0:0:0:
404,24,51920,6,0,L|398:49,2,25.3333333333333,2|0|0,0:3|0:0|0:0,0:0:0:0:
490,122,52220,6,0,L|482:92,2,25.3333333333333,2|0|0,0:3|0:0|0:0,0:0:0:0:
370,194,52520,6,0,P|378:176|382:156,2,31.6666666666667,2|0|0,0:3|0:0|0:0,0:0:0:0:
506,285,52820,6,0,P|498:263|497:245,2,31.6666666666667,2|0|0,0:3|0:0|0:0,0:0:0:0:
379,309,53120,6,0,L|366:365,1,37.9999988403321,2|0,0:3|0:0,0:0:0:0:
364,369,53320,1,0,0:0:0:0:
287,260,53420,6,0,L|300:316,1,37.9999988403321,2|0,0:3|0:0,0:0:0:0:
270,332,53620,1,2,0:0:0:0:
203,223,53720,6,0,L|194:260,1,37.9999988403321,2|0,0:3|0:0,0:0:0:0:
139,314,53920,1,2,0:0:0:0:
86,171,54020,6,0,L|97:227,1,37.9999988403321,2|0,0:3|0:0,0:0:0:0:
0,255,54220,1,2,0:0:0:0:
0,140,54320,6,0,B|121:115|65:196|189:185,1,190.000007247925,12|0,0:3|0:0,0:0:0:0:
287,58,54620,2,0,B|228:46|188:26|188:26|182:63|153:124,1,190.000007247925,12|0,0:3|0:0,0:0:0:0:
144,264,54920,6,0,B|254:282|218:194|336:219,1,190.000007247925,12|0,0:3|0:0,0:0:0:0:
449,323,55220,2,0,B|461:265|484:217|484:217|462:175|417:184,1,190.000007247925,12|0,0:3|0:0,0:0:0:0:
293,295,55520,5,12,0:3:0:0:
211,24,56120,5,2,0:0:0:0:
211,24,56320,2,0,B|196:2|196:2|265:30|224:102,1,142.500005435944,2|0,0:0|0:0,0:0:0:0:
150,118,56620,6,0,B|228:95|228:95|268:168|324:157,1,202.666666666667,4|0,0:0|0:0,0:0:0:0:
370,221,56920,1,0,3:0:0:0:
450,100,57020,2,0,B|353:69|353:69|324:143,1,164.666659128825,0|0,1:0|3:0,0:0:0:0:
322,157,57320,1,2,0:0:0:0:
510,363,57520,1,0,3:0:0:0:
495,293,57620,1,0,1:0:0:0:
269,384,57820,5,0,3:0:0:0:
252,313,57920,2,0,P|194:294|157:376,1,164.666659128825,6|0,0:0|3:0,0:0:0:0:
76,274,58220,2,0,B|84:244|84:244|77:222|77:222|91:187,1,82.3333295644126,0|0,1:0|0:0,0:0:0:0:
164,124,58420,1,2,0:0:0:0:
0,194,58520,6,0,B|61:178|61:178|86:144|86:144|152:126,1,164.666659128825,0|0,1:0|3:0,0:0:0:0:
272,24,58820,2,0,B|245:21|233:24|233:24|244:28|262:57,1,82.3333295644126,0|0,1:0|3:0,0:0:0:0:
158,44,59020,6,0,B|253:51|212:104|322:120,1,164.666659128825,6|0,0:0|3:0,0:0:0:0:
366,76,59320,1,0,0:0:0:0:
471,146,59420,2,0,B|385:115|385:115|377:153|355:194,1,164.666659128825,0|0,1:0|3:0,0:0:0:0:
347,213,59720,1,2,0:0:0:0:
512,17,59920,1,0,3:0:0:0:
439,38,60020,1,0,1:0:0:0:
512,272,60220,5,0,3:0:0:0:
439,251,60320,2,0,B|377:257|377:257|346:293|346:293|278:316,1,164.666659128825,6|0,0:0|3:0,0:0:0:0:
266,288,60620,1,0,1:0:0:0:
144,145,60820,1,0,3:0:0:0:
219,167,60920,1,2,0:0:0:0:
7,284,61120,5,6,1:2:0:0:
149,239,61220,1,4,3:0:0:0:
53,351,61420,5,6,3:2:0:0:
53,351,61520,2,0,B|40:291|40:291|61:253|61:253|45:182,1,164.666659128825,6|0,0:0|3:0,0:0:0:0:
36,93,61820,6,0,B|135:92|89:149|187:154,1,164.666659128825,0|0,1:0|3:0,0:0:0:0:
328,10,62120,2,0,B|229:9|275:66|177:71,1,164.666659128825,2|0,1:2|3:0,0:0:0:0:
259,210,62420,2,0,P|324:169|288:71,1,164.666659128825,2|0,1:2|3:0,0:0:0:0:
182,153,62720,6,0,P|157:174|160:237,1,82.3333295644126,6|2,0:0|3:2,0:0:0:0:
252,328,62920,1,2,0:0:0:0:
133,346,63020,6,0,B|177:298|177:298|280:323,1,164.666659128825,0|0,1:0|3:0,0:0:0:0:
399,234,63320,2,0,B|355:186|355:186|252:211,1,164.666659128825,0|0,1:0|3:0,0:0:0:0:
341,370,63620,2,0,B|400:359|400:359|428:327|428:327|497:313,1,164.666659128825,0|0,1:0|3:0,0:0:0:0:
512,311,63920,5,6,1:2:0:0:
490,202,64220,1,0,0:0:0:0:
204,45,64520,5,6,0:0:0:0:
182,153,64820,1,0,0:0:0:0:
512,68,65120,5,6,0:0:0:0:
512,68,65320,2,0,B|417:49,1,82.3333295644126,2|0,0:0|0:0,0:0:0:0:
112,207,65620,6,0,B|222:183|222:183|244:201|241:233,1,164.666659128825,6|0,0:0|0:0,0:0:0:0:
155,379,65920,1,2,1:2:0:0:
155,379,66020,2,0,B|160:348|160:348|156:325|156:325|173:283,1,82.3333295644126,0|0,1:0|0:0,0:0:0:0:
249,338,66220,6,0,B|341:328|306:281|403:264,1,164.666659128825,6|0,0:0|0:0,0:0:0:0:
462,297,66520,1,0,3:0:0:0:
503,185,66620,2,0,B|479:171|446:127|446:127|414:167|371:182,1,164.666659128825,0|0,1:0|3:0,0:0:0:0:
356,191,66920,1,2,0:0:0:0:
204,3,67120,1,0,3:0:0:0:
280,28,67220,1,0,1:0:0:0:
43,128,67420,5,0,3:0:0:0:
126,95,67520,2,0,B|179:75|179:75|220:139|270:137,1,164.666659128825,6|0,0:0|3:0,0:0:0:0:
424,48,67820,2,0,P|451:72|443:122,1,82.3333295644126,0|0,1:0|3:0,0:0:0:0:
339,222,68020,1,2,0:0:0:0:
437,313,68120,6,0,P|431:240|349:209,1,164.666659128825,2|0,3:2|3:0,0:0:0:0:
219,283,68420,2,0,B|203:301|191:317|191:317|208:306|238:304,1,82.3333295644126,0|0,1:0|0:0,0:0:0:0:
240,376,68620,6,0,B|221:313|288:293|254:203,1,164.666659128825,4|0,0:0|0:0,0:0:0:0:
207,158,68920,1,0,3:0:0:0:
60,256,69020,2,0,P|29:209|70:117,1,164.666659128825,0|0,1:0|3:0,0:0:0:0:
98,101,69320,1,2,0:0:0:0:
158,309,69520,1,0,3:0:0:0:
143,230,69620,1,0,1:0:0:0:
368,21,69820,5,0,3:0:0:0:
380,101,69920,2,0,B|384:68|384:68|394:50|394:50|398:11,1,82.3333295644126,6|0,0:0|3:0,0:0:0:0:
208,108,70120,5,0,3:0:0:0:
280,81,70220,2,0,B|251:98|251:98|239:115|239:115|206:135,1,82.3333295644126,0|2,1:0|3:2,0:0:0:0:
340,235,70420,5,0,3:0:0:0:
313,163,70520,2,0,B|330:191|330:191|347:203|347:203|367:236,1,82.3333295644126,2|0,0:0|3:0,0:0:0:0:
437,335,70720,5,0,3:0:0:0:
455,259,70820,1,0,1:0:0:0:
231,223,71020,5,2,0:0:0:0:
211,299,71120,2,0,B|128:297|144:345|41:343,1,164.666659128825,6|0,0:0|0:0,0:0:0:0:
35,324,71420,2,0,B|55:293|36:262|36:262|69:241,1,101.333333333333,0|0,3:0|0:0,0:0:0:0:
235,188,71720,6,0,B|175:174|175:174|154:140|154:140|90:125,1,164.666659128825,6|0,0:0|0:0,0:0:0:0:
64,122,72020,2,0,B|95:95|95:95|169:115,1,101.333333333333,0|0,3:0|0:0,0:0:0:0:
273,1,72320,6,0,B|281:33|281:33|273:60|273:60|278:95,2,82.3333295644126,6|2|0,0:0|0:0|3:0,0:0:0:0:
464,196,72620,2,0,B|477:165|477:165|474:137|474:137|485:104,2,82.3333295644126,0|2|0,1:0|0:0|3:0,0:0:0:0:
383,56,72920,6,0,B|361:112|361:112|382:157|382:157|357:227,1,164.666659128825,6|0,0:0|3:0,0:0:0:0:
339,282,73220,1,0,1:0:0:0:
75,384,73420,1,0,1:0:0:0:
116,306,73520,6,0,P|180:289|241:367,1,164.666659128825,6|0,0:0|0:0,0:0:0:0:
237,382,73820,2,0,P|190:364|206:302,1,101.333333333333,0|0,3:0|0:0,0:0:0:0:
341,120,74120,6,0,P|277:103|216:181,1,164.666659128825,6|0,0:0|0:0,0:0:0:0:
220,196,74420,2,0,P|267:178|251:116,1,101.333333333333,0|0,3:0|0:0,0:0:0:0:
204,39,74720,6,0,B|166:50|162:84|162:84|271:114,1,164.666659128825,6|0,0:0|3:0,0:0:0:0:
446,177,75020,2,0,B|470:146|454:116|454:116|348:153,1,164.666659128825,0|0,1:0|3:0,0:0:0:0:
237,233,75320,1,2,1:2:0:0:
429,0,75520,5,0,3:0:0:0:
472,95,75620,1,2,1:3:0:0:
314,338,75820,5,0,3:0:0:0:
363,250,75920,2,0,B|414:261|414:261|426:280|426:280|492:298,1,126.666666666667,6|0,0:0|3:0,0:0:0:0:
488,273,76220,1,0,1:0:0:0:
237,193,76420,1,2,0:0:0:0:
254,205,76520,2,0,B|203:216|203:216|191:235|191:235|125:253,1,126.666666666667,2|0,1:2|3:0,0:0:0:0:
17,338,76820,2,0,B|-16:306|-16:306|16:204,1,126.666666666667,4|0,1:2|3:0,0:0:0:0:
18,195,77120,5,2,0:0:0:0:
124,357,77320,1,2,3:3:0:0:
153,283,77420,2,0,L|331:308,1,126.666666666667,0|0,1:0|3:0,0:0:0:0:
353,356,77720,5,2,1:2:0:0:
246,97,77920,1,2,3:0:0:0:
220,172,78020,2,0,L|390:150,1,126.666666666667,0|0,1:0|3:0,0:0:0:0:
463,217,78320,6,0,B|481:172|498:142|498:142|474:123|443:143,1,126.666666666667,6|0,0:0|3:0,0:0:0:0:
429,148,78620,1,0,1:0:0:0:
207,328,78820,1,2,0:2:0:0:
276,365,78920,2,0,B|306:329|306:329|286:235,1,126.666666666667,2|0,1:2|3:0,0:0:0:0:
203,158,79220,2,0,P|162:162|103:238,1,126.666666666667,4|0,1:2|3:0,0:0:0:0:
127,307,79520,5,2,0:0:0:0:
335,144,79720,1,2,3:0:0:0:
276,93,79820,2,0,P|223:79|138:53,1,126.666666666667,0|0,1:0|3:0,0:0:0:0:
124,147,80120,5,2,1:2:0:0:
336,328,80320,1,2,3:0:0:0:
411,216,80420,2,0,P|358:230|273:256,1,126.666666666667,0|0,1:0|3:0,0:0:0:0:
174,345,80720,6,0,L|206:137,1,190,6|0,0:0|0:0,0:0:0:0:
350,18,81220,6,0,B|370:110|370:110|361:152|303:173|252:126,1,190,6|0,0:0|0:0,0:0:0:0:
121,31,81620,6,0,B|118:73|96:108|96:108|153:97|153:97|192:130|192:130|196:88|225:52,1,265.999991882324,6|0,0:0|0:0,0:0:0:0:
401,121,82120,6,0,B|511:145|511:145|458:159|458:159|425:283,1,265.999991882324,6|0,0:0|0:0,0:0:0:0:
359,363,82520,6,0,B|309:378|268:311|336:276|336:276|289:266|271:211|320:167|353:174|374:203,1,304,6|0,0:0|0:0,0:0:0:0:
27,143,83120,6,0,B|41:191|53:257|53:257|66:204|66:204|104:207|138:195|138:195|165:239|165:239|150:180|160:118,1,405.333333333333,6|0,0:0|0:0,0:0:0:0:
230,23,83620,6,0,B|367:42|367:42|295:63|295:63|279:183,1,304,6|0,0:0|0:0,0:0:0:0:
392,168,84020,6,0,B|370:213|408:245|408:245|449:252|479:214|479:214|415:296|447:341,1,304,4|0,0:0|0:0,0:0:0:0:
149,342,84520,6,0,L|188:133,1,190,6|0,0:0|0:0,0:0:0:0:
418,87,84920,6,0,B|353:42|288:117|349:166|349:166|408:217|330:304|260:237,1,341.999989562989,6|0,0:0|1:0,0:0:0:0:
32,82,85520,6,0,B|77:70|77:70|112:77|112:77|178:59,1,113.999996520996,6|0,0:0|0:0,0:0:0:0:
512,194,86020,6,0,B|467:182|467:182|432:189|432:189|394:180,1,120.333330120087,6|0,0:0|0:0,0:0:0:0:
0,360,86420,6,0,B|45:348|45:348|81:357|81:357|121:343,1,126.666666666667,6|0,0:0|0:0,0:0:0:0:
