osu file format v14

[General]
AudioFilename: audio.mp3
AudioLeadIn: 0
PreviewTime: 36447
Countdown: 0
SampleSet: Soft
StackLeniency: 0.7
Mode: 2
LetterboxInBreaks: 0
WidescreenStoryboard: 1

[Editor]
Bookmarks: 2747,7647,12447,19647,22047,26847,31647,36447,37247,41247,46047,55647,57947,75447,77247,82047,88047
DistanceSpacing: 0.4
BeatDivisor: 4
GridSize: 8
TimelineZoom: 2.4

[Metadata]
Title:VORACITY (TV Size)
TitleUnicode:VORACITY (TV Size)
Artist:MYTH & ROID
ArtistUnicode:MYTH & ROID
Creator:Emiru
Version:RAIN
Source:オーバーロードⅢ
Tags:overlord 3 iii japanese anime opening op theme song chickenbible idust idu5t dust du5t Secre Natsuko Jemzuu AJamez jrock Rock J-Rock Pop J-Pop KIHOW Tom-H@ck hotaru bite you death byd
BeatmapID:2104623
BeatmapSetID:1005619

[Difficulty]
HPDrainRate:4
CircleSize:4
OverallDifficulty:9.1
ApproachRate:9.1
SliderMultiplier:1.5
SliderTickRate:1

[Events]
//Background and Video events
0,0,"Cocytus.jpg",0,0
//Break Periods
2,31847,34363
//Storyboard Layer 0 (Background)
//Storyboard Layer 1 (Fail)
//Storyboard Layer 2 (Pass)
//Storyboard Layer 3 (Foreground)
//Storyboard Layer 4 (Overlay)
//Storyboard Sound Samples

[TimingPoints]
447,300,4,2,11,30,1,0
447,-200,4,2,11,30,0,0
747,-200,4,2,11,35,0,0
1047,-200,4,2,11,40,0,0
1347,-200,4,2,11,45,0,0
1647,-200,4,2,11,50,0,0
1947,-200,4,2,11,55,0,0
2247,-200,4,2,11,60,0,0
2647,-200,4,2,11,60,0,0
2697,-200,4,2,11,60,0,0
2747,-100,4,2,11,60,0,0
3047,-200,4,2,11,60,0,0
3147,-200,4,2,11,60,0,0
3947,-200,4,2,11,5,0,0
4047,-100,4,2,11,60,0,0
4747,-200,4,2,11,5,0,0
4847,-200,4,2,11,60,0,0
5047,-200,4,2,11,5,0,0
5147,-76.9230769230769,4,2,11,60,0,0
5447,-200,4,2,11,60,0,0
5547,-200,4,2,11,60,0,0
6347,-200,4,2,11,5,0,0
6447,-100,4,2,11,60,0,0
6847,-200,4,2,11,60,0,0
6947,-100,4,2,11,60,0,0
7147,-200,4,2,11,5,0,0
7247,-200,4,2,11,60,0,0
7547,-200,4,2,11,5,0,0
7647,-100,4,2,11,60,0,0
9947,-200,4,2,11,5,0,0
10047,-100,4,2,11,60,0,0
10247,-200,4,2,11,5,0,0
10347,-200,4,2,11,60,0,0
10547,-200,4,2,11,5,0,0
10647,-200,4,2,11,60,0,0
10847,-200,4,2,11,5,0,0
10947,-200,4,2,11,60,0,0
11147,-200,4,2,11,5,0,0
11247,-76.9230769230769,4,2,11,60,0,0
11447,-76.9230769230769,4,2,11,60,0,0
11547,-76.9230769230769,4,2,11,60,0,0
11747,-76.9230769230769,4,2,11,60,0,0
11847,-76.9230769230769,4,2,11,60,0,0
12047,-76.9230769230769,4,2,11,60,0,0
12147,-76.9230769230769,4,2,11,60,0,0
12397,-133.333333333333,4,2,11,60,0,0
12447,-76.9230769230769,4,2,11,70,0,0
12747,-76.9230769230769,4,2,11,70,0,0
13947,-76.9230769230769,4,2,11,70,0,0
15347,-76.9230769230769,4,2,11,70,0,0
15747,-76.9230769230769,4,2,11,70,0,0
16347,-76.9230769230769,4,2,11,70,0,0
19647,-133.333333333333,4,2,11,70,0,0
19947,-133.333333333333,4,2,11,30,0,0
20847,-100,4,2,11,50,0,0
21347,-200,4,2,11,5,0,0
21447,-100,4,2,11,40,0,0
21847,-200,4,2,11,5,0,0
21947,-200,4,2,11,60,0,0
22047,-76.9230769230769,4,2,11,60,0,0
26847,-100,4,2,11,60,0,0
26897,-100,4,2,11,5,0,0
27347,-100,4,2,11,60,0,0
27397,-100,4,2,11,5,0,0
27747,-100,4,2,11,60,0,0
27797,-100,4,2,11,5,0,0
28247,-100,4,2,11,60,0,0
28297,-100,4,2,11,5,0,0
28647,-100,4,2,11,60,0,0
28697,-100,4,2,11,5,0,0
28947,-100,4,2,11,60,0,0
28997,-100,4,2,11,5,0,0
29247,-100,4,2,11,60,0,0
29297,-100,4,2,11,5,0,0
29747,-100,4,2,11,60,0,0
29797,-100,4,2,11,5,0,0
30147,-100,4,2,11,60,0,0
30197,-100,4,2,11,5,0,0
30647,-100,4,2,11,60,0,0
30697,-100,4,2,11,5,0,0
31047,-100,4,2,11,60,0,0
31097,-100,4,2,11,5,0,0
31347,-100,4,2,11,60,0,0
31397,-100,4,2,11,5,0,0
31647,-100,4,2,11,60,0,0
36447,-76.9230769230769,4,2,11,60,0,0
41247,-100,4,2,11,60,0,0
41297,-100,4,2,11,5,0,0
41747,-100,4,2,11,60,0,0
41797,-100,4,2,11,5,0,0
42147,-100,4,2,11,60,0,0
42197,-100,4,2,11,5,0,0
42647,-100,4,2,11,60,0,0
42697,-100,4,2,11,5,0,0
43047,-100,4,2,11,60,0,0
43097,-100,4,2,11,5,0,0
43347,-100,4,2,11,60,0,0
43397,-100,4,2,11,5,0,0
43647,-100,4,2,11,60,0,0
43697,-100,4,2,11,5,0,0
44147,-100,4,2,11,60,0,0
44197,-100,4,2,11,5,0,0
44547,-100,4,2,11,60,0,0
44597,-100,4,2,11,5,0,0
45047,-100,4,2,11,60,0,0
45097,-100,4,2,11,5,0,0
45447,-100,4,2,11,60,0,0
45497,-100,4,2,11,5,0,0
45747,-100,4,2,11,60,0,0
45797,-100,4,2,11,5,0,0
46047,-100,4,2,11,60,0,0
46647,-100,4,2,11,40,0,0
47247,-125,4,2,11,40,0,0
48147,-100,4,2,11,40,0,0
53247,-100,4,2,11,40,0,0
53847,-100,4,2,11,50,0,0
54447,-100,4,2,11,60,0,0
54747,-400,4,2,11,60,0,0
55047,-400,4,2,11,60,0,0
57447,-66.6666666666667,4,2,11,60,0,0
57947,-76.9230769230769,4,2,11,60,0,1
62847,-76.9230769230769,4,2,11,60,0,0
65247,-100,4,2,11,60,0,0
65297,-100,4,2,11,5,0,0
65847,-100,4,2,11,60,0,0
65897,-100,4,2,11,5,0,0
66447,-100,4,2,11,60,0,0
66497,-100,4,2,11,5,0,0
66947,-100,4,2,11,60,0,0
66997,-100,4,2,11,5,0,0
67247,-76.9230769230769,4,2,11,60,0,0
67547,-76.9230769230769,4,2,11,60,0,1
72447,-76.9230769230769,4,2,11,60,0,0
72497,-33.3333333333333,4,2,11,5,0,0
72547,-100,4,2,11,60,0,0
73047,-76.9230769230769,4,2,11,60,0,0
73097,-100,4,2,11,5,0,0
73347,-100,4,2,11,60,0,0
73647,-76.9230769230769,4,2,11,60,0,0
73697,-33.3333333333333,4,2,11,5,0,0
73747,-76.9230769230769,4,2,11,60,0,0
74297,-100,4,2,11,5,0,0
74347,-100,4,2,11,60,0,0
74847,-76.9230769230769,4,2,11,60,0,0
74897,-33.3333333333333,4,2,11,5,0,0
74947,-76.9230769230769,4,2,11,60,0,0
75497,-100,4,2,11,5,0,0
75547,-76.9230769230769,4,2,11,60,0,0
77247,-76.9230769230769,4,2,11,60,0,0
79647,-76.9230769230769,4,2,11,60,0,0
86847,-400,4,2,11,60,0,0
86947,-400,4,2,11,60,0,0
87347,-400,4,2,11,60,0,0
87447,-400,4,2,11,60,0,0
87747,-400,4,2,11,60,0,0
87847,-400,4,2,11,60,0,0

[Colours]
Combo1 : 193,132,255
Combo2 : 255,255,128
Combo3 : 128,128,255
Combo4 : 55,97,166
Combo5 : 255,176,98

[HitObjects]
256,192,447,12,2,2247,1:2:0:0:
192,32,2747,6,0,P|96:64|224:320,1,500,6|0,3:2|0:0,0:0:0:0:
416,192,4047,5,6,3:2:0:0:
224,192,4347,1,0,0:0:0:0:
416,240,4547,2,0,P|392:240|256:240,1,150,2|2,0:0|0:0,0:0:0:0:
88,40,5147,6,0,P|72:152|424:16,1,779.999964294435,6|0,3:2|0:0,0:0:0:0:
192,88,6447,6,0,P|161:122|223:133,1,100,6|2,3:2|0:0,0:0:0:0:
344,88,6947,2,0,P|400:112|312:176,1,200,2|0,0:0|0:0,0:0:0:0:
80,136,7647,5,4,3:2:0:0:
480,328,8847,5,6,0:0:0:0:
328,328,9147,1,2,0:0:0:0:
184,328,9447,1,2,0:0:0:0:
32,328,9747,1,2,0:0:0:0:
400,336,10047,5,4,3:2:0:0:
497,230,10347,1,2,0:0:0:0:
462,91,10647,1,2,0:0:0:0:
325,44,10947,1,2,0:0:0:0:
160,64,11247,6,0,L|8:64,1,129.999994049073,6|0,3:2|3:2,0:0:0:0:
112,128,11547,2,0,L|256:128,1,129.999994049073,6|0,3:2|3:2,0:0:0:0:
328,192,11847,2,0,L|192:192,1,129.999994049073,6|0,3:2|3:2,0:0:0:0:
280,272,12147,2,0,L|440:272,1,129.999994049073,10|0,3:2|3:2,0:0:0:0:
88,40,12447,6,0,P|51:80|112:136,1,129.999994049073,6|0,3:2|0:0,0:0:0:0:
192,96,12747,2,0,L|272:96,2,64.9999970245363,8|0|0,0:0|0:0|0:0,0:0:0:0:
88,192,13047,2,0,L|24:192,2,64.9999970245363
192,192,13347,2,0,L|360:192,1,129.999994049073,8|0,0:0|0:0,0:0:0:0:
408,192,13647,6,0,L|408:336,1,129.999994049073,0|0,3:0|0:0,0:0:0:0:
320,264,13947,2,0,L|176:264,1,129.999994049073,8|0,0:0|0:0,0:0:0:0:
104,322,14247,2,0,P|71:258|127:243,1,129.999994049073,2|0,3:1|0:0,0:0:0:0:
320,200,14547,2,0,P|353:136|297:121,1,129.999994049073,10|0,0:1|0:0,0:0:0:0:
104,40,14847,6,0,L|240:40,1,129.999994049073,2|0,3:2|3:0,0:0:0:0:
312,80,15147,2,0,L|152:80,1,129.999994049073,8|2,0:0|3:2,0:0:0:0:
256,128,15447,2,0,L|392:128,1,129.999994049073,0|0,3:0|3:0,0:0:0:0:
320,192,15747,6,0,L|176:192,1,129.999994049073,10|0,0:0|0:0,0:0:0:0:
256,240,16047,1,0,3:0:0:0:
322,240,16147,1,0,0:0:0:0:
384,240,16247,1,2,0:0:0:0:
320,304,16347,6,0,L|176:304,1,129.999994049073,8|0,0:0|0:0,0:0:0:0:
128,352,16647,2,0,P|92:294|152:272,1,129.999994049073,2|0,3:1|3:0,0:0:0:0:
320,192,16947,2,0,P|357:136|304:104,1,129.999994049073,10|0,0:1|3:0,0:0:0:0:
80,72,17247,2,0,L|80:216,1,129.999994049073,6|0,3:2|3:0,0:0:0:0:
160,200,17547,2,0,L|296:200,1,129.999994049073,8|2,0:0|3:2,0:0:0:0:
224,136,17847,2,0,L|160:136,2,64.9999970245363,0|0|0,3:0|0:0|3:0,0:0:0:0:
288,136,18147,6,0,L|432:136,1,129.999994049073,10|0,0:0|0:0,0:0:0:0:
488,192,18447,1,0,3:0:0:0:
423,192,18547,1,0,0:0:0:0:
358,192,18647,1,2,3:2:0:0:
424,232,18747,2,0,L|280:232,1,129.999994049073,8|0,0:0|0:0,0:0:0:0:
360,296,19047,2,0,L|432:296,2,64.9999970245363,2|0|0,3:1|3:0|0:0,0:0:0:0:
184,296,19347,2,0,L|112:296,2,64.9999970245363,10|8|8,0:1|0:1|0:1,0:0:0:0:
464,272,19647,5,0,3:2:0:0:
464,144,19947,1,0,3:0:0:0:
256,280,20247,1,0,3:0:0:0:
256,144,20547,1,0,3:0:0:0:
112,40,20847,6,0,B|112:192|112:192|112:304,1,250,2|0,0:0|0:0,0:0:0:0:
40,40,21447,2,0,B|40:192|40:192|40:272,1,200,2|0,0:0|0:0,0:0:0:0:
112,112,21947,1,0,3:0:0:0:
352,240,22047,6,0,L|496:240,1,129.999994049073,6|0,3:2|3:0,0:0:0:0:
416,320,22347,1,10,0:0:0:0:
351,320,22447,1,0,0:0:0:0:
286,320,22547,1,2,0:0:0:0:
352,272,22647,2,0,L|424:272,2,64.9999970245363,2|0|2,3:2|0:0|0:0,0:0:0:0:
288,272,22947,2,0,L|224:272,2,64.9999970245363,10|0|0,3:2|0:0|0:0,0:0:0:0:
464,64,23247,6,0,L|464:208,1,129.999994049073,2|0,3:2|3:0,0:0:0:0:
384,240,23547,2,0,L|240:240,1,129.999994049073,10|0,0:0|0:0,0:0:0:0:
320,288,23847,1,2,3:1:0:0:
385,288,23947,1,0,0:0:0:0:
450,288,24047,1,0,3:0:0:0:
384,344,24147,1,10,3:1:0:0:
319,344,24247,1,0,0:0:0:0:
254,344,24347,1,0,3:0:0:0:
48,96,24447,6,0,L|48:240,1,129.999994049073,6|0,3:2|3:0,0:0:0:0:
128,240,24747,1,10,0:2:0:0:
193,240,24847,1,0,0:0:0:0:
258,240,24947,1,2,0:2:0:0:
192,288,25047,2,0,L|120:288,2,64.9999970245363,2|0|2,3:2|0:0|0:0,0:0:0:0:
360,288,25347,2,0,L|432:288,2,64.9999970245363,10|0|2,0:0|0:0|0:2,0:0:0:0:
192,192,25647,6,0,L|56:192,1,129.999994049073,2|0,3:2|0:0,0:0:0:0:
128,128,25947,2,0,L|296:128,1,129.999994049073,10|0,0:0|0:0,0:0:0:0:
192,72,26247,2,0,L|128:72,2,64.9999970245363,2|0|0,3:1|0:0|3:0,0:0:0:0:
352,72,26547,2,0,L|416:72,2,64.9999970245363,10|0|0,0:1|0:0|0:0,0:0:0:0:
136,40,26847,6,0,L|104:40,1,25,2|0,3:2|0:0,0:0:0:0:
376,40,27347,2,0,L|408:40,1,25,2|0,3:2|0:0,0:0:0:0:
96,112,27747,2,0,L|128:112,1,25,2|0,3:2|0:0,0:0:0:0:
408,112,28247,2,0,L|384:112,1,25,2|0,3:2|0:0,0:0:0:0:
120,192,28647,2,0,L|88:192,1,25,2|0,3:2|0:0,0:0:0:0:
272,192,28947,2,0,L|224:192,1,25,2|0,3:2|0:0,0:0:0:0:
408,192,29247,6,0,L|383:192,1,25,2|0,3:2|0:0,0:0:0:0:
112,232,29747,2,0,L|137:232,1,25,2|0,3:2|0:0,0:0:0:0:
384,240,30147,2,0,L|409:240,1,25,2|0,3:2|0:0,0:0:0:0:
112,280,30647,2,0,L|87:280,1,25,2|0,3:2|0:0,0:0:0:0:
264,216,31047,2,0,L|239:216,1,25,2|0,3:2|0:0,0:0:0:0:
416,280,31347,2,0,L|391:280,1,25,2|0,3:2|0:0,0:0:0:0:
176,192,31647,5,2,3:2:0:0:
256,192,34947,12,0,35847,0:0:0:0:
318,64,36447,6,0,L|150:64,1,129.999994049073,6|0,3:2|0:0,0:0:0:0:
254,128,36747,2,0,L|334:128,1,64.9999970245363,10|0,0:0|0:0,0:0:0:0:
254,128,36947,1,2,0:0:0:0:
190,128,37047,2,0,L|262:128,1,64.9999970245363,2|0,3:2|0:0,0:0:0:0:
319,128,37247,1,2,0:0:0:0:
254,192,37347,1,10,0:0:0:0:
191,192,37447,1,0,0:0:0:0:
254,192,37547,1,2,0:0:0:0:
464,64,37647,6,0,L|464:200,1,129.999994049073,2|0,3:2|3:0,0:0:0:0:
384,192,37947,2,0,L|240:192,1,129.999994049073,10|0,0:0|0:0,0:0:0:0:
320,248,38247,2,0,L|392:248,2,64.9999970245363,2|0|2,3:2|0:0|3:2,0:0:0:0:
256,312,38547,1,8,0:0:0:0:
321,312,38647,1,0,0:0:0:0:
386,312,38747,1,0,3:0:0:0:
176,56,38847,6,0,L|46:56,1,129.999994049073,6|2,3:2|0:0,0:0:0:0:
112,120,39147,2,0,L|272:120,1,129.999994049073,8|2,0:0|0:0,0:0:0:0:
176,192,39447,2,0,L|96:192,2,64.9999970245363,2|0|2,3:2|0:0|0:0,0:0:0:0:
240,272,39747,2,0,L|88:272,1,129.999994049073,8|0,0:0|0:0,0:0:0:0:
320,192,40047,6,0,L|456:192,1,129.999994049073,2|0,3:2|0:0,0:0:0:0:
384,128,40347,2,0,L|216:128,1,129.999994049073,10|0,0:0|0:0,0:0:0:0:
320,72,40647,2,0,L|384:72,2,64.9999970245363,2|0|0,3:1|0:0|3:0,0:0:0:0:
160,72,40947,2,0,L|96:72,2,64.9999970245363,10|0|0,0:1|0:0|0:0,0:0:0:0:
376,32,41247,6,0,L|424:32,1,25,2|0,3:2|0:0,0:0:0:0:
136,32,41747,2,0,L|88:32,1,25,2|0,3:2|0:0,0:0:0:0:
400,88,42147,2,0,L|375:88,1,25,2|0,3:2|0:0,0:0:0:0:
112,88,42647,2,0,L|137:88,1,25,2|0,3:2|0:0,0:0:0:0:
400,192,43047,2,0,L|425:192,1,25,2|0,3:2|0:0,0:0:0:0:
240,192,43347,2,0,L|265:192,1,25,2|0,3:2|0:0,0:0:0:0:
87,192,43647,6,0,L|112:192,1,25,2|0,3:2|0:0,0:0:0:0:
400,120,44147,2,0,L|425:120,1,25,2|0,3:2|0:0,0:0:0:0:
112,120,44547,2,0,L|87:120,1,25,2|0,3:2|0:0,0:0:0:0:
399,272,45047,2,0,L|424:272,1,25,2|0,3:2|0:0,0:0:0:0:
240,240,45447,2,0,L|265:240,1,25,2|0,3:2|0:0,0:0:0:0:
88,272,45747,2,0,L|113:272,1,25,2|0,3:2|0:0,0:0:0:0:
328,192,46047,5,6,3:2:0:0:
144,96,46647,2,0,P|64:120|160:248,1,300
384,192,48147,5,0,0:0:0:0:
256,192,48447,1,0,0:0:0:0:
128,192,48747,1,0,0:0:0:0:
424,64,49347,5,0,0:0:0:0:
256,64,49647,1,0,0:0:0:0:
88,64,49947,1,0,0:0:0:0:
448,192,50847,1,0,0:0:0:0:
256,192,51447,6,0,P|208:232|272:280,1,150
440,192,52047,2,0,P|488:232|424:280,1,150
64,112,52947,1,0,0:0:0:0:
256,40,53247,6,0,P|336:112|240:184,1,250,2|0,3:2|0:0,0:0:0:0:
176,184,53847,2,0,P|112:208|208:320,1,250,2|0,3:2|0:0,0:0:0:0:
256,64,54447,2,0,P|416:80|240:264,1,550,2|0,3:2|0:0,0:0:0:0:
32,192,55647,5,2,3:2:0:0:
32,80,55947,1,2,3:2:0:0:
256,192,56247,1,2,3:2:0:0:
256,80,56547,1,2,3:2:0:0:
480,192,56847,5,2,3:2:0:0:
256,304,57447,2,0,B|256:224|256:224|255:305,1,150.000005722046
88,24,57947,6,0,P|24:72|112:136,1,194.999991073609,4|4,3:2|3:0,0:0:0:0:
256,144,58347,2,0,L|408:144,1,129.999994049073,10|0,0:0|0:0,0:0:0:0:
320,192,58647,1,2,3:2:0:0:
255,192,58747,1,0,0:0:0:0:
190,192,58847,1,0,0:0:0:0:
256,272,58947,2,0,L|400:272,1,129.999994049073,10|0,0:0|0:0,0:0:0:0:
192,336,59247,5,2,3:2:0:0:
112,320,59347,2,0,L|104:256,1,64.9999970245363,0|0,0:0|3:0,0:0:0:0:
320,336,59547,1,10,0:0:0:0:
400,320,59647,2,0,L|408:256,1,64.9999970245363,0|2,0:0|0:0,0:0:0:0:
192,88,59847,1,2,3:2:0:0:
131,106,59947,1,0,0:0:0:0:
106,164,60047,1,2,3:2:0:0:
133,221,60147,1,8,0:0:0:0:
193,238,60247,1,0,0:0:0:0:
416,96,60347,6,0,P|480:128|408:192,1,194.999991073609,4|0,0:0|0:0,0:0:0:0:
256,144,60747,2,0,L|104:144,1,129.999994049073,10|0,0:0|0:0,0:0:0:0:
192,192,61047,1,2,3:2:0:0:
257,192,61147,1,0,0:0:0:0:
322,192,61247,1,0,0:0:0:0:
256,272,61347,2,0,L|112:272,1,129.999994049073,10|0,0:0|0:0,0:0:0:0:
320,336,61647,5,2,3:2:0:0:
400,320,61747,2,0,L|408:256,1,64.9999970245363,0|0,0:0|3:0,0:0:0:0:
192,336,61947,1,10,0:0:0:0:
112,320,62047,2,0,L|104:256,1,64.9999970245363,0|2,0:0|0:0,0:0:0:0:
320,40,62247,1,0,3:2:0:0:
384,40,62347,1,0,0:0:0:0:
429,84,62447,1,2,3:2:0:0:
430,148,62547,1,8,0:0:0:0:
386,194,62647,1,8,0:0:0:0:
323,196,62747,1,8,0:0:0:0:
160,192,62847,6,0,L|24:192,1,129.999994049073,6|0,3:2|3:0,0:0:0:0:
96,256,63147,2,0,L|256:256,1,129.999994049073,10|0,0:0|0:0,0:0:0:0:
144,312,63447,2,0,L|80:312,2,64.9999970245363,2|0|0,3:2|0:0|3:0,0:0:0:0:
320,344,63747,1,10,0:0:0:0:
255,344,63847,1,0,0:0:0:0:
190,344,63947,1,0,0:0:0:0:
352,192,64047,6,0,L|488:192,1,129.999994049073,2|0,3:2|3:0,0:0:0:0:
416,256,64347,2,0,L|256:256,1,129.999994049073,10|0,0:0|0:0,0:0:0:0:
368,72,64647,2,0,L|432:72,2,64.9999970245363,2|0|0,3:2|0:0|3:0,0:0:0:0:
144,128,64947,1,8,0:0:0:0:
79,128,65047,1,10,0:0:0:0:
144,128,65147,1,8,0:0:0:0:
408,40,65247,6,0,L|440:40,1,25,2|0,3:2|0:0,0:0:0:0:
240,48,65847,2,0,L|280:48,1,25,2|0,3:2|0:0,0:0:0:0:
71,40,66447,2,0,L|104:40,1,25,2|0,3:2|0:0,0:0:0:0:
440,112,66947,2,0,L|416:112,1,25
216,192,67247,6,0,L|136:192,1,64.9999970245363,0|0,3:0|3:0,0:0:0:0:
416,192,67547,2,0,P|483:247|384:280,1,194.999991073609,6|0,3:2|3:0,0:0:0:0:
184,304,67947,2,0,L|32:304,1,129.999994049073,10|0,0:0|0:0,0:0:0:0:
120,264,68247,1,2,3:2:0:0:
185,264,68347,1,0,0:0:0:0:
250,264,68447,1,0,0:0:0:0:
184,216,68547,2,0,L|48:216,1,129.999994049073,10|0,0:0|0:0,0:0:0:0:
280,80,68847,6,0,L|376:80,2,64.9999970245363,2|0|2,3:2|0:0|3:2,0:0:0:0:
104,80,69147,2,0,L|24:80,2,64.9999970245363,10|0|2,0:0|0:0|3:2,0:0:0:0:
280,280,69447,2,0,L|448:280,1,129.999994049073,0|0,0:0|3:0,0:0:0:0:
352,240,69747,1,8,0:0:0:0:
280,240,69847,1,0,0:0:0:0:
104,128,69947,6,0,P|35:171|128:208,1,194.999991073609,6|0,3:2|3:0,0:0:0:0:
312,96,70347,2,0,L|456:96,1,129.999994049073,10|0,0:0|0:0,0:0:0:0:
376,48,70647,2,0,L|304:48,2,64.9999970245363,2|0|0,3:2|0:0|0:0,0:0:0:0:
440,48,70947,2,0,L|504:48,2,64.9999970245363,8|0|0,0:0|0:0|0:0,0:0:0:0:
192,192,71247,5,2,3:1:0:0:
112,176,71347,2,0,L|104:112,1,64.9999970245363,0|2,0:0|3:1,0:0:0:0:
320,192,71547,1,8,0:0:0:0:
400,176,71647,2,0,L|408:112,1,64.9999970245363,2|0,0:1|0:0,0:0:0:0:
152,240,71847,2,0,L|88:240,2,64.9999970245363,2|0|0,3:1|0:0|3:0,0:0:0:0:
360,240,72147,2,0,L|424:240,2,64.9999970245363,8|8|8,0:0|0:0|0:0,0:0:0:0:
176,104,72447,6,0,L|128:104,1,32.4999985122681,6|0,3:2|0:0,0:0:0:0:
336,104,72747,1,2,0:0:0:0:
144,192,73047,2,0,L|200:192,1,32.4999985122681,2|0,3:2|0:0,0:0:0:0:
336,192,73347,1,2,0:0:0:0:
144,264,73547,1,0,0:0:0:0:
336,48,73647,6,0,L|368:48,1,32.4999985122681,2|0,3:2|0:0,0:0:0:0:
144,344,73947,1,2,0:0:0:0:
336,128,74247,2,0,L|304:128,1,32.4999985122681,2|0,3:2|0:0,0:0:0:0:
144,56,74547,1,2,0:0:0:0:
336,240,74747,5,0,0:0:0:0:
144,248,74847,2,0,L|96:248,1,32.4999985122681,0|0,3:2|0:0,0:0:0:0:
336,328,75147,1,2,0:0:0:0:
112,320,75447,2,0,L|152:320,1,32.4999985122681,2|0,3:2|0:0,0:0:0:0:
328,88,75747,1,2,0:0:0:0:
176,88,75947,1,0,0:0:0:0:
344,160,76047,6,0,L|488:160,1,129.999994049073,2|0,3:2|0:0,0:0:0:0:
472,232,76347,2,0,L|304:232,1,129.999994049073,2|0,3:2|0:0,0:0:0:0:
160,32,76647,1,2,3:2:0:0:
296,96,76847,2,0,L|224:96,1,64.9999970245363,0|10,3:0|0:0,0:0:0:0:
96,96,77147,1,8,0:0:0:0:
352,40,77247,6,0,P|448:64|392:160,1,194.999991073609,6|8,3:2|0:0,0:0:0:0:
352,152,77647,1,0,0:0:0:0:
184,216,77747,2,0,L|54:216,1,129.999994049073,2|0,3:2|0:0,0:0:0:0:
16,272,78047,1,0,3:0:0:0:
56,328,78147,2,0,L|208:328,1,129.999994049073,8|0,0:0|0:0,0:0:0:0:
400,288,78447,6,0,L|472:288,2,64.9999970245363,2|0|0,3:2|0:0|3:0,0:0:0:0:
184,240,78747,2,0,L|48:240,1,129.999994049073,8|0,0:0|0:0,0:0:0:0:
120,192,79047,2,0,L|256:192,1,129.999994049073,2|0,3:1|0:0,0:0:0:0:
440,120,79347,2,0,L|440:256,1,129.999994049073,10|0,0:1|0:0,0:0:0:0:
192,80,79647,6,0,L|56:80,1,129.999994049073,2|0,3:2|3:0,0:0:0:0:
128,40,79947,2,0,L|280:40,1,129.999994049073,8|0,0:0|3:0,0:0:0:0:
192,144,80247,2,0,L|120:144,2,64.9999970245363,0|0|0,3:0|0:0|0:0,0:0:0:0:
352,256,80547,6,0,L|496:256,1,129.999994049073,2|0,0:1|0:0,0:0:0:0:
424,304,80847,1,0,3:0:0:0:
352,304,80947,1,0,0:0:0:0:
144,192,81047,2,0,P|80:240|160:296,1,194.999991073609,2|0,0:0|0:0,0:0:0:0:
352,160,81447,2,0,L|488:160,1,129.999994049073,2|0,3:1|0:0,0:0:0:0:
416,104,81747,2,0,L|272:104,1,129.999994049073,10|0,0:1|0:0,0:0:0:0:
96,320,82047,5,2,3:2:0:0:
416,320,82547,1,2,3:2:0:0:
160,192,82947,1,2,3:2:0:0:
352,192,83447,1,2,3:2:0:0:
96,64,83847,1,2,3:2:0:0:
416,64,84447,5,2,3:2:0:0:
160,264,84947,1,2,3:2:0:0:
352,264,85347,1,2,3:2:0:0:
96,144,85847,1,2,3:2:0:0:
416,144,86247,1,2,0:0:0:0:
200,256,86547,1,0,0:0:0:0:
416,336,86847,5,2,3:2:0:0:
96,32,87347,1,2,3:2:0:0:
416,32,87747,1,2,3:1:0:0:
