osu file format v14

[General]
AudioFilename: audio.mp3
AudioLeadIn: 0
PreviewTime: 36447
Countdown: 0
SampleSet: Soft
StackLeniency: 0.7
Mode: 2
LetterboxInBreaks: 0
WidescreenStoryboard: 1

[Editor]
Bookmarks: 2747,7647,12447,19647,22047,26847,31647,36447,39547,41247,46047,55647,57947,77247,79647,82047,88047
DistanceSpacing: 0.4
BeatDivisor: 3
GridSize: 8
TimelineZoom: 2.999999

[Metadata]
Title:VORACITY (TV Size)
TitleUnicode:VORACITY (TV Size)
Artist:MYTH & ROID
ArtistUnicode:MYTH & ROID
Creator:Emiru
Version:OVERDOSE
Source:オーバーロードⅢ
Tags:overlord 3 iii japanese anime opening op theme song chickenbible idust idu5t dust du5t Secre Natsuko Jemzuu AJamez jrock Rock J-Rock Pop J-Pop KIHOW Tom-H@ck hotaru bite you death byd
BeatmapID:2104621
BeatmapSetID:1005619

[Difficulty]
HPDrainRate:5
CircleSize:4.1
OverallDifficulty:9.4
ApproachRate:9.4
SliderMultiplier:2
SliderTickRate:1

[Events]
//Background and Video events
0,0,"Cocytus.jpg",0,0
//Break Periods
//Storyboard Layer 0 (Background)
//Storyboard Layer 1 (Fail)
//Storyboard Layer 2 (Pass)
//Storyboard Layer 3 (Foreground)
//Storyboard Layer 4 (Overlay)
//Storyboard Sound Samples

[TimingPoints]
447,300,4,2,11,30,1,0
447,-100,4,2,11,30,0,0
747,-100,4,2,11,35,0,0
1047,-100,4,2,11,40,0,0
1347,-100,4,2,11,45,0,0
1647,-100,4,2,11,50,0,0
1947,-100,4,2,11,55,0,0
2247,-100,4,2,11,60,0,0
2747,-100,4,2,11,60,0,0
3947,-166.666666666667,4,2,11,5,0,0
4047,-100,4,2,11,60,0,0
4547,-76.9230769230769,4,2,11,60,0,0
4747,-100,4,2,11,5,0,0
4847,-71.4285714285714,4,2,11,60,0,0
5047,-100,4,2,11,5,0,0
5147,-83.3333333333333,4,2,11,60,0,0
6347,-166.666666666667,4,2,11,5,0,0
6447,-76.9230769230769,4,2,11,60,0,0
7147,-100,4,2,11,5,0,0
7247,-76.9230769230769,4,2,11,60,0,0
7547,-100,4,2,11,5,0,0
7647,-125,4,2,11,60,0,0
8847,-66.6666666666667,4,2,11,60,0,0
9947,-200,4,2,11,25,0,0
10047,-76.9230769230769,4,2,11,60,0,0
10247,-100,4,2,11,5,0,0
10347,-76.9230769230769,4,2,11,60,0,0
10547,-200,4,2,11,5,0,0
10647,-76.9230769230769,4,2,11,60,0,0
10847,-200,4,2,11,5,0,0
10947,-76.9230769230769,4,2,11,60,0,0
11147,-200,4,2,11,5,0,0
11247,-76.9230769230769,4,2,11,60,0,0
12447,-76.9230769230769,4,2,11,70,0,0
14247,-55.5555555555556,4,2,11,70,0,0
14847,-76.9230769230769,4,2,11,70,0,0
16647,-55.5555555555556,4,2,11,70,0,0
17247,-76.9230769230769,4,2,11,70,0,0
19047,-76.9230769230769,4,2,11,70,0,0
19647,-66.6666666666667,4,2,11,70,0,0
19947,-66.6666666666667,4,2,11,30,0,0
20847,-76.9230769230769,4,2,11,50,0,0
21347,-200,4,2,11,5,0,0
21447,-100,4,2,11,40,0,0
21847,-250,4,2,11,5,0,0
21947,-250,4,2,11,60,0,0
22047,-83.3333333333333,4,2,11,60,0,0
34797,-76.9230769230769,4,2,11,60,0,0
36447,-76.9230769230769,4,2,11,60,0,0
46047,-166.666666666667,4,2,11,40,0,0
46647,-125,4,2,11,40,0,0
53247,-83.3333333333333,4,2,11,40,0,0
53847,-83.3333333333333,4,2,11,50,0,0
54447,-83.3333333333333,4,2,11,60,0,0
55647,-66.6666666666667,4,2,11,60,0,0
57947,-76.9230769230769,4,2,11,60,0,1
60372,-76.9230769230769,4,2,11,60,0,1
60597,-76.9230769230769,4,2,11,60,0,1
65247,-76.9230769230769,4,2,11,60,0,0
65447,-76.9230769230769,4,2,11,5,0,0
65547,-76.9230769230769,4,2,11,60,0,0
65747,-76.9230769230769,4,2,11,5,0,0
65847,-76.9230769230769,4,2,11,60,0,0
66047,-76.9230769230769,4,2,11,5,0,0
66147,-76.9230769230769,4,2,11,60,0,0
66347,-200,4,2,11,5,0,0
66447,-76.9230769230769,4,2,11,60,0,0
66747,-100,4,2,11,60,0,0
67147,-100,4,2,11,60,0,0
67547,-62.5,4,2,11,60,0,1
67947,-76.9230769230769,4,2,11,60,0,1
71247,-76.9230769230769,4,2,11,60,0,1
72447,-83.3333333333333,4,2,11,60,0,0
72747,-83.3333333333333,4,2,11,60,0,0
73047,-83.3333333333333,4,2,11,60,0,0
73347,-83.3333333333333,4,2,11,60,0,0
73647,-83.3333333333333,4,2,11,60,0,0
73947,-83.3333333333333,4,2,11,60,0,0
74247,-83.3333333333333,4,2,11,60,0,0
74547,-83.3333333333333,4,2,11,60,0,0
74847,-83.3333333333333,4,2,11,60,0,0
75147,-83.3333333333333,4,2,11,60,0,0
75447,-83.3333333333333,4,2,11,60,0,0
75747,-83.3333333333333,4,2,11,60,0,0
76047,-83.3333333333333,4,2,11,60,0,0
77247,-83.3333333333333,4,2,11,60,0,0
78447,-76.9230769230769,4,2,11,60,0,0
79047,-76.9230769230769,4,2,11,60,0,0
79647,-83.3333333333333,4,2,11,60,0,0
80847,-76.9230769230769,4,2,11,60,0,0
81447,-76.9230769230769,4,2,11,60,0,0
82047,-100,4,2,11,60,0,0

[Colours]
Combo1 : 193,132,255
Combo2 : 255,255,128
Combo3 : 128,128,255
Combo4 : 55,97,166
Combo5 : 255,176,98

[HitObjects]
256,192,447,12,2,2247,1:2:0:0:
80,48,2747,6,0,P|120:280|416:32,1,800,6|0,3:2|0:0,0:0:0:0:
320,40,4047,2,0,P|248:64|336:176,1,266.666666666667,6|0,3:2|0:0,0:0:0:0:
416,192,4547,6,0,B|504:192|504:192|400:192,1,173.333325398763,2|0,0:0|0:0,0:0:0:0:
224,256,4847,2,0,B|128:255|128:255|240:256,1,186.666660970052,2|0,0:0|0:0,0:0:0:0:
488,32,5147,6,0,P|496:192|32:32,1,959.999970703126,6|0,3:2|0:0,0:0:0:0:
256,32,6447,6,0,B|344:32|344:32|240:32,1,173.333325398763,6|2,3:2|0:0,0:0:0:0:
80,32,6747,1,0,0:0:0:0:
256,112,6947,2,0,B|344:112|344:112|240:112,1,173.333325398763,2|0,0:0|0:0,0:0:0:0:
160,112,7247,2,0,P|88:184|192:272,1,259.999988098145,2|0,0:0|0:0,0:0:0:0:
384,192,7647,5,4,3:2:0:0:
192,280,8847,5,6,3:2:0:0:
143,271,8897,1,0,0:0:0:0:
109,236,8947,1,0,0:0:0:0:
103,187,8997,1,0,0:0:0:0:
127,144,9047,1,0,0:0:0:0:
172,124,9097,1,0,0:0:0:0:
320,280,9147,5,2,0:0:0:0:
369,271,9197,1,0,0:0:0:0:
403,236,9247,1,0,0:0:0:0:
409,187,9297,1,0,0:0:0:0:
385,144,9347,1,0,0:0:0:0:
340,124,9397,1,0,0:0:0:0:
192,280,9447,5,2,0:0:0:0:
144,271,9497,1,0,0:0:0:0:
110,236,9547,1,0,0:0:0:0:
104,187,9597,1,0,0:0:0:0:
127,144,9647,1,0,0:0:0:0:
173,124,9697,1,0,0:0:0:0:
336,72,9747,6,0,L|408:72,2,50.0000019073487,2|0|0,0:0|0:0|0:0,0:0:0:0:
232,72,9947,1,0,0:0:0:0:
64,56,10047,6,0,P|104:144|192:168,1,173.333325398763,4|0,3:2|0:0,0:0:0:0:
256,168,10347,2,0,L|256:344,1,173.333325398763,2|0,0:0|0:0,0:0:0:0:
340,169,10647,2,0,P|417:134|448:56,1,173.333325398763,2|0,0:0|0:0,0:0:0:0:
344,40,10947,2,0,L|152:40,1,173.333325398763,2|0,0:0|0:0,0:0:0:0:
416,192,11247,6,0,L|512:192,2,86.6666626993817,6|0|0,3:2|0:0|0:0,0:0:0:0:
176,56,11547,1,6,3:2:0:0:
256,56,11647,1,0,0:0:0:0:
336,56,11747,1,0,0:0:0:0:
96,192,11847,6,0,L|8:192,2,86.6666626993817,6|0|0,3:2|0:0|0:0,0:0:0:0:
336,136,12147,1,10,3:2:0:0:
256,136,12247,1,0,0:0:0:0:
176,136,12347,1,0,0:0:0:0:
384,256,12447,6,0,P|464:200|440:128,1,173.333325398763,6|0,3:2|0:0,0:0:0:0:
256,48,12747,2,0,L|160:48,1,86.6666626993817,8|0,0:0|0:0,0:0:0:0:
256,112,12947,2,0,L|384:112,1,86.6666626993817,0|0,0:0|3:0,0:0:0:0:
176,192,13147,2,0,L|64:192,1,86.6666626993817
344,192,13347,2,0,L|456:192,2,86.6666626993817,8|0|0,0:0|0:0|0:0,0:0:0:0:
256,56,13647,6,0,L|64:56,1,173.333325398763,0|0,3:0|0:0,0:0:0:0:
83,56,13947,2,0,L|275:56,1,173.333325398763,8|0,0:0|0:0,0:0:0:0:
416,48,14247,1,2,3:1:0:0:
496,96,14347,2,0,L|480:224,1,119.999996337891
256,32,14547,1,10,0:1:0:0:
336,80,14647,2,0,L|320:208,1,119.999996337891
128,256,14847,6,0,P|48:200|72:128,1,173.333325398763,2|0,3:2|3:0,0:0:0:0:
256,48,15147,2,0,L|352:48,1,86.6666626993817,8|0,0:0|0:0,0:0:0:0:
256,112,15347,2,0,L|128:112,1,86.6666626993817,2|0,3:2|3:0,0:0:0:0:
336,192,15547,2,0,L|448:192,1,86.6666626993817,0|0,0:0|3:0,0:0:0:0:
168,192,15747,6,0,L|56:192,2,86.6666626993817,10|0|0,0:0|0:0|0:0,0:0:0:0:
256,56,16047,2,0,L|448:56,1,173.333325398763,0|2,3:0|0:0,0:0:0:0:
429,56,16347,2,0,L|237:56,1,173.333325398763,8|0,0:0|0:0,0:0:0:0:
96,48,16647,1,2,3:1:0:0:
16,96,16747,2,0,L|32:224,1,119.999996337891,0|0,0:0|3:0,0:0:0:0:
256,32,16947,1,10,0:1:0:0:
176,80,17047,2,0,L|192:208,1,119.999996337891,0|0,0:0|3:0,0:0:0:0:
416,48,17247,6,0,L|208:48,1,173.333325398763,6|0,3:2|3:0,0:0:0:0:
416,144,17547,2,0,L|512:144,2,86.6666626993817,8|0|2,0:0|0:0|3:2,0:0:0:0:
160,288,17847,1,0,3:0:0:0:
247,288,17947,1,0,0:0:0:0:
334,288,18047,1,0,3:0:0:0:
96,144,18147,2,0,L|0:144,2,86.6666626993817,10|0|0,0:0|0:0|0:0,0:0:0:0:
256,40,18447,6,0,L|430:40,1,173.333325398763,0|2,3:0|3:2,0:0:0:0:
352,104,18747,2,0,L|160:104,1,173.333325398763,8|0,0:0|0:0,0:0:0:0:
352,272,19047,2,0,L|439:272,2,86.6666626993817,2|0|0,3:1|3:0|3:0,0:0:0:0:
184,272,19347,2,0,L|97:272,2,86.6666626993817,10|8|8,0:1|0:0|0:0,0:0:0:0:
512,48,19647,5,0,3:2:0:0:
344,48,19947,1,0,3:0:0:0:
168,48,20247,1,0,3:0:0:0:
0,48,20547,1,0,3:0:0:0:
312,56,20847,6,0,P|448:128|272:280,1,433.333313496908,2|0,0:0|0:0,0:0:0:0:
400,288,21447,2,0,P|480:176|376:152,1,266.666666666667,2|0,0:0|0:0,0:0:0:0:
320,144,21947,1,0,3:0:0:0:
128,144,22047,6,0,P|88:224|152:232,1,159.999995117188,6|0,3:2|3:0,0:0:0:0:
296,232,22347,2,0,L|384:232,2,79.9999975585938,10|0|2,0:0|0:0|0:0,0:0:0:0:
216,232,22647,2,0,L|128:232,2,79.9999975585938,2|0|2,3:2|0:0|0:0,0:0:0:0:
400,40,22947,1,10,0:0:0:0:
480,40,23047,1,0,0:0:0:0:
440,96,23147,1,0,0:0:0:0:
144,272,23247,6,0,P|48:224|32:176,1,159.999995117188,2|0,3:2|3:0,0:0:0:0:
208,96,23547,2,0,L|384:96,1,159.999995117188,10|0,0:0|0:0,0:0:0:0:
288,160,23847,2,0,L|112:160,1,159.999995117188,2|0,3:1|3:0,0:0:0:0:
368,272,24147,2,0,P|464:224|480:176,1,159.999995117188,10|0,0:1|3:0,0:0:0:0:
304,96,24447,6,0,L|128:96,1,159.999995117188,6|0,3:2|3:0,0:0:0:0:
224,160,24747,2,0,L|400:160,1,159.999995117188,10|2,0:0|0:2,0:0:0:0:
112,40,25047,1,2,3:2:0:0:
32,40,25147,1,0,0:0:0:0:
72,96,25247,1,2,0:0:0:0:
256,256,25347,1,10,0:0:0:0:
336,256,25447,1,0,0:0:0:0:
256,224,25547,1,2,0:2:0:0:
416,192,25647,6,0,P|473:148|424:95,1,159.999995117188,2|0,3:2|0:0,0:0:0:0:
176,48,25947,2,0,L|344:48,1,159.999995117188,10|0,0:0|0:0,0:0:0:0:
96,192,26247,2,0,P|40:148|89:95,1,159.999995117188,2|0,3:1|3:0,0:0:0:0:
256,128,26547,1,10,0:1:0:0:
448,48,26847,5,2,3:2:0:0:
376,48,26897,1,0,0:0:0:0:
216,160,27347,5,2,3:2:0:0:
288,160,27397,1,0,0:0:0:0:
448,112,27747,5,2,3:2:0:0:
376,112,27797,1,0,0:0:0:0:
216,240,28247,5,2,3:2:0:0:
288,240,28297,1,0,0:0:0:0:
448,320,28647,5,2,3:2:0:0:
376,320,28697,1,0,0:0:0:0:
216,152,28947,5,2,3:2:0:0:
288,152,28997,1,0,0:0:0:0:
136,320,29247,5,2,3:2:0:0:
64,320,29297,1,0,0:0:0:0:
216,224,29747,5,2,3:2:0:0:
288,224,29797,1,0,0:0:0:0:
136,248,30147,5,2,3:2:0:0:
64,248,30197,1,0,0:0:0:0:
216,128,30647,5,2,3:2:0:0:
288,128,30697,1,0,0:0:0:0:
448,136,31047,5,2,3:2:0:0:
376,136,31097,1,0,0:0:0:0:
216,224,31347,5,2,3:2:0:0:
288,224,31397,1,0,0:0:0:0:
448,224,31647,5,2,3:2:0:0:
256,192,31947,12,0,35847,0:0:0:0:
40,80,36447,6,0,P|72:176|152:192,1,173.333325398763,6|0,3:2|0:0,0:0:0:0:
312,192,36747,2,0,L|398:192,2,86.6666626993817,10|0|2,0:0|0:0|0:0,0:0:0:0:
128,264,37047,2,0,P|48:216|56:120,1,173.333325398763,2|2,3:2|0:0,0:0:0:0:
256,88,37347,2,0,L|342:88,2,86.6666626993817,10|0|2,0:0|0:0|0:0,0:0:0:0:
32,112,37647,6,0,L|32:296,1,173.333325398763,2|0,3:2|3:0,0:0:0:0:
104,288,37947,2,0,L|280:288,1,173.333325398763,10|0,0:0|0:0,0:0:0:0:
464,280,38247,2,0,L|464:72,1,173.333325398763,2|2,3:2|3:2,0:0:0:0:
392,88,38547,2,0,L|216:88,1,173.333325398763,8|0,0:0|3:0,0:0:0:0:
40,88,38847,6,0,L|40:261,1,173.333325398763,6|2,3:2|0:0,0:0:0:0:
304,144,39147,1,8,0:0:0:0:
397,188,39247,1,0,0:0:0:0:
440,264,39347,1,2,0:0:0:0:
208,144,39447,1,2,3:2:0:0:
115,188,39547,1,0,0:0:0:0:
72,264,39647,1,2,0:0:0:0:
304,144,39747,1,8,0:0:0:0:
397,188,39847,1,0,0:0:0:0:
440,264,39947,1,0,0:0:0:0:
256,48,40047,6,0,L|48:48,1,173.333325398763,2|0,3:2|0:0,0:0:0:0:
160,104,40347,2,0,L|334:104,1,173.333325398763,10|0,0:0|0:0,0:0:0:0:
160,192,40647,2,0,P|112:272|184:272,1,173.333325398763,2|0,3:1|3:0,0:0:0:0:
336,192,40947,1,10,0:1:0:0:
96,48,41247,5,2,3:2:0:0:
168,48,41297,1,0,0:0:0:0:
328,160,41747,5,2,3:2:0:0:
256,160,41797,1,0,0:0:0:0:
96,112,42147,5,2,3:2:0:0:
168,112,42197,1,0,0:0:0:0:
328,240,42647,5,2,3:2:0:0:
256,240,42697,1,0,0:0:0:0:
96,320,43047,5,2,3:2:0:0:
168,320,43097,1,0,0:0:0:0:
328,152,43347,5,2,3:2:0:0:
256,152,43397,1,0,0:0:0:0:
408,320,43647,5,2,3:2:0:0:
480,320,43697,1,0,0:0:0:0:
328,224,44147,5,2,3:2:0:0:
256,224,44197,1,0,0:0:0:0:
408,248,44547,5,2,3:2:0:0:
480,248,44597,1,0,0:0:0:0:
328,128,45047,5,2,3:2:0:0:
256,128,45097,1,0,0:0:0:0:
96,136,45447,5,2,3:2:0:0:
168,136,45497,1,0,0:0:0:0:
328,224,45747,5,2,3:2:0:0:
256,224,45797,1,0,0:0:0:0:
96,224,46047,5,6,3:2:0:0:
352,248,46647,6,0,P|472:163|400:36,1,320
48,48,48147,1,0,0:0:0:0:
232,80,48447,5,0,0:0:0:0:
24,224,48747,2,0,L|216:224,1,160
368,224,49347,1,0,0:0:0:0:
184,152,49647,1,0,0:0:0:0:
368,32,49947,2,0,P|416:72|360:136,1,160
80,264,50847,5,0,0:0:0:0:
432,264,51447,1,0,0:0:0:0:
144,272,52047,2,0,P|54:212|152:64,1,320
344,40,52947,1,0,0:0:0:0:
160,72,53247,6,0,L|72:72,2,79.9999975585938,2|0|0,3:2|0:0|0:0,0:0:0:0:
256,72,53547,2,0,L|344:72,2,79.9999975585938
160,152,53847,2,0,L|56:152,1,79.9999975585938,2|0,3:2|0:0,0:0:0:0:
80,224,54047,1,0,0:0:0:0:
352,312,54147,6,0,L|440:312,2,79.9999975585938
256,312,54447,2,0,L|168:312,2,79.9999975585938,2|0|0,3:2|0:0|0:0,0:0:0:0:
352,152,54747,2,0,L|456:152,1,79.9999975585938
432,224,54947,1,0,0:0:0:0:
160,72,55047,6,0,L|72:72,2,79.9999975585938
352,152,55347,2,0,P|408:224|344:240,1,179.999994506836
128,192,55647,5,2,3:2:0:0:
200,192,55697,1,0,0:0:0:0:
384,144,55947,5,2,3:2:0:0:
312,144,55997,1,0,0:0:0:0:
128,120,56247,5,2,3:2:0:0:
200,120,56297,1,0,0:0:0:0:
384,88,56547,5,2,3:2:0:0:
312,88,56597,1,0,0:0:0:0:
128,56,56847,5,2,3:2:0:0:
200,56,56897,1,0,0:0:0:0:
416,64,57947,2,0,P|496:120|384:208,1,259.999988098145,6|0,3:2|3:0,0:0:0:0:
328,136,58347,2,0,B|240:136|240:136|344:136,1,173.333325398763,10|0,0:0|0:0,0:0:0:0:
96,136,58647,2,0,P|40:168|104:232,1,173.333325398763,2|0,3:2|3:0,0:0:0:0:
184,232,58947,2,0,B|272:232|272:232|168:232,1,173.333325398763,10|0,0:0|0:0,0:0:0:0:
344,96,59247,6,0,L|440:96,2,86.6666626993817,2|0|0,3:2|0:0|3:0,0:0:0:0:
168,96,59547,2,0,L|72:96,2,86.6666626993817,10|0|2,0:0|0:0|0:0,0:0:0:0:
416,192,59847,2,0,L|416:288,1,86.6666626993817,2|0,3:2|0:0,0:0:0:0:
256,248,60047,1,2,3:2:0:0:
96,192,60147,2,0,L|96:304,1,86.6666626993817,8|0,0:0|0:0,0:0:0:0:
400,40,60347,6,0,P|480:104|376:192,1,259.999988098145,6|0,3:2|3:0,0:0:0:0:
155,39,60747,2,0,P|132:116|200:160,1,173.333325398763,10|0,0:0|0:0,0:0:0:0:
424,136,61047,2,0,P|408:240|336:272,1,173.333325398763,2|0,3:2|3:0,0:0:0:0:
88,136,61347,2,0,P|104:240|176:272,1,173.333325398763,10|0,0:0|0:0,0:0:0:0:
392,32,61647,5,2,3:2:0:0:
488,32,61747,2,0,L|488:144,1,86.6666626993817,0|0,0:0|3:0,0:0:0:0:
296,88,61947,2,0,L|192:88,2,86.6666626993817,10|0|2,0:0|0:0|0:0,0:0:0:0:
120,32,62247,5,0,3:2:0:0:
24,32,62347,2,0,L|24:144,1,86.6666626993817,0|2,0:0|3:2,0:0:0:0:
208,160,62547,2,0,L|304:160,2,86.6666626993817,8|8|8,0:0|0:0|0:0,0:0:0:0:
416,344,62847,2,0,P|472:288|408:232,1,173.333325398763,6|0,3:2|3:0,0:0:0:0:
144,336,63147,6,0,L|48:336,1,86.6666626993817,10|0,0:0|0:0,0:0:0:0:
58,336,63347,1,0,0:0:0:0:
336,192,63447,1,2,3:2:0:0:
256,192,63547,1,0,0:0:0:0:
176,192,63647,1,0,3:0:0:0:
400,344,63747,6,0,L|496:344,1,86.6666626993817,10|0,0:0|0:0,0:0:0:0:
400,304,63947,1,0,0:0:0:0:
136,112,64047,1,2,3:2:0:0:
216,112,64147,1,0,0:0:0:0:
296,112,64247,1,0,3:0:0:0:
136,32,64347,6,0,L|48:32,2,86.6666626993817,10|0|0,0:0|0:0|0:0,0:0:0:0:
312,280,64647,2,0,L|312:192,1,86.6666626993817,2|0,3:2|0:0,0:0:0:0:
216,192,64847,1,0,3:0:0:0:
400,192,64947,2,0,L|488:192,2,86.6666626993817,10|8|8,0:0|0:0|0:0,0:0:0:0:
55,249,65247,6,0,L|136:96,1,173.333325398763,2|0,3:2|0:0,0:0:0:0:
312,184,65547,2,0,L|144:264,1,173.333325398763,2|0,0:0|0:0,0:0:0:0:
457,249,65847,6,0,L|376:96,1,173.333325398763,2|0,3:2|0:0,0:0:0:0:
156,258,66147,2,0,L|328:176,1,173.333325398763,2|0,0:0|0:0,0:0:0:0:
104,32,66447,2,0,P|48:88|112:136,1,173.333325398763,2|0,3:2|0:0,0:0:0:0:
184,136,66747,1,2,0:0:0:0:
368,192,66947,5,0,0:0:0:0:
176,248,67247,1,0,3:0:0:0:
168,208,67347,1,0,3:0:0:0:
336,96,67547,6,0,P|416:112|320:256,1,320,6|0,3:2|3:0,0:0:0:0:
128,72,67947,2,0,P|88:160|152:176,1,173.333325398763,10|0,0:0|0:0,0:0:0:0:
336,184,68247,2,0,P|376:272|312:288,1,173.333325398763,2|0,3:2|3:0,0:0:0:0:
168,48,68547,2,0,L|328:144,1,173.333325398763,10|0,0:0|0:0,0:0:0:0:
88,72,68847,5,2,3:2:0:0:
88,128,68947,1,0,0:0:0:0:
168,128,69047,1,2,3:2:0:0:
328,104,69147,1,10,0:0:0:0:
424,104,69247,2,0,L|424:200,1,86.6666626993817,0|2,0:0|3:2,0:0:0:0:
184,104,69447,1,0,0:0:0:0:
88,104,69547,2,0,L|88:200,1,86.6666626993817,0|0,0:0|3:0,0:0:0:0:
328,32,69747,2,0,L|424:32,1,86.6666626993817,8|0,0:0|0:0,0:0:0:0:
120,176,69947,6,0,P|40:224|152:320,1,259.999988098145,6|0,3:2|3:0,0:0:0:0:
208,328,70347,2,0,B|296:328|296:328|192:328,1,173.333325398763,10|0,0:0|0:0,0:0:0:0:
384,160,70647,2,0,P|440:208|368:272,1,173.333325398763,2|0,3:2|3:0,0:0:0:0:
176,64,70947,2,0,L|352:136,1,173.333325398763,8|8,0:0|0:0,0:0:0:0:
168,192,71247,6,0,L|56:192,2,86.6666626993817,2|0|2,3:1|0:0|3:1,0:0:0:0:
344,120,71547,1,8,0:0:0:0:
256,120,71647,1,2,0:1:0:0:
168,120,71747,1,0,0:0:0:0:
344,336,71847,6,0,L|456:336,2,86.6666626993817,2|0|0,3:1|0:0|3:0,0:0:0:0:
168,264,72147,1,8,0:0:0:0:
256,264,72247,1,8,0:0:0:0:
344,264,72347,1,8,0:0:0:0:
176,40,72447,6,0,L|16:40,1,159.999995117188,6|0,3:2|0:0,0:0:0:0:
96,112,72747,2,0,L|272:112,1,159.999995117188,2|0,0:0|0:0,0:0:0:0:
336,72,73047,6,0,L|496:72,1,159.999995117188,2|0,3:2|0:0,0:0:0:0:
416,144,73347,2,0,L|240:144,1,159.999995117188,2|0,0:0|0:0,0:0:0:0:
88,136,73647,6,0,P|40:208|96:240,1,159.999995117188,2|0,3:2|0:0,0:0:0:0:
336,320,73947,2,0,L|176:320,1,159.999995117188,2|0,0:0|0:0,0:0:0:0:
424,136,74247,2,0,P|472:208|416:240,1,159.999995117188,2|0,3:2|0:0,0:0:0:0:
176,64,74547,2,0,L|336:64,1,159.999995117188,2|0,0:0|0:0,0:0:0:0:
144,136,74847,6,0,P|61:165|40:232,1,159.999995117188,0|0,3:2|0:0,0:0:0:0:
112,256,75147,2,0,L|272:256,1,159.999995117188,2|0,0:0|0:0,0:0:0:0:
368,136,75447,6,0,P|451:165|472:232,1,159.999995117188,2|0,3:2|0:0,0:0:0:0:
400,256,75747,2,0,L|240:256,1,159.999995117188,2|0,0:0|0:0,0:0:0:0:
32,184,76047,6,0,P|62:112|155:83,1,159.999995117188,2|0,3:2|0:0,0:0:0:0:
344,152,76347,2,0,L|160:152,1,159.999995117188,2|0,3:2|0:0,0:0:0:0:
480,184,76647,6,0,P|450:112|356:82,1,159.999995117188,2|0,3:2|3:0,0:0:0:0:
192,48,76947,2,0,L|112:48,2,79.9999975585938,10|8|8,0:0|0:0|0:0,0:0:0:0:
432,24,77247,6,0,P|480:80|400:120,1,159.999995117188,6|0,3:2|0:0,0:0:0:0:
232,136,77547,2,0,L|152:136,2,79.9999975585938,8|0|2,0:0|0:0|3:2,0:0:0:0:
392,192,77847,1,0,0:0:0:0:
472,192,77947,1,0,0:0:0:0:
392,192,78047,1,0,3:0:0:0:
176,288,78147,5,8,0:0:0:0:
256,288,78247,1,0,0:0:0:0:
336,288,78347,1,0,0:0:0:0:
80,128,78447,2,0,L|256:128,1,173.333325398763,2|0,3:2|3:0,0:0:0:0:
448,208,78747,2,0,L|272:208,1,173.333325398763,8|0,0:0|0:0,0:0:0:0:
112,80,79047,5,2,3:1:0:0:
32,128,79147,1,0,0:0:0:0:
112,128,79247,1,0,0:0:0:0:
352,120,79347,1,10,0:1:0:0:
432,120,79447,1,0,0:0:0:0:
352,120,79547,1,0,0:0:0:0:
80,24,79647,6,0,P|32:80|112:120,1,159.999995117188,2|0,3:2|3:0,0:0:0:0:
280,136,79947,2,0,L|360:136,2,79.9999975585938,8|0|0,0:0|0:0|3:0,0:0:0:0:
120,192,80247,1,0,3:0:0:0:
40,192,80347,1,0,0:0:0:0:
120,192,80447,1,0,0:0:0:0:
336,288,80547,5,10,0:1:0:0:
256,288,80647,1,0,0:0:0:0:
176,288,80747,1,0,0:0:0:0:
432,128,80847,2,0,L|256:128,1,173.333325398763,0|2,3:0|0:0,0:0:0:0:
80,208,81147,2,0,L|256:208,1,173.333325398763
480,56,81447,5,2,3:1:0:0:
424,120,81547,1,0,0:0:0:0:
328,120,81647,1,0,0:0:0:0:
32,56,81747,1,10,0:1:0:0:
88,120,81847,1,0,0:0:0:0:
184,120,81947,1,0,0:0:0:0:
480,32,82047,5,2,3:2:0:0:
96,96,82547,5,2,3:2:0:0:
416,96,82947,5,2,3:2:0:0:
96,192,83447,5,2,3:2:0:0:
416,192,83847,5,2,3:2:0:0:
32,320,84447,5,2,3:2:0:0:
416,224,84947,5,2,3:2:0:0:
96,224,85347,5,2,3:2:0:0:
416,112,85847,5,2,3:2:0:0:
112,32,86247,2,0,P|48:88|144:152,1,200,2|0,3:2|0:0,0:0:0:0:
392,192,86847,5,2,3:2:0:0:
320,192,86897,1,0,0:0:0:0:
120,192,87347,5,2,3:2:0:0:
192,192,87397,1,0,0:0:0:0:
392,96,87747,5,2,3:1:0:0:
320,96,87797,1,0,0:0:0:0:
