osu file format v14

[General]
AudioFilename: audio.mp3
AudioLeadIn: 0
PreviewTime: 56626
Countdown: 1
SampleSet: Normal
StackLeniency: 0.7
Mode: 1
LetterboxInBreaks: 0
WidescreenStoryboard: 1

[Editor]
DistanceSpacing: 2.7
BeatDivisor: 3
GridSize: 32
TimelineZoom: 2.4

[Metadata]
Title:VORACITY (TV Size)
TitleUnicode:VORACITY (TV Size)
Artist:MYTH & ROID
ArtistUnicode:MYTH & ROID
Creator:-Leafeon
Version:KANTAN
Source:オーバーロードⅢ
Tags:OVERLORD III 3 Opening OP
BeatmapID:1705967
BeatmapSetID:812912

[Difficulty]
HPDrainRate:6
CircleSize:5
OverallDifficulty:3
ApproachRate:5
SliderMultiplier:1.4
SliderTickRate:1

[Events]
//Background and Video events
0,0,"bg.jpg",0,0
//Break Periods
2,30526,33926
2,44926,53126
//Storyboard Layer 0 (Background)
//Storyboard Layer 1 (Fail)
//Storyboard Layer 2 (Pass)
//Storyboard Layer 3 (Foreground)
//Storyboard Sound Samples

[TimingPoints]
326,300,4,1,0,80,1,0
18426,-100,4,1,0,65,0,0
19326,-100,4,1,0,80,0,0
56626,-100,4,1,0,80,0,1
75926,-100,4,1,0,80,0,0

[HitObjects]
256,191,1426,5,4,0:0:0:0:
258,190,2726,1,4,0:0:0:0:
256,189,3826,1,4,0:0:0:0:
257,190,5126,1,4,0:0:0:0:
257,190,6326,1,4,0:0:0:0:
254,191,7526,1,12,0:0:0:0:
257,191,8726,1,4,0:0:0:0:
259,194,9926,1,0,0:0:0:0:
259,194,10226,1,0,0:0:0:0:
259,194,10526,1,8,0:0:0:0:
256,190,11126,1,0,0:0:0:0:
254,190,11726,1,8,0:0:0:0:
254,190,12026,1,0,0:0:0:0:
259,196,12626,1,8,0:0:0:0:
259,197,12926,1,0,0:0:0:0:
259,196,13526,1,0,0:0:0:0:
257,190,14126,1,8,0:0:0:0:
259,194,14426,1,0,0:0:0:0:
258,190,15026,1,8,0:0:0:0:
256,189,15926,1,4,0:0:0:0:
256,189,16826,1,8,0:0:0:0:
253,193,17126,1,0,0:0:0:0:
257,190,17426,1,8,0:0:0:0:
257,190,18326,5,4,0:0:0:0:
258,191,18626,1,8,0:0:0:0:
257,192,18926,1,8,0:0:0:0:
257,190,19226,1,8,0:0:0:0:
257,191,20726,1,4,0:0:0:0:
257,191,21626,1,8,0:0:0:0:
266,187,21926,1,0,0:0:0:0:
252,192,22526,1,8,0:0:0:0:
257,191,22826,1,8,0:0:0:0:
257,191,23126,1,4,0:0:0:0:
257,191,24026,1,0,0:0:0:0:
257,189,24326,1,0,0:0:0:0:
257,191,24926,1,8,0:0:0:0:
257,191,25526,1,4,0:0:0:0:
256,190,26426,1,4,0:0:0:0:
258,195,27326,1,4,0:0:0:0:
257,198,27626,1,4,0:0:0:0:
258,195,27926,1,12,0:0:0:0:
252,199,28826,1,12,0:0:0:0:
256,189,29726,1,4,0:0:0:0:
253,191,30026,1,4,0:0:0:0:
253,191,30326,1,12,0:0:0:0:
257,191,35126,5,4,0:0:0:0:
257,191,36026,1,8,0:0:0:0:
266,187,36326,1,8,0:0:0:0:
252,192,36926,1,8,0:0:0:0:
257,191,37226,1,8,0:0:0:0:
257,191,37526,1,4,0:0:0:0:
257,191,38426,1,0,0:0:0:0:
257,189,38726,1,0,0:0:0:0:
257,191,39026,1,0,0:0:0:0:
257,191,39326,1,8,0:0:0:0:
257,191,39926,1,4,0:0:0:0:
256,190,40826,1,4,0:0:0:0:
258,195,41726,1,4,0:0:0:0:
257,198,42026,1,4,0:0:0:0:
258,195,42326,1,12,0:0:0:0:
252,199,43226,1,12,0:0:0:0:
256,189,44126,1,4,0:0:0:0:
253,191,44426,1,4,0:0:0:0:
253,191,44726,1,12,0:0:0:0:
256,190,54326,5,4,0:0:0:0:
256,190,54926,1,4,0:0:0:0:
256,190,55526,1,4,0:0:0:0:
256,191,56626,1,4,0:0:0:0:
256,191,57626,1,0,0:0:0:0:
256,191,57926,1,8,0:0:0:0:
256,191,58526,1,8,0:0:0:0:
256,191,59026,1,4,0:0:0:0:
256,191,60026,1,0,0:0:0:0:
256,191,60326,1,0,0:0:0:0:
256,191,60926,1,8,0:0:0:0:
256,191,61526,1,0,0:0:0:0:
256,191,62126,1,0,0:0:0:0:
262,189,62726,1,12,0:0:0:0:
256,190,63326,1,8,0:0:0:0:
257,191,63626,1,8,0:0:0:0:
257,191,63926,1,4,0:0:0:0:
257,191,64526,1,0,0:0:0:0:
259,192,65126,1,4,0:0:0:0:
259,192,66226,1,4,0:0:0:0:
253,194,66926,1,0,0:0:0:0:
259,192,67226,1,0,0:0:0:0:
263,190,67526,1,8,0:0:0:0:
258,182,68626,1,0,0:0:0:0:
256,188,69326,1,0,0:0:0:0:
256,188,69626,1,8,0:0:0:0:
256,195,69926,1,0,0:0:0:0:
256,192,70526,1,8,0:0:0:0:
256,195,70826,1,8,0:0:0:0:
252,207,71126,1,0,0:0:0:0:
256,195,71726,1,0,0:0:0:0:
256,195,72326,1,12,0:0:0:0:
256,195,72926,1,0,0:0:0:0:
254,190,73526,1,12,0:0:0:0:
257,194,74126,1,0,0:0:0:0:
257,194,74726,1,0,0:0:0:0:
259,194,75026,1,0,0:0:0:0:
257,194,75326,1,0,0:0:0:0:
259,194,75926,1,4,0:0:0:0:
259,194,76526,1,8,0:0:0:0:
256,190,76826,1,0,0:0:0:0:
254,190,77426,1,8,0:0:0:0:
254,190,77726,1,0,0:0:0:0:
259,196,78326,1,4,0:0:0:0:
260,194,78926,1,8,0:0:0:0:
259,191,79226,1,0,0:0:0:0:
259,196,80126,1,8,0:0:0:0:
259,194,80726,1,4,0:0:0:0:
256,189,81626,1,4,0:0:0:0:
256,189,82526,1,4,0:0:0:0:
253,193,83126,1,4,0:0:0:0:
256,189,84026,1,4,0:0:0:0:
256,189,84926,1,4,0:0:0:0:
256,189,85526,1,4,0:0:0:0:
256,189,86026,1,4,0:0:0:0:
256,189,86426,1,4,0:0:0:0:
