osu file format v14

[General]
AudioFilename: cut.mp3
AudioLeadIn: 0
PreviewTime: 51716
Countdown: 0
SampleSet: Soft
StackLeniency: 0.5
Mode: 0
LetterboxInBreaks: 0
WidescreenStoryboard: 0

[Editor]
Bookmarks: 26216,51786,58186,64586
DistanceSpacing: 0.2
BeatDivisor: 4
GridSize: 4
TimelineZoom: 1.5

[Metadata]
Title:Tough & Alone
TitleUnicode:Tough & Alone
Artist:MYTH & ROID
ArtistUnicode:MYTH & ROID
Creator:Toruchii
Version:Remorse
Source:
Tags:eYe's wlop fiddleblue
BeatmapID:1533688
BeatmapSetID:726441

[Difficulty]
HPDrainRate:6
CircleSize:4.7
OverallDifficulty:8.8
ApproachRate:9.3
SliderMultiplier:1.5
SliderTickRate:1

[Events]
//Background and Video events
0,0,"watcher_by_wlop-d9r32mt.jpg",0,0
//Break Periods
//Storyboard Layer 0 (Background)
//Storyboard Layer 1 (Fail)
//Storyboard Layer 2 (Pass)
//Storyboard Layer 3 (Foreground)
//Storyboard Sound Samples

[TimingPoints]
616,400,4,2,1,40,1,0
616,-166.666666666667,4,2,1,40,0,0
13416,-133.333333333333,4,2,1,32,0,0
26216,-100,4,2,1,37,0,0
29316,-100,4,2,1,5,0,0
29416,-100,4,2,1,37,0,0
33416,-95.2380952380952,4,2,1,37,0,0
33816,-90.9090909090909,4,2,1,37,0,0
34216,-100,4,2,1,37,0,0
35716,-100,4,2,1,5,0,0
35816,-100,4,2,1,37,0,0
39016,-100,4,2,1,45,0,0
48616,-83.3333333333333,4,2,1,42,0,0
51816,-66.6666666666667,4,2,1,55,0,1
64516,-66.6666666666667,4,2,1,55,0,0
77416,-66.6666666666667,4,2,1,55,0,0

[Colours]
Combo1 : 0,156,193
Combo2 : 72,159,160
Combo3 : 62,77,85
Combo4 : 216,194,153
Combo5 : 226,65,88

[HitObjects]
139,132,616,6,0,L|132:72,2,44.999998626709,2|0|0,0:0|0:0|0:0,0:0:0:0:
209,201,1216,1,0,0:0:0:0:
286,139,1416,2,0,P|325:136|348:146,1,44.999998626709
419,182,1816,1,0,0:0:0:0:
419,182,2016,1,0,0:0:0:0:
336,237,2216,6,0,L|281:229,1,44.999998626709,2|0,0:0|0:0,0:0:0:0:
237,314,2616,2,0,L|281:307,1,44.999998626709
369,352,3016,1,0,0:0:0:0:
419,241,3216,1,0,0:0:0:0:
490,339,3416,1,0,0:0:0:0:
362,108,7016,6,0,L|369:51,2,44.999998626709,2|0|0,0:0|0:0|0:0,0:0:0:0:
381,204,7616,1,0,0:0:0:0:
286,175,7816,2,0,P|262:168|229:174,1,44.999998626709
156,219,8216,1,0,0:0:0:0:
156,219,8416,1,0,0:0:0:0:
237,274,8616,6,0,L|290:282,1,44.999998626709,2|0,0:0|0:0,0:0:0:0:
363,335,9016,2,0,L|318:341,1,44.999998626709
219,355,9416,1,0,0:0:0:0:
171,241,9616,1,0,0:0:0:0:
96,339,9816,1,0,0:0:0:0:
134,93,13416,5,0,0:0:0:0:
134,93,14016,1,0,0:0:0:0:
251,253,14216,1,8,0:0:0:0:
251,253,15016,5,0,0:0:0:0:
258,320,15316,1,0,0:0:0:0:
194,297,15616,1,0,0:0:0:0:
385,120,15816,1,8,0:0:0:0:
350,286,16616,6,0,P|377:282|405:288,1,56.2500021457673
469,337,16916,2,0,L|477:245,1,84.3750032186509
304,122,17416,1,8,0:0:0:0:
304,122,18216,5,0,0:0:0:0:
285,56,18516,1,0,0:0:0:0:
218,44,18816,1,0,0:0:0:0:
151,235,19016,1,8,0:0:0:0:
351,287,19816,6,0,P|358:260|353:232,1,56.2500021457673
278,259,20116,2,0,P|282:328|309:346,1,84.3750032186509
491,200,20616,1,8,0:0:0:0:
423,158,21416,5,0,0:0:0:0:
355,164,21716,1,0,0:0:0:0:
287,169,22016,1,0,0:0:0:0:
91,324,22216,1,8,0:0:0:0:
278,266,23016,5,0,0:0:0:0:
315,337,23316,1,0,0:0:0:0:
358,270,23616,1,0,0:0:0:0:
91,324,23816,1,8,0:0:0:0:
188,81,24616,5,0,0:0:0:0:
223,153,24916,1,0,0:0:0:0:
192,226,25216,1,0,0:0:0:0:
380,348,25416,1,8,0:0:0:0:
380,348,26216,6,0,P|402:300|397:249,1,75,8|0,0:0|0:0,0:0:0:0:
305,220,26616,2,0,P|327:268|322:319,1,75,8|0,0:0|0:0,0:0:0:0:
230,353,27016,2,0,P|252:305|247:254,1,75,8|0,0:0|0:0,0:0:0:0:
155,225,27416,2,0,P|177:273|172:324,1,75,8|0,0:0|0:0,0:0:0:0:
44,312,27816,6,0,P|80:283|124:284,1,75,8|0,0:0|0:0,0:0:0:0:
172,378,28216,2,0,P|136:349|92:350,1,75,8|0,0:0|0:0,0:0:0:0:
178,293,28616,2,0,P|194:260|190:223,1,75,8|0,0:0|0:0,0:0:0:0:
122,133,29016,2,0,L|121:268,1,112.5,8|0,0:0|0:0,0:0:0:0:
178,293,29416,5,8,0:0:0:0:
274,239,29616,1,8,0:0:0:0:
292,347,29816,1,10,0:0:0:0:
436,266,30016,1,10,0:0:0:0:
375,219,30216,2,0,P|362:279|427:347,1,150,10|0,0:0|0:0,0:0:0:0:
436,266,30816,1,0,0:0:0:0:
292,207,31016,6,0,P|279:147|298:104,1,75,8|0,0:0|0:0,0:0:0:0:
336,9,31416,2,0,P|308:34|293:68,1,75,8|0,0:0|0:0,0:0:0:0:
194,258,31816,2,0,P|207:198|188:155,1,75,8|0,0:0|0:0,0:0:0:0:
149,60,32216,2,0,P|177:84|192:118,1,75,8|0,0:0|0:0,0:0:0:0:
32,218,32616,5,8,0:0:0:0:
120,134,32816,1,8,0:0:0:0:
141,220,33016,1,10,0:0:0:0:
273,94,33216,1,10,0:0:0:0:
336,142,33416,2,0,P|284:172|200:116,1,157.499995193482,10|0,0:0|0:0,0:0:0:0:
273,94,34016,1,0,0:0:0:0:
444,155,34216,5,2,0:0:0:0:
444,155,34616,2,0,P|397:147|358:161,1,75,8|0,0:0|0:0,0:0:0:0:
285,204,35016,2,0,P|238:212|199:198,1,75,8|0,0:0|0:0,0:0:0:0:
84,134,35416,2,0,P|123:181|133:234,1,112.5,8|0,0:0|0:0,0:0:0:0:
160,292,35816,5,8,0:0:0:0:
249,143,36016,1,8,0:0:0:0:
333,294,36216,1,10,0:0:0:0:
447,102,36416,1,10,0:0:0:0:
473,171,36616,2,0,P|407:162|382:67,1,150,10|0,0:0|0:0,0:0:0:0:
447,102,37216,1,0,0:0:0:0:
260,221,37416,6,0,L|177:220,1,75,8|0,0:0|0:0,0:0:0:0:
80,152,37816,2,0,L|154:151,1,75,8|0,0:0|0:0,0:0:0:0:
155,290,38216,2,0,P|126:266|110:233,1,75,8|0,0:0|0:0,0:0:0:0:
290,148,38615,2,0,P|319:171|335:204,1,75,8|0,0:0|0:0,0:0:0:0:
365,380,39016,5,2,0:0:0:0:
445,291,40616,2,0,L|448:224,1,37.5,2|0,0:0|0:0,0:0:0:0:
147,380,42216,5,2,0:0:0:0:
67,291,43816,2,0,L|64:224,2,37.5,2|0|0,0:0|0:0|0:0,0:0:0:0:
446,130,45416,5,2,0:0:0:0:
280,170,47016,2,0,L|278:207,1,37.5,2|0,0:0|0:0,0:0:0:0:
19,201,48616,6,8,B|66:205|114:178|114:178|145:205|208:207|208:207|144:209|92:229|-4:286|-4:286|71:252|126:324,1,539.999983520508
129,320,49916,1,8,0:0:0:0:
173,326,50016,1,8,0:0:0:0:
218,322,50116,1,8,0:0:0:0:
260,307,50216,5,8,0:0:0:0:
303,271,50316,1,8,0:0:0:0:
356,256,50416,1,8,0:0:0:0:
412,264,50516,1,8,0:0:0:0:
459,293,50616,1,8,0:0:0:0:
392,333,50716,1,8,0:0:0:0:
315,335,50816,1,8,0:0:0:0:
247,296,50916,1,8,0:0:0:0:
209,229,51016,1,8,0:0:0:0:
388,85,51716,5,14,0:0:0:0:
388,85,51816,2,0,P|396:114|394:152,1,56.2500021457673,8|0,0:0|0:0,0:0:0:0:
305,240,52016,1,8,0:0:0:0:
100,161,52216,1,8,0:0:0:0:
326,123,52416,1,8,0:0:0:0:
284,357,52616,1,10,0:0:0:0:
193,280,52816,1,8,0:0:0:0:
448,185,53016,1,8,0:0:0:0:
457,303,53216,1,8,0:0:0:0:
193,280,53416,5,10,0:0:0:0:
357,247,53616,1,8,0:0:0:0:
100,161,53816,5,10,0:0:0:0:
264,194,54016,1,8,0:0:0:0:
284,357,54216,5,10,0:0:0:0:
357,247,54416,1,8,0:0:0:0:
415,365,54616,1,8,0:0:0:0:
352,321,54816,1,8,0:0:0:0:
438,101,55016,5,10,0:0:0:0:
193,280,55216,1,8,0:0:0:0:
266,79,55416,1,8,0:0:0:0:
352,321,55616,1,8,0:0:0:0:
155,156,55816,1,10,0:0:0:0:
346,22,56016,1,8,0:0:0:0:
349,172,56216,1,8,0:0:0:0:
266,79,56416,1,8,0:0:0:0:
452,268,56616,5,10,0:0:0:0:
240,240,56816,1,8,0:0:0:0:
138,336,57016,5,10,0:0:0:0:
350,308,57216,1,8,0:0:0:0:
240,240,57416,1,10,0:0:0:0:
236,351,57616,1,8,0:0:0:0:
452,268,57816,1,8,0:0:0:0:
448,379,58016,1,8,0:0:0:0:
456,157,58216,5,10,0:0:0:0:
404,84,58416,1,8,0:0:0:0:
318,112,58616,1,8,0:0:0:0:
318,202,58816,1,8,0:0:0:0:
404,230,59016,1,8,0:0:0:0:
269,354,59216,5,10,0:0:0:0:
231,177,59416,1,8,0:0:0:0:
210,269,59616,5,10,0:0:0:0:
248,92,59816,1,8,0:0:0:0:
225,5,60016,1,8,0:0:0:0:
135,0,60216,1,8,0:0:0:0:
103,84,60416,1,8,0:0:0:0:
173,141,60616,1,8,0:0:0:0:
337,66,60816,5,10,0:0:0:0:
341,208,61016,1,8,0:0:0:0:
462,134,61216,1,8,0:0:0:0:
211,282,61416,5,10,0:0:0:0:
173,141,61616,1,8,0:0:0:0:
135,0,61816,1,10,0:0:0:0:
103,84,62016,1,8,0:0:0:0:
192,211,62216,5,10,0:0:0:0:
415,126,62416,1,8,0:0:0:0:
285,327,62616,1,8,0:0:0:0:
272,87,62816,1,8,0:0:0:0:
422,274,63016,5,10,0:0:0:0:
192,211,63216,1,8,0:0:0:0:
361,43,63416,1,8,0:0:0:0:
326,170,63616,1,8,0:0:0:0:
103,84,63816,1,10,0:0:0:0:
74,95,64016,1,8,0:0:0:0:
29,33,64216,1,8,0:0:0:0:
0,22,64416,1,8,0:0:0:0:
75,288,64616,5,10,0:0:0:0:
237,63,64816,1,8,0:0:0:0:
350,315,65016,1,8,0:0:0:0:
223,210,65216,1,8,0:0:0:0:
473,124,65416,1,10,0:0:0:0:
483,230,65616,1,8,0:0:0:0:
271,375,65816,1,8,0:0:0:0:
281,269,66016,1,8,0:0:0:0:
76,264,66216,5,10,0:0:0:0:
223,210,66416,1,8,0:0:0:0:
0,125,66616,5,10,0:0:0:0:
154,151,66816,1,8,0:0:0:0:
355,224,67016,5,10,0:0:0:0:
301,102,67216,1,8,0:0:0:0:
223,210,67416,1,8,0:0:0:0:
294,178,67616,1,8,0:0:0:0:
483,115,67816,5,10,0:0:0:0:
457,347,68016,1,8,0:0:0:0:
223,210,68216,1,8,0:0:0:0:
355,224,68416,1,8,0:0:0:0:
121,361,68616,1,10,0:0:0:0:
294,178,68816,1,8,0:0:0:0:
299,355,69016,1,8,0:0:0:0:
223,210,69216,1,8,0:0:0:0:
104,218,69416,5,10,0:0:0:0:
294,178,69616,1,8,0:0:0:0:
413,250,69816,5,10,0:0:0:0:
223,210,70016,1,8,0:0:0:0:
159,277,70216,1,10,0:0:0:0:
253,303,70416,1,8,0:0:0:0:
134,104,70616,1,8,0:0:0:0:
40,78,70816,1,8,0:0:0:0:
228,130,71016,5,10,0:0:0:0:
314,156,71216,1,8,0:0:0:0:
315,246,71416,1,8,0:0:0:0:
230,275,71616,1,8,0:0:0:0:
176,203,71816,1,8,0:0:0:0:
336,379,72016,5,10,0:0:0:0:
453,201,72216,1,8,0:0:0:0:
504,345,72416,5,10,0:0:0:0:
315,246,72616,1,8,0:0:0:0:
314,156,72816,1,8,0:0:0:0:
400,128,73016,1,8,0:0:0:0:
453,201,73216,1,8,0:0:0:0:
400,274,73416,1,8,0:0:0:0:
315,246,73616,1,8,0:0:0:0:
164,61,73816,5,10,0:0:0:0:
151,219,74016,1,8,0:0:0:0:
400,128,74216,5,10,0:0:0:0:
240,188,74416,1,8,0:0:0:0:
400,274,74616,1,8,0:0:0:0:
296,104,74816,1,10,0:0:0:0:
239,51,74916,1,10,0:0:0:0:
164,61,75016,1,10,0:0:0:0:
240,188,75216,1,8,0:0:0:0:
400,128,75416,1,8,0:0:0:0:
268,317,75616,1,10,0:0:0:0:
325,264,75716,1,10,0:0:0:0:
400,274,75816,5,10,0:0:0:0:
163,256,76016,1,8,0:0:0:0:
296,104,76216,5,10,0:0:0:0:
325,264,76416,1,10,0:0:0:0:
500,144,76616,1,10,0:0:0:0:
512,150,76816,1,8,0:0:0:0:
242,174,77016,5,8,0:3:0:0:
162,153,77116,1,8,0:3:0:0:
92,202,77216,1,8,0:3:0:0:
42,113,77316,1,8,0:3:0:0:
104,28,77416,1,8,0:3:0:0:
