osu file format v14

[General]
AudioFilename: audio140.mp3
AudioLeadIn: 0
PreviewTime: -1
Countdown: 0
SampleSet: Soft
StackLeniency: 0.7
Mode: 3
LetterboxInBreaks: 0
SpecialStyle: 0
WidescreenStoryboard: 0

[Editor]
DistanceSpacing: 0.8
BeatDivisor: 3
GridSize: 32
TimelineZoom: 1

[Metadata]
Title:TRAGEDY;ETERNITY
TitleUnicode:TRAGEDY;ETERNITY
Artist:MYTH & ROID
ArtistUnicode:MYTH & ROID
Creator:Yyorshire
Version:Etternaty [1.4x Rate]
Source:eYe's
Tags:gamer
BeatmapID:2217857
BeatmapSetID:1058991

[Difficulty]
HPDrainRate:8
CircleSize:4
OverallDifficulty:8.3
ApproachRate:5
SliderMultiplier:1.4
SliderTickRate:1

[Events]
//Background and Video events
0,0,"tebg.jpg",0,0
//Break Periods
//Storyboard Layer 0 (Background)
//Storyboard Layer 1 (Fail)
//Storyboard Layer 2 (Pass)
//Storyboard Layer 3 (Foreground)
//Storyboard Layer 4 (Overlay)
//Storyboard Sound Samples

[TimingPoints]
1851,231.660231428571,4,2,0,20,1,0

[HitObjects]
192,192,1851,5,0,0:0:0:0:
448,192,1851,1,0,0:0:0:0:
320,192,2546,1,0,0:0:0:0:
64,192,2546,1,0,0:0:0:0:
192,192,2778,1,0,0:0:0:0:
64,192,2778,1,0,0:0:0:0:
64,192,3473,1,0,0:0:0:0:
192,192,3589,1,0,0:0:0:0:
320,192,3704,1,0,0:0:0:0:
64,192,3820,1,0,0:0:0:0:
320,192,3936,1,0,0:0:0:0:
192,192,4052,1,0,0:0:0:0:
448,192,4168,1,0,0:0:0:0:
192,192,4284,1,0,0:0:0:0:
448,192,4399,1,0,0:0:0:0:
192,192,4515,1,0,0:0:0:0:
448,192,4631,1,0,0:0:0:0:
64,192,4631,1,0,0:0:0:0:
320,192,4863,1,0,0:0:0:0:
192,192,4979,1,0,0:0:0:0:
64,192,5094,1,0,0:0:0:0:
448,192,5558,1,0,0:0:0:0:
320,192,5558,1,0,0:0:0:0:
448,192,6253,1,0,0:0:0:0:
320,192,6253,1,0,0:0:0:0:
448,192,6484,1,0,0:0:0:0:
192,192,6484,1,0,0:0:0:0:
320,192,6716,1,0,0:0:0:0:
448,192,6831,1,0,0:0:0:0:
320,192,6948,1,0,0:0:0:0:
192,192,7064,1,0,0:0:0:0:
320,192,7179,1,0,0:0:0:0:
64,192,7295,1,0,0:0:0:0:
448,192,7411,1,0,0:0:0:0:
192,192,7411,1,0,0:0:0:0:
64,192,7759,1,0,0:0:0:0:
448,192,8106,1,0,0:0:0:0:
64,192,8144,1,0,0:0:0:0:
320,192,8202,1,0,0:0:0:0:
192,192,8260,1,0,0:0:0:0:
448,192,8338,1,0,0:0:0:0:
64,192,8338,1,0,0:0:0:0:
320,192,8396,1,0,0:0:0:0:
192,192,8454,1,0,0:0:0:0:
448,192,8511,1,0,0:0:0:0:
64,192,8569,1,0,0:0:0:0:
320,192,8608,1,0,0:0:0:0:
192,192,8666,1,0,0:0:0:0:
448,192,8724,1,0,0:0:0:0:
320,192,8801,1,0,0:0:0:0:
64,192,8916,1,0,0:0:0:0:
192,192,9033,1,0,0:0:0:0:
64,192,9149,1,0,0:0:0:0:
448,192,9264,1,0,0:0:0:0:
192,192,9264,1,0,0:0:0:0:
320,192,9496,1,0,0:0:0:0:
192,192,9496,1,0,0:0:0:0:
448,192,9728,1,0,0:0:0:0:
64,192,9728,1,0,0:0:0:0:
192,192,9959,1,0,0:0:0:0:
64,192,9959,1,0,0:0:0:0:
320,192,10191,1,0,0:0:0:0:
64,192,10191,1,0,0:0:0:0:
320,192,10422,1,0,0:0:0:0:
192,192,10422,1,0,0:0:0:0:
448,192,10654,1,0,0:0:0:0:
192,192,10654,1,0,0:0:0:0:
448,192,10886,1,0,0:0:0:0:
320,192,10886,1,0,0:0:0:0:
320,192,11117,1,0,0:0:0:0:
64,192,11117,1,0,0:0:0:0:
320,192,11349,1,0,0:0:0:0:
192,192,11349,1,0,0:0:0:0:
448,192,11581,1,0,0:0:0:0:
192,192,11581,1,0,0:0:0:0:
448,192,11812,1,0,0:0:0:0:
320,192,11812,1,0,0:0:0:0:
448,192,12044,1,0,0:0:0:0:
64,192,12044,1,0,0:0:0:0:
448,192,12276,1,0,0:0:0:0:
192,192,12276,1,0,0:0:0:0:
448,192,12507,1,0,0:0:0:0:
320,192,12507,1,0,0:0:0:0:
448,192,12739,1,0,0:0:0:0:
320,192,12855,1,0,0:0:0:0:
448,192,12971,1,0,0:0:0:0:
64,192,12971,1,0,0:0:0:0:
192,192,13202,1,0,0:0:0:0:
64,192,13202,1,0,0:0:0:0:
448,192,13434,1,0,0:0:0:0:
192,192,13434,1,0,0:0:0:0:
320,192,13666,1,0,0:0:0:0:
192,192,13666,1,0,0:0:0:0:
64,192,13897,1,0,0:0:0:0:
448,192,14129,1,0,0:0:0:0:
320,192,14129,1,0,0:0:0:0:
320,192,14361,1,0,0:0:0:0:
192,192,14476,1,0,0:0:0:0:
448,192,14592,1,0,0:0:0:0:
64,192,14824,1,0,0:0:0:0:
192,192,15171,1,0,0:0:0:0:
448,192,15519,128,0,16561:0:0:0:0:
320,192,15519,128,0,16561:0:0:0:0:
448,192,16677,1,0,0:0:0:0:
320,192,16677,1,0,0:0:0:0:
192,192,16677,1,0,0:0:0:0:
64,192,16735,1,0,0:0:0:0:
448,192,16793,1,0,0:0:0:0:
192,192,16793,1,0,0:0:0:0:
320,192,16851,1,0,0:0:0:0:
448,192,16909,1,0,0:0:0:0:
64,192,16909,1,0,0:0:0:0:
320,192,16967,1,0,0:0:0:0:
192,192,17025,1,0,0:0:0:0:
64,192,17025,1,0,0:0:0:0:
448,192,17083,1,0,0:0:0:0:
320,192,17141,1,0,0:0:0:0:
64,192,17141,1,0,0:0:0:0:
192,192,17199,1,0,0:0:0:0:
448,192,17256,1,0,0:0:0:0:
320,192,17256,1,0,0:0:0:0:
64,192,17314,1,0,0:0:0:0:
320,192,17372,1,0,0:0:0:0:
192,192,17372,1,0,0:0:0:0:
64,192,17430,1,0,0:0:0:0:
448,192,17488,1,0,0:0:0:0:
192,192,17488,1,0,0:0:0:0:
320,192,17546,1,0,0:0:0:0:
192,192,17604,1,0,0:0:0:0:
64,192,17604,1,0,0:0:0:0:
448,192,17662,1,0,0:0:0:0:
320,192,17720,1,0,0:0:0:0:
192,192,17720,1,0,0:0:0:0:
64,192,17778,1,0,0:0:0:0:
448,192,17836,1,0,0:0:0:0:
320,192,17836,1,0,0:0:0:0:
64,192,17894,1,0,0:0:0:0:
320,192,17951,1,0,0:0:0:0:
192,192,17951,1,0,0:0:0:0:
448,192,18009,1,0,0:0:0:0:
192,192,18067,1,0,0:0:0:0:
64,192,18067,1,0,0:0:0:0:
320,192,18125,1,0,0:0:0:0:
448,192,18183,1,0,0:0:0:0:
192,192,18183,1,0,0:0:0:0:
64,192,18183,1,0,0:0:0:0:
320,192,18241,1,0,0:0:0:0:
448,192,18299,1,0,0:0:0:0:
192,192,18299,1,0,0:0:0:0:
64,192,18299,1,0,0:0:0:0:
320,192,18357,1,0,0:0:0:0:
192,192,18415,1,0,0:0:0:0:
320,192,18473,1,0,0:0:0:0:
448,192,18531,1,0,0:0:0:0:
192,192,18531,1,0,0:0:0:0:
64,192,18531,1,0,0:0:0:0:
320,192,18589,1,0,0:0:0:0:
448,192,18646,1,0,0:0:0:0:
64,192,18646,1,0,0:0:0:0:
192,192,18704,1,0,0:0:0:0:
448,192,18762,1,0,0:0:0:0:
320,192,18762,1,0,0:0:0:0:
64,192,18820,1,0,0:0:0:0:
320,192,18878,1,0,0:0:0:0:
192,192,18878,1,0,0:0:0:0:
64,192,18936,1,0,0:0:0:0:
320,192,18994,1,0,0:0:0:0:
192,192,18994,1,0,0:0:0:0:
448,192,19052,1,0,0:0:0:0:
192,192,19110,1,0,0:0:0:0:
64,192,19110,1,0,0:0:0:0:
320,192,19168,1,0,0:0:0:0:
448,192,19226,1,0,0:0:0:0:
64,192,19226,1,0,0:0:0:0:
192,192,19284,1,0,0:0:0:0:
448,192,19341,1,0,0:0:0:0:
320,192,19341,1,0,0:0:0:0:
192,192,19399,1,0,0:0:0:0:
448,192,19457,1,0,0:0:0:0:
320,192,19457,1,0,0:0:0:0:
64,192,19457,1,0,0:0:0:0:
192,192,19515,1,0,0:0:0:0:
448,192,19573,1,0,0:0:0:0:
64,192,19573,1,0,0:0:0:0:
320,192,19631,1,0,0:0:0:0:
192,192,19689,1,0,0:0:0:0:
64,192,19689,1,0,0:0:0:0:
448,192,19747,1,0,0:0:0:0:
320,192,19805,1,0,0:0:0:0:
64,192,19805,1,0,0:0:0:0:
192,192,19863,1,0,0:0:0:0:
448,192,19921,1,0,0:0:0:0:
320,192,19921,1,0,0:0:0:0:
64,192,19979,1,0,0:0:0:0:
320,192,20036,1,0,0:0:0:0:
192,192,20036,1,0,0:0:0:0:
448,192,20094,1,0,0:0:0:0:
192,192,20152,1,0,0:0:0:0:
64,192,20152,1,0,0:0:0:0:
320,192,20210,1,0,0:0:0:0:
192,192,20268,1,0,0:0:0:0:
64,192,20268,1,0,0:0:0:0:
448,192,20326,1,0,0:0:0:0:
320,192,20384,1,0,0:0:0:0:
192,192,20384,1,0,0:0:0:0:
64,192,20384,1,0,0:0:0:0:
448,192,20442,1,0,0:0:0:0:
320,192,20500,1,0,0:0:0:0:
192,192,20500,1,0,0:0:0:0:
64,192,20558,1,0,0:0:0:0:
448,192,20616,1,0,0:0:0:0:
192,192,20616,1,0,0:0:0:0:
320,192,20674,1,0,0:0:0:0:
448,192,20731,1,0,0:0:0:0:
192,192,20731,1,0,0:0:0:0:
64,192,20731,1,0,0:0:0:0:
320,192,20789,1,0,0:0:0:0:
192,192,20847,1,0,0:0:0:0:
64,192,20847,1,0,0:0:0:0:
320,192,20905,1,0,0:0:0:0:
448,192,20963,1,0,0:0:0:0:
192,192,20963,1,0,0:0:0:0:
320,192,21021,1,0,0:0:0:0:
192,192,21079,1,0,0:0:0:0:
64,192,21079,1,0,0:0:0:0:
448,192,21136,1,0,0:0:0:0:
64,192,21195,1,0,0:0:0:0:
320,192,21234,1,0,0:0:0:0:
192,192,21272,1,0,0:0:0:0:
448,192,21311,1,0,0:0:0:0:
64,192,21349,1,0,0:0:0:0:
192,192,21388,1,0,0:0:0:0:
448,192,21426,1,0,0:0:0:0:
320,192,21426,1,0,0:0:0:0:
64,192,21542,1,0,0:0:0:0:
320,192,21658,1,0,0:0:0:0:
64,192,21658,1,0,0:0:0:0:
192,192,21716,1,0,0:0:0:0:
448,192,21774,1,0,0:0:0:0:
320,192,21774,1,0,0:0:0:0:
448,192,21890,1,0,0:0:0:0:
192,192,21890,1,0,0:0:0:0:
320,192,21948,1,0,0:0:0:0:
192,192,22006,1,0,0:0:0:0:
64,192,22006,1,0,0:0:0:0:
448,192,22064,1,0,0:0:0:0:
320,192,22121,1,0,0:0:0:0:
64,192,22121,1,0,0:0:0:0:
192,192,22179,1,0,0:0:0:0:
320,192,22237,1,0,0:0:0:0:
64,192,22237,1,0,0:0:0:0:
192,192,22276,1,0,0:0:0:0:
448,192,22314,1,0,0:0:0:0:
64,192,22353,1,0,0:0:0:0:
320,192,22391,1,0,0:0:0:0:
192,192,22430,1,0,0:0:0:0:
448,192,22469,1,0,0:0:0:0:
320,192,22507,1,0,0:0:0:0:
192,192,22546,1,0,0:0:0:0:
448,192,22585,1,0,0:0:0:0:
64,192,22624,1,0,0:0:0:0:
320,192,22662,1,0,0:0:0:0:
192,192,22701,1,0,0:0:0:0:
64,192,22739,1,0,0:0:0:0:
448,192,22778,1,0,0:0:0:0:
192,192,22816,1,0,0:0:0:0:
320,192,22855,1,0,0:0:0:0:
64,192,22894,1,0,0:0:0:0:
448,192,22932,1,0,0:0:0:0:
320,192,22971,1,0,0:0:0:0:
192,192,23009,1,0,0:0:0:0:
64,192,23048,1,0,0:0:0:0:
448,192,23086,1,0,0:0:0:0:
192,192,23125,1,0,0:0:0:0:
320,192,23164,1,0,0:0:0:0:
64,192,23202,1,0,0:0:0:0:
448,192,23241,1,0,0:0:0:0:
192,192,23279,1,0,0:0:0:0:
320,192,23319,1,0,0:0:0:0:
448,192,23357,1,0,0:0:0:0:
64,192,23396,1,0,0:0:0:0:
192,192,23434,1,0,0:0:0:0:
320,192,23473,1,0,0:0:0:0:
64,192,23511,1,0,0:0:0:0:
448,192,23550,1,0,0:0:0:0:
192,192,23589,1,0,0:0:0:0:
320,192,23627,1,0,0:0:0:0:
64,192,23666,1,0,0:0:0:0:
448,192,23704,1,0,0:0:0:0:
320,192,23743,1,0,0:0:0:0:
192,192,23781,1,0,0:0:0:0:
64,192,23820,1,0,0:0:0:0:
320,192,23859,1,0,0:0:0:0:
192,192,23897,1,0,0:0:0:0:
448,192,23936,1,0,0:0:0:0:
64,192,23974,1,0,0:0:0:0:
448,192,24091,1,0,0:0:0:0:
320,192,24091,1,0,0:0:0:0:
192,192,24091,1,0,0:0:0:0:
64,192,24149,1,0,0:0:0:0:
320,192,24206,1,0,0:0:0:0:
192,192,24206,1,0,0:0:0:0:
448,192,24264,1,0,0:0:0:0:
320,192,24322,1,0,0:0:0:0:
64,192,24322,1,0,0:0:0:0:
192,192,24380,1,0,0:0:0:0:
448,192,24438,1,0,0:0:0:0:
320,192,24438,1,0,0:0:0:0:
64,192,24438,1,0,0:0:0:0:
192,192,24496,1,0,0:0:0:0:
448,192,24554,1,0,0:0:0:0:
320,192,24554,1,0,0:0:0:0:
192,192,24611,1,0,0:0:0:0:
320,192,24669,1,0,0:0:0:0:
64,192,24669,1,0,0:0:0:0:
192,192,24728,1,0,0:0:0:0:
448,192,24786,1,0,0:0:0:0:
320,192,24786,1,0,0:0:0:0:
64,192,24844,1,0,0:0:0:0:
448,192,24901,1,0,0:0:0:0:
192,192,24940,1,0,0:0:0:0:
320,192,24979,1,0,0:0:0:0:
64,192,25017,1,0,0:0:0:0:
448,192,25056,1,0,0:0:0:0:
320,192,25094,1,0,0:0:0:0:
192,192,25133,1,0,0:0:0:0:
64,192,25133,1,0,0:0:0:0:
448,192,25249,1,0,0:0:0:0:
448,192,25364,1,0,0:0:0:0:
192,192,25364,1,0,0:0:0:0:
320,192,25422,1,0,0:0:0:0:
192,192,25481,1,0,0:0:0:0:
64,192,25481,1,0,0:0:0:0:
320,192,25596,1,0,0:0:0:0:
64,192,25596,1,0,0:0:0:0:
192,192,25654,1,0,0:0:0:0:
448,192,25712,1,0,0:0:0:0:
320,192,25712,1,0,0:0:0:0:
64,192,25770,1,0,0:0:0:0:
448,192,25828,1,0,0:0:0:0:
192,192,25828,1,0,0:0:0:0:
320,192,25886,1,0,0:0:0:0:
448,192,25944,1,0,0:0:0:0:
192,192,25944,1,0,0:0:0:0:
320,192,25982,1,0,0:0:0:0:
64,192,26021,1,0,0:0:0:0:
448,192,26059,1,0,0:0:0:0:
192,192,26098,1,0,0:0:0:0:
320,192,26136,1,0,0:0:0:0:
64,192,26176,1,0,0:0:0:0:
192,192,26214,1,0,0:0:0:0:
320,192,26253,1,0,0:0:0:0:
64,192,26291,1,0,0:0:0:0:
448,192,26330,1,0,0:0:0:0:
192,192,26369,1,0,0:0:0:0:
320,192,26407,1,0,0:0:0:0:
448,192,26446,1,0,0:0:0:0:
64,192,26484,1,0,0:0:0:0:
320,192,26523,1,0,0:0:0:0:
192,192,26561,1,0,0:0:0:0:
448,192,26600,1,0,0:0:0:0:
64,192,26639,1,0,0:0:0:0:
192,192,26677,1,0,0:0:0:0:
320,192,26716,1,0,0:0:0:0:
448,192,26754,1,0,0:0:0:0:
64,192,26793,1,0,0:0:0:0:
320,192,26831,1,0,0:0:0:0:
192,192,26871,1,0,0:0:0:0:
448,192,26909,1,0,0:0:0:0:
64,192,26948,1,0,0:0:0:0:
320,192,26986,1,0,0:0:0:0:
192,192,27025,1,0,0:0:0:0:
64,192,27064,1,0,0:0:0:0:
448,192,27102,1,0,0:0:0:0:
320,192,27141,1,0,0:0:0:0:
192,192,27179,1,0,0:0:0:0:
448,192,27218,1,0,0:0:0:0:
64,192,27256,1,0,0:0:0:0:
320,192,27295,1,0,0:0:0:0:
192,192,27334,1,0,0:0:0:0:
448,192,27372,1,0,0:0:0:0:
64,192,27411,1,0,0:0:0:0:
192,192,27449,1,0,0:0:0:0:
320,192,27488,1,0,0:0:0:0:
448,192,27526,1,0,0:0:0:0:
192,192,27565,1,0,0:0:0:0:
320,192,27604,1,0,0:0:0:0:
64,192,27643,1,0,0:0:0:0:
448,192,27681,1,0,0:0:0:0:
192,192,27797,1,0,0:0:0:0:
320,192,28029,1,0,0:0:0:0:
192,192,28260,1,0,0:0:0:0:
64,192,28492,1,0,0:0:0:0:
448,192,28724,1,0,0:0:0:0:
192,192,28839,1,0,0:0:0:0:
320,192,28897,1,0,0:0:0:0:
448,192,28955,1,0,0:0:0:0:
192,192,29187,1,0,0:0:0:0:
64,192,29187,1,0,0:0:0:0:
192,192,29419,1,0,0:0:0:0:
64,192,29419,1,0,0:0:0:0:
192,192,29534,1,0,0:0:0:0:
64,192,29534,1,0,0:0:0:0:
448,192,29650,1,0,0:0:0:0:
64,192,29650,1,0,0:0:0:0:
320,192,29689,1,0,0:0:0:0:
192,192,29728,1,0,0:0:0:0:
448,192,29766,1,0,0:0:0:0:
64,192,29805,1,0,0:0:0:0:
320,192,29844,1,0,0:0:0:0:
192,192,29882,1,0,0:0:0:0:
448,192,29921,1,0,0:0:0:0:
64,192,29959,1,0,0:0:0:0:
192,192,29998,1,0,0:0:0:0:
320,192,30036,1,0,0:0:0:0:
64,192,30075,1,0,0:0:0:0:
448,192,30114,1,0,0:0:0:0:
320,192,30152,1,0,0:0:0:0:
192,192,30191,1,0,0:0:0:0:
64,192,30229,1,0,0:0:0:0:
448,192,30268,1,0,0:0:0:0:
192,192,30306,1,0,0:0:0:0:
320,192,30345,1,0,0:0:0:0:
448,192,30384,1,0,0:0:0:0:
64,192,30422,1,0,0:0:0:0:
192,192,30461,1,0,0:0:0:0:
320,192,30500,1,0,0:0:0:0:
448,192,30539,1,0,0:0:0:0:
64,192,30582,1,0,0:0:0:0:
192,192,30621,1,0,0:0:0:0:
320,192,30659,1,0,0:0:0:0:
64,192,30698,1,0,0:0:0:0:
320,192,30736,1,0,0:0:0:0:
192,192,30776,1,0,0:0:0:0:
64,192,30814,1,0,0:0:0:0:
320,192,30847,1,0,0:0:0:0:
192,192,30886,1,0,0:0:0:0:
320,192,30924,1,0,0:0:0:0:
64,192,30963,1,0,0:0:0:0:
448,192,31001,1,0,0:0:0:0:
320,192,31040,1,0,0:0:0:0:
192,192,31079,1,0,0:0:0:0:
448,192,31117,1,0,0:0:0:0:
64,192,31156,1,0,0:0:0:0:
192,192,31195,1,0,0:0:0:0:
320,192,31234,1,0,0:0:0:0:
448,192,31272,1,0,0:0:0:0:
64,192,31311,1,0,0:0:0:0:
192,192,31349,1,0,0:0:0:0:
320,192,31388,1,0,0:0:0:0:
448,192,31426,1,0,0:0:0:0:
64,192,31465,1,0,0:0:0:0:
320,192,31504,1,0,0:0:0:0:
192,192,31542,1,0,0:0:0:0:
64,192,31581,1,0,0:0:0:0:
448,192,31619,1,0,0:0:0:0:
320,192,31658,1,0,0:0:0:0:
192,192,31696,1,0,0:0:0:0:
64,192,31735,1,0,0:0:0:0:
448,192,31774,1,0,0:0:0:0:
320,192,31812,1,0,0:0:0:0:
192,192,31851,1,0,0:0:0:0:
64,192,31890,1,0,0:0:0:0:
320,192,31929,1,0,0:0:0:0:
448,192,31967,1,0,0:0:0:0:
192,192,32006,1,0,0:0:0:0:
320,192,32044,1,0,0:0:0:0:
64,192,32083,1,0,0:0:0:0:
192,192,32121,1,0,0:0:0:0:
320,192,32160,1,0,0:0:0:0:
448,192,32204,1,0,0:0:0:0:
64,192,32242,1,0,0:0:0:0:
192,192,32281,1,0,0:0:0:0:
448,192,32320,1,0,0:0:0:0:
320,192,32358,1,0,0:0:0:0:
192,192,32397,1,0,0:0:0:0:
448,192,32436,1,0,0:0:0:0:
64,192,32474,1,0,0:0:0:0:
192,192,32513,1,0,0:0:0:0:
448,192,32551,1,0,0:0:0:0:
320,192,32589,1,0,0:0:0:0:
192,192,32629,1,0,0:0:0:0:
448,192,32667,1,0,0:0:0:0:
64,192,32701,1,0,0:0:0:0:
192,192,32739,1,0,0:0:0:0:
320,192,32778,1,0,0:0:0:0:
64,192,32816,1,0,0:0:0:0:
448,192,32855,1,0,0:0:0:0:
192,192,32894,1,0,0:0:0:0:
320,192,32951,1,0,0:0:0:0:
192,192,33009,1,0,0:0:0:0:
64,192,33067,1,0,0:0:0:0:
192,192,33125,1,0,0:0:0:0:
320,192,33183,1,0,0:0:0:0:
192,192,33241,1,0,0:0:0:0:
64,192,33299,1,0,0:0:0:0:
448,192,33357,1,0,0:0:0:0:
192,192,33357,1,0,0:0:0:0:
320,192,33415,1,0,0:0:0:0:
448,192,33473,1,0,0:0:0:0:
192,192,33531,1,0,0:0:0:0:
320,192,33589,1,0,0:0:0:0:
64,192,33589,1,0,0:0:0:0:
448,192,33646,1,0,0:0:0:0:
192,192,33704,1,0,0:0:0:0:
320,192,33762,1,0,0:0:0:0:
448,192,33820,1,0,0:0:0:0:
64,192,33820,1,0,0:0:0:0:
192,192,33878,1,0,0:0:0:0:
64,192,33936,1,0,0:0:0:0:
320,192,33994,1,0,0:0:0:0:
448,192,34052,1,0,0:0:0:0:
192,192,34052,1,0,0:0:0:0:
320,192,34110,1,0,0:0:0:0:
64,192,34168,1,0,0:0:0:0:
192,192,34226,1,0,0:0:0:0:
448,192,34284,1,0,0:0:0:0:
320,192,34284,1,0,0:0:0:0:
64,192,34322,1,0,0:0:0:0:
320,192,34361,1,0,0:0:0:0:
192,192,34399,1,0,0:0:0:0:
448,192,34438,1,0,0:0:0:0:
64,192,34476,1,0,0:0:0:0:
320,192,34515,1,0,0:0:0:0:
192,192,34573,1,0,0:0:0:0:
320,192,34631,1,0,0:0:0:0:
192,192,34689,1,0,0:0:0:0:
448,192,34747,1,0,0:0:0:0:
320,192,34747,1,0,0:0:0:0:
64,192,34805,1,0,0:0:0:0:
448,192,34863,1,0,0:0:0:0:
192,192,34921,1,0,0:0:0:0:
448,192,34979,1,0,0:0:0:0:
320,192,34979,1,0,0:0:0:0:
64,192,35036,1,0,0:0:0:0:
192,192,35094,1,0,0:0:0:0:
320,192,35152,1,0,0:0:0:0:
448,192,35210,1,0,0:0:0:0:
64,192,35210,1,0,0:0:0:0:
192,192,35268,1,0,0:0:0:0:
320,192,35326,1,0,0:0:0:0:
192,192,35384,1,0,0:0:0:0:
320,192,35442,1,0,0:0:0:0:
64,192,35442,1,0,0:0:0:0:
448,192,35500,1,0,0:0:0:0:
192,192,35558,1,0,0:0:0:0:
320,192,35616,1,0,0:0:0:0:
448,192,35674,1,0,0:0:0:0:
192,192,35674,1,0,0:0:0:0:
64,192,35731,1,0,0:0:0:0:
320,192,35789,1,0,0:0:0:0:
192,192,35847,1,0,0:0:0:0:
448,192,35905,1,0,0:0:0:0:
320,192,35905,1,0,0:0:0:0:
192,192,35963,1,0,0:0:0:0:
320,192,36021,1,0,0:0:0:0:
64,192,36021,1,0,0:0:0:0:
192,192,36079,1,0,0:0:0:0:
448,192,36136,1,0,0:0:0:0:
320,192,36136,1,0,0:0:0:0:
64,192,36176,1,0,0:0:0:0:
448,192,36214,1,0,0:0:0:0:
320,192,36253,1,0,0:0:0:0:
192,192,36291,1,0,0:0:0:0:
448,192,36330,1,0,0:0:0:0:
64,192,36369,1,0,0:0:0:0:
192,192,36407,1,0,0:0:0:0:
320,192,36446,1,0,0:0:0:0:
448,192,36484,1,0,0:0:0:0:
320,192,36542,1,0,0:0:0:0:
192,192,36600,1,0,0:0:0:0:
64,192,36639,1,0,0:0:0:0:
448,192,36658,1,0,0:0:0:0:
320,192,36716,1,0,0:0:0:0:
192,192,36754,1,0,0:0:0:0:
64,192,36774,1,0,0:0:0:0:
448,192,36831,1,0,0:0:0:0:
320,192,36871,1,0,0:0:0:0:
64,192,36890,1,0,0:0:0:0:
448,192,36948,1,0,0:0:0:0:
320,192,36986,1,0,0:0:0:0:
448,192,37064,1,0,0:0:0:0:
64,192,37064,1,0,0:0:0:0:
192,192,37102,1,0,0:0:0:0:
320,192,37141,1,0,0:0:0:0:
64,192,37179,1,0,0:0:0:0:
448,192,37218,1,0,0:0:0:0:
192,192,37256,1,0,0:0:0:0:
320,192,37295,1,0,0:0:0:0:
64,192,37334,1,0,0:0:0:0:
448,192,37372,1,0,0:0:0:0:
320,192,37411,1,0,0:0:0:0:
192,192,37449,1,0,0:0:0:0:
448,192,37488,1,0,0:0:0:0:
64,192,37526,1,0,0:0:0:0:
192,192,37565,1,0,0:0:0:0:
320,192,37604,1,0,0:0:0:0:
448,192,37643,1,0,0:0:0:0:
64,192,37681,1,0,0:0:0:0:
320,192,37720,1,0,0:0:0:0:
192,192,37759,1,0,0:0:0:0:
64,192,37797,1,0,0:0:0:0:
448,192,37836,1,0,0:0:0:0:
320,192,37874,1,0,0:0:0:0:
192,192,37913,1,0,0:0:0:0:
64,192,37951,1,0,0:0:0:0:
448,192,37996,1,0,0:0:0:0:
320,192,38034,1,0,0:0:0:0:
192,192,38073,1,0,0:0:0:0:
448,192,38111,1,0,0:0:0:0:
192,192,38149,1,0,0:0:0:0:
320,192,38189,1,0,0:0:0:0:
448,192,38227,1,0,0:0:0:0:
192,192,38260,1,0,0:0:0:0:
320,192,38299,1,0,0:0:0:0:
192,192,38338,1,0,0:0:0:0:
448,192,38376,1,0,0:0:0:0:
64,192,38415,1,0,0:0:0:0:
192,192,38454,1,0,0:0:0:0:
320,192,38492,1,0,0:0:0:0:
64,192,38531,1,0,0:0:0:0:
448,192,38569,1,0,0:0:0:0:
320,192,38608,1,0,0:0:0:0:
192,192,38646,1,0,0:0:0:0:
64,192,38685,1,0,0:0:0:0:
448,192,38724,1,0,0:0:0:0:
320,192,38762,1,0,0:0:0:0:
192,192,38801,1,0,0:0:0:0:
64,192,38839,1,0,0:0:0:0:
448,192,38878,1,0,0:0:0:0:
192,192,38916,1,0,0:0:0:0:
320,192,38955,1,0,0:0:0:0:
448,192,38994,1,0,0:0:0:0:
64,192,39033,1,0,0:0:0:0:
192,192,39071,1,0,0:0:0:0:
320,192,39110,1,0,0:0:0:0:
448,192,39149,1,0,0:0:0:0:
64,192,39187,1,0,0:0:0:0:
192,192,39226,1,0,0:0:0:0:
320,192,39264,1,0,0:0:0:0:
448,192,39303,1,0,0:0:0:0:
192,192,39341,1,0,0:0:0:0:
64,192,39380,1,0,0:0:0:0:
320,192,39419,1,0,0:0:0:0:
192,192,39457,1,0,0:0:0:0:
448,192,39496,1,0,0:0:0:0:
320,192,39534,1,0,0:0:0:0:
192,192,39573,1,0,0:0:0:0:
64,192,39617,1,0,0:0:0:0:
448,192,39655,1,0,0:0:0:0:
320,192,39694,1,0,0:0:0:0:
64,192,39733,1,0,0:0:0:0:
192,192,39771,1,0,0:0:0:0:
320,192,39810,1,0,0:0:0:0:
64,192,39849,1,0,0:0:0:0:
448,192,39886,1,0,0:0:0:0:
320,192,39926,1,0,0:0:0:0:
64,192,39964,1,0,0:0:0:0:
192,192,40003,1,0,0:0:0:0:
320,192,40042,1,0,0:0:0:0:
64,192,40081,1,0,0:0:0:0:
448,192,40114,1,0,0:0:0:0:
320,192,40152,1,0,0:0:0:0:
192,192,40191,1,0,0:0:0:0:
448,192,40229,1,0,0:0:0:0:
64,192,40268,1,0,0:0:0:0:
192,192,40306,1,0,0:0:0:0:
320,192,40364,1,0,0:0:0:0:
448,192,40422,1,0,0:0:0:0:
192,192,40422,1,0,0:0:0:0:
320,192,40481,1,0,0:0:0:0:
448,192,40539,1,0,0:0:0:0:
64,192,40539,1,0,0:0:0:0:
192,192,40596,1,0,0:0:0:0:
320,192,40654,1,0,0:0:0:0:
64,192,40654,1,0,0:0:0:0:
448,192,40712,1,0,0:0:0:0:
192,192,40770,1,0,0:0:0:0:
320,192,40809,1,0,0:0:0:0:
64,192,40847,1,0,0:0:0:0:
192,192,40886,1,0,0:0:0:0:
448,192,40924,1,0,0:0:0:0:
320,192,40963,1,0,0:0:0:0:
192,192,41001,1,0,0:0:0:0:
448,192,41059,1,0,0:0:0:0:
64,192,41117,1,0,0:0:0:0:
192,192,41156,1,0,0:0:0:0:
448,192,41195,1,0,0:0:0:0:
320,192,41234,1,0,0:0:0:0:
64,192,41272,1,0,0:0:0:0:
192,192,41311,1,0,0:0:0:0:
320,192,41349,1,0,0:0:0:0:
64,192,41407,1,0,0:0:0:0:
448,192,41465,1,0,0:0:0:0:
320,192,41504,1,0,0:0:0:0:
64,192,41542,1,0,0:0:0:0:
192,192,41581,1,0,0:0:0:0:
448,192,41619,1,0,0:0:0:0:
320,192,41658,1,0,0:0:0:0:
192,192,41696,1,0,0:0:0:0:
448,192,41754,1,0,0:0:0:0:
320,192,41812,1,0,0:0:0:0:
192,192,41851,1,0,0:0:0:0:
448,192,41890,1,0,0:0:0:0:
320,192,41929,1,0,0:0:0:0:
64,192,41967,1,0,0:0:0:0:
192,192,42006,1,0,0:0:0:0:
320,192,42044,1,0,0:0:0:0:
64,192,42102,1,0,0:0:0:0:
448,192,42160,1,0,0:0:0:0:
320,192,42218,1,0,0:0:0:0:
192,192,42276,1,0,0:0:0:0:
64,192,42334,1,0,0:0:0:0:
192,192,42391,1,0,0:0:0:0:
320,192,42449,1,0,0:0:0:0:
448,192,42507,1,0,0:0:0:0:
64,192,42507,1,0,0:0:0:0:
192,192,42536,1,0,0:0:0:0:
320,192,42565,1,0,0:0:0:0:
64,192,42594,1,0,0:0:0:0:
448,192,42624,1,0,0:0:0:0:
320,192,42739,1,0,0:0:0:0:
192,192,42855,1,0,0:0:0:0:
320,192,42971,1,0,0:0:0:0:
448,192,43086,1,0,0:0:0:0:
64,192,43086,1,0,0:0:0:0:
192,192,43202,1,0,0:0:0:0:
320,192,43319,1,0,0:0:0:0:
192,192,43376,1,0,0:0:0:0:
448,192,43434,1,0,0:0:0:0:
64,192,43492,1,0,0:0:0:0:
448,192,43550,1,0,0:0:0:0:
64,192,43608,1,0,0:0:0:0:
448,192,43666,1,0,0:0:0:0:
64,192,43724,1,0,0:0:0:0:
448,192,43781,1,0,0:0:0:0:
64,192,43839,1,0,0:0:0:0:
448,192,43897,1,0,0:0:0:0:
64,192,43955,1,0,0:0:0:0:
448,192,44014,1,0,0:0:0:0:
320,192,44014,1,0,0:0:0:0:
192,192,44129,1,0,0:0:0:0:
320,192,44187,1,0,0:0:0:0:
64,192,44245,1,0,0:0:0:0:
320,192,44303,1,0,0:0:0:0:
192,192,44361,1,0,0:0:0:0:
320,192,44419,1,0,0:0:0:0:
64,192,44476,1,0,0:0:0:0:
448,192,44592,1,0,0:0:0:0:
192,192,44708,1,0,0:0:0:0:
448,192,44824,1,0,0:0:0:0:
192,192,44940,1,0,0:0:0:0:
64,192,44940,1,0,0:0:0:0:
320,192,45056,1,0,0:0:0:0:
64,192,45171,1,0,0:0:0:0:
448,192,45229,1,0,0:0:0:0:
320,192,45287,1,0,0:0:0:0:
192,192,45345,1,0,0:0:0:0:
320,192,45403,1,0,0:0:0:0:
192,192,45461,1,0,0:0:0:0:
320,192,45519,1,0,0:0:0:0:
192,192,45577,1,0,0:0:0:0:
64,192,45635,1,0,0:0:0:0:
448,192,45751,1,0,0:0:0:0:
320,192,45866,1,0,0:0:0:0:
64,192,45866,1,0,0:0:0:0:
192,192,45982,1,0,0:0:0:0:
320,192,46040,1,0,0:0:0:0:
64,192,46098,1,0,0:0:0:0:
448,192,46156,1,0,0:0:0:0:
192,192,46214,1,0,0:0:0:0:
320,192,46272,1,0,0:0:0:0:
448,192,46330,1,0,0:0:0:0:
192,192,46330,1,0,0:0:0:0:
320,192,46561,1,0,0:0:0:0:
192,192,46561,1,0,0:0:0:0:
448,192,46793,1,0,0:0:0:0:
64,192,46793,1,0,0:0:0:0:
192,192,47025,1,0,0:0:0:0:
64,192,47025,1,0,0:0:0:0:
320,192,47256,1,0,0:0:0:0:
64,192,47256,1,0,0:0:0:0:
320,192,47488,1,0,0:0:0:0:
192,192,47488,1,0,0:0:0:0:
448,192,47720,1,0,0:0:0:0:
192,192,47720,1,0,0:0:0:0:
448,192,47951,1,0,0:0:0:0:
320,192,47951,1,0,0:0:0:0:
320,192,48183,1,0,0:0:0:0:
64,192,48183,1,0,0:0:0:0:
320,192,48415,1,0,0:0:0:0:
192,192,48415,1,0,0:0:0:0:
448,192,48646,1,0,0:0:0:0:
192,192,48646,1,0,0:0:0:0:
448,192,48878,1,0,0:0:0:0:
320,192,48878,1,0,0:0:0:0:
448,192,49110,1,0,0:0:0:0:
64,192,49110,1,0,0:0:0:0:
448,192,49341,1,0,0:0:0:0:
192,192,49341,1,0,0:0:0:0:
448,192,49573,1,0,0:0:0:0:
320,192,49573,1,0,0:0:0:0:
448,192,49805,1,0,0:0:0:0:
320,192,49921,1,0,0:0:0:0:
448,192,50036,1,0,0:0:0:0:
64,192,50036,1,0,0:0:0:0:
192,192,50268,1,0,0:0:0:0:
64,192,50268,1,0,0:0:0:0:
448,192,50500,1,0,0:0:0:0:
192,192,50500,1,0,0:0:0:0:
320,192,50731,1,0,0:0:0:0:
192,192,50731,1,0,0:0:0:0:
64,192,50963,1,0,0:0:0:0:
448,192,51195,1,0,0:0:0:0:
320,192,51426,1,0,0:0:0:0:
192,192,51542,1,0,0:0:0:0:
448,192,51658,1,0,0:0:0:0:
64,192,51890,1,0,0:0:0:0:
320,192,52353,1,0,0:0:0:0:
192,192,52469,1,0,0:0:0:0:
320,192,52585,1,0,0:0:0:0:
448,192,52816,1,0,0:0:0:0:
192,192,52816,1,0,0:0:0:0:
320,192,52932,1,0,0:0:0:0:
448,192,53048,1,0,0:0:0:0:
192,192,53279,1,0,0:0:0:0:
64,192,53396,1,0,0:0:0:0:
192,192,53511,1,0,0:0:0:0:
448,192,53743,1,0,0:0:0:0:
192,192,53743,1,0,0:0:0:0:
320,192,53974,1,0,0:0:0:0:
192,192,53974,1,0,0:0:0:0:
448,192,54206,1,0,0:0:0:0:
64,192,54206,1,0,0:0:0:0:
192,192,54438,1,0,0:0:0:0:
64,192,54438,1,0,0:0:0:0:
320,192,54669,1,0,0:0:0:0:
64,192,54669,1,0,0:0:0:0:
320,192,54901,1,0,0:0:0:0:
192,192,54901,1,0,0:0:0:0:
448,192,55133,1,0,0:0:0:0:
192,192,55133,1,0,0:0:0:0:
448,192,55364,1,0,0:0:0:0:
320,192,55364,1,0,0:0:0:0:
320,192,55596,1,0,0:0:0:0:
64,192,55596,1,0,0:0:0:0:
320,192,55828,1,0,0:0:0:0:
192,192,55828,1,0,0:0:0:0:
448,192,56059,1,0,0:0:0:0:
192,192,56059,1,0,0:0:0:0:
448,192,56291,1,0,0:0:0:0:
320,192,56291,1,0,0:0:0:0:
448,192,56523,1,0,0:0:0:0:
64,192,56523,1,0,0:0:0:0:
448,192,56754,1,0,0:0:0:0:
192,192,56754,1,0,0:0:0:0:
448,192,56986,1,0,0:0:0:0:
320,192,56986,1,0,0:0:0:0:
448,192,57218,1,0,0:0:0:0:
320,192,57334,1,0,0:0:0:0:
448,192,57449,1,0,0:0:0:0:
64,192,57449,1,0,0:0:0:0:
192,192,57681,1,0,0:0:0:0:
64,192,57681,1,0,0:0:0:0:
448,192,57913,1,0,0:0:0:0:
192,192,57913,1,0,0:0:0:0:
320,192,58144,1,0,0:0:0:0:
192,192,58144,1,0,0:0:0:0:
64,192,58376,1,0,0:0:0:0:
448,192,58608,1,0,0:0:0:0:
320,192,58839,1,0,0:0:0:0:
192,192,58955,1,0,0:0:0:0:
448,192,59071,1,0,0:0:0:0:
64,192,59303,1,0,0:0:0:0:
192,192,59650,1,0,0:0:0:0:
448,192,59998,128,0,61040:0:0:0:0:
64,192,59998,128,0,61040:0:0:0:0:
320,192,60229,1,0,0:0:0:0:
192,192,60345,1,0,0:0:0:0:
320,192,60461,1,0,0:0:0:0:
192,192,60693,1,0,0:0:0:0:
320,192,60809,1,0,0:0:0:0:
192,192,60924,1,0,0:0:0:0:
448,192,62083,1,0,0:0:0:0:
320,192,62083,1,0,0:0:0:0:
64,192,62083,1,0,0:0:0:0:
192,192,62141,1,0,0:0:0:0:
448,192,62199,1,0,0:0:0:0:
320,192,62199,1,0,0:0:0:0:
64,192,62256,1,0,0:0:0:0:
448,192,62314,1,0,0:0:0:0:
192,192,62314,1,0,0:0:0:0:
320,192,62372,1,0,0:0:0:0:
192,192,62430,1,0,0:0:0:0:
64,192,62430,1,0,0:0:0:0:
320,192,62488,1,0,0:0:0:0:
448,192,62546,1,0,0:0:0:0:
64,192,62546,1,0,0:0:0:0:
192,192,62604,1,0,0:0:0:0:
448,192,62662,1,0,0:0:0:0:
320,192,62662,1,0,0:0:0:0:
192,192,62720,1,0,0:0:0:0:
320,192,62778,1,0,0:0:0:0:
64,192,62778,1,0,0:0:0:0:
192,192,62836,1,0,0:0:0:0:
448,192,62894,1,0,0:0:0:0:
320,192,62894,1,0,0:0:0:0:
64,192,62951,1,0,0:0:0:0:
448,192,63009,1,0,0:0:0:0:
192,192,63009,1,0,0:0:0:0:
320,192,63067,1,0,0:0:0:0:
192,192,63125,1,0,0:0:0:0:
64,192,63125,1,0,0:0:0:0:
448,192,63183,1,0,0:0:0:0:
320,192,63241,1,0,0:0:0:0:
192,192,63241,1,0,0:0:0:0:
64,192,63299,1,0,0:0:0:0:
448,192,63357,1,0,0:0:0:0:
320,192,63357,1,0,0:0:0:0:
192,192,63415,1,0,0:0:0:0:
448,192,63473,1,0,0:0:0:0:
64,192,63473,1,0,0:0:0:0:
320,192,63531,1,0,0:0:0:0:
448,192,63589,1,0,0:0:0:0:
192,192,63589,1,0,0:0:0:0:
320,192,63646,1,0,0:0:0:0:
192,192,63704,1,0,0:0:0:0:
64,192,63704,1,0,0:0:0:0:
448,192,63762,1,0,0:0:0:0:
320,192,63820,1,0,0:0:0:0:
64,192,63820,1,0,0:0:0:0:
192,192,63878,1,0,0:0:0:0:
448,192,63936,1,0,0:0:0:0:
320,192,63936,1,0,0:0:0:0:
64,192,63936,1,0,0:0:0:0:
192,192,63994,1,0,0:0:0:0:
448,192,64052,1,0,0:0:0:0:
320,192,64052,1,0,0:0:0:0:
192,192,64110,1,0,0:0:0:0:
448,192,64168,1,0,0:0:0:0:
64,192,64168,1,0,0:0:0:0:
320,192,64226,1,0,0:0:0:0:
448,192,64284,1,0,0:0:0:0:
192,192,64284,1,0,0:0:0:0:
320,192,64341,1,0,0:0:0:0:
192,192,64399,1,0,0:0:0:0:
64,192,64399,1,0,0:0:0:0:
448,192,64457,1,0,0:0:0:0:
320,192,64515,1,0,0:0:0:0:
64,192,64515,1,0,0:0:0:0:
192,192,64573,1,0,0:0:0:0:
448,192,64631,1,0,0:0:0:0:
320,192,64631,1,0,0:0:0:0:
64,192,64689,1,0,0:0:0:0:
320,192,64747,1,0,0:0:0:0:
192,192,64747,1,0,0:0:0:0:
448,192,64805,1,0,0:0:0:0:
320,192,64863,1,0,0:0:0:0:
192,192,64863,1,0,0:0:0:0:
64,192,64863,1,0,0:0:0:0:
448,192,64921,1,0,0:0:0:0:
320,192,64979,1,0,0:0:0:0:
64,192,64979,1,0,0:0:0:0:
192,192,65036,1,0,0:0:0:0:
448,192,65094,1,0,0:0:0:0:
320,192,65094,1,0,0:0:0:0:
192,192,65152,1,0,0:0:0:0:
448,192,65210,1,0,0:0:0:0:
64,192,65210,1,0,0:0:0:0:
192,192,65268,1,0,0:0:0:0:
320,192,65331,1,0,0:0:0:0:
192,192,65360,1,0,0:0:0:0:
320,192,65447,1,0,0:0:0:0:
192,192,65476,1,0,0:0:0:0:
64,192,65563,1,0,0:0:0:0:
320,192,65592,1,0,0:0:0:0:
64,192,65679,1,0,0:0:0:0:
320,192,65708,1,0,0:0:0:0:
448,192,65789,1,0,0:0:0:0:
320,192,65789,1,0,0:0:0:0:
192,192,65789,1,0,0:0:0:0:
64,192,65847,1,0,0:0:0:0:
320,192,65905,1,0,0:0:0:0:
192,192,65905,1,0,0:0:0:0:
448,192,65963,1,0,0:0:0:0:
320,192,66021,1,0,0:0:0:0:
64,192,66021,1,0,0:0:0:0:
192,192,66079,1,0,0:0:0:0:
448,192,66136,1,0,0:0:0:0:
320,192,66136,1,0,0:0:0:0:
64,192,66136,1,0,0:0:0:0:
192,192,66195,1,0,0:0:0:0:
448,192,66253,1,0,0:0:0:0:
320,192,66253,1,0,0:0:0:0:
192,192,66311,1,0,0:0:0:0:
320,192,66369,1,0,0:0:0:0:
64,192,66369,1,0,0:0:0:0:
192,192,66426,1,0,0:0:0:0:
448,192,66484,1,0,0:0:0:0:
320,192,66484,1,0,0:0:0:0:
64,192,66542,1,0,0:0:0:0:
448,192,66600,1,0,0:0:0:0:
192,192,66639,1,0,0:0:0:0:
320,192,66677,1,0,0:0:0:0:
64,192,66716,1,0,0:0:0:0:
448,192,66754,1,0,0:0:0:0:
320,192,66793,1,0,0:0:0:0:
192,192,66831,1,0,0:0:0:0:
64,192,66831,1,0,0:0:0:0:
448,192,66890,1,0,0:0:0:0:
320,192,66948,1,0,0:0:0:0:
192,192,66948,1,0,0:0:0:0:
64,192,67006,1,0,0:0:0:0:
320,192,67064,1,0,0:0:0:0:
192,192,67064,1,0,0:0:0:0:
448,192,67121,1,0,0:0:0:0:
320,192,67179,1,0,0:0:0:0:
64,192,67179,1,0,0:0:0:0:
192,192,67237,1,0,0:0:0:0:
320,192,67295,1,0,0:0:0:0:
64,192,67295,1,0,0:0:0:0:
192,192,67353,1,0,0:0:0:0:
448,192,67411,1,0,0:0:0:0:
320,192,67411,1,0,0:0:0:0:
64,192,67469,1,0,0:0:0:0:
448,192,67526,1,0,0:0:0:0:
192,192,67526,1,0,0:0:0:0:
320,192,67585,1,0,0:0:0:0:
448,192,67643,1,0,0:0:0:0:
192,192,67643,1,0,0:0:0:0:
320,192,67681,1,0,0:0:0:0:
64,192,67720,1,0,0:0:0:0:
448,192,67759,1,0,0:0:0:0:
192,192,67797,1,0,0:0:0:0:
320,192,67836,1,0,0:0:0:0:
64,192,67874,1,0,0:0:0:0:
192,192,67913,1,0,0:0:0:0:
320,192,67951,1,0,0:0:0:0:
64,192,67990,1,0,0:0:0:0:
448,192,68029,1,0,0:0:0:0:
192,192,68067,1,0,0:0:0:0:
320,192,68106,1,0,0:0:0:0:
448,192,68144,1,0,0:0:0:0:
64,192,68183,1,0,0:0:0:0:
320,192,68221,1,0,0:0:0:0:
192,192,68260,1,0,0:0:0:0:
448,192,68299,1,0,0:0:0:0:
64,192,68338,1,0,0:0:0:0:
192,192,68376,1,0,0:0:0:0:
320,192,68415,1,0,0:0:0:0:
448,192,68454,1,0,0:0:0:0:
64,192,68492,1,0,0:0:0:0:
320,192,68531,1,0,0:0:0:0:
192,192,68569,1,0,0:0:0:0:
448,192,68608,1,0,0:0:0:0:
64,192,68646,1,0,0:0:0:0:
320,192,68685,1,0,0:0:0:0:
192,192,68724,1,0,0:0:0:0:
64,192,68762,1,0,0:0:0:0:
448,192,68801,1,0,0:0:0:0:
320,192,68839,1,0,0:0:0:0:
192,192,68878,1,0,0:0:0:0:
448,192,68916,1,0,0:0:0:0:
64,192,68955,1,0,0:0:0:0:
320,192,68994,1,0,0:0:0:0:
192,192,69033,1,0,0:0:0:0:
448,192,69071,1,0,0:0:0:0:
64,192,69110,1,0,0:0:0:0:
192,192,69149,1,0,0:0:0:0:
320,192,69187,1,0,0:0:0:0:
448,192,69226,1,0,0:0:0:0:
192,192,69264,1,0,0:0:0:0:
320,192,69303,1,0,0:0:0:0:
64,192,69341,1,0,0:0:0:0:
448,192,69380,1,0,0:0:0:0:
320,192,69496,1,0,0:0:0:0:
192,192,69496,1,0,0:0:0:0:
64,192,69496,1,0,0:0:0:0:
448,192,69554,1,0,0:0:0:0:
320,192,69611,1,0,0:0:0:0:
192,192,69611,1,0,0:0:0:0:
64,192,69669,1,0,0:0:0:0:
448,192,69728,1,0,0:0:0:0:
192,192,69728,1,0,0:0:0:0:
320,192,69786,1,0,0:0:0:0:
448,192,69844,1,0,0:0:0:0:
192,192,69844,1,0,0:0:0:0:
64,192,69844,1,0,0:0:0:0:
320,192,69901,1,0,0:0:0:0:
192,192,69959,1,0,0:0:0:0:
64,192,69959,1,0,0:0:0:0:
320,192,70017,1,0,0:0:0:0:
448,192,70075,1,0,0:0:0:0:
192,192,70075,1,0,0:0:0:0:
320,192,70133,1,0,0:0:0:0:
192,192,70191,1,0,0:0:0:0:
64,192,70191,1,0,0:0:0:0:
448,192,70249,1,0,0:0:0:0:
64,192,70306,1,0,0:0:0:0:
320,192,70345,1,0,0:0:0:0:
192,192,70384,1,0,0:0:0:0:
448,192,70422,1,0,0:0:0:0:
64,192,70461,1,0,0:0:0:0:
192,192,70500,1,0,0:0:0:0:
448,192,70539,1,0,0:0:0:0:
320,192,70539,1,0,0:0:0:0:
64,192,70596,1,0,0:0:0:0:
320,192,70654,1,0,0:0:0:0:
192,192,70654,1,0,0:0:0:0:
448,192,70712,1,0,0:0:0:0:
320,192,70770,1,0,0:0:0:0:
192,192,70770,1,0,0:0:0:0:
64,192,70828,1,0,0:0:0:0:
448,192,70886,1,0,0:0:0:0:
192,192,70886,1,0,0:0:0:0:
320,192,70944,1,0,0:0:0:0:
448,192,71001,1,0,0:0:0:0:
192,192,71001,1,0,0:0:0:0:
320,192,71059,1,0,0:0:0:0:
192,192,71117,1,0,0:0:0:0:
64,192,71117,1,0,0:0:0:0:
448,192,71176,1,0,0:0:0:0:
320,192,71234,1,0,0:0:0:0:
64,192,71234,1,0,0:0:0:0:
192,192,71291,1,0,0:0:0:0:
320,192,71349,1,0,0:0:0:0:
64,192,71349,1,0,0:0:0:0:
192,192,71388,1,0,0:0:0:0:
448,192,71426,1,0,0:0:0:0:
64,192,71465,1,0,0:0:0:0:
320,192,71504,1,0,0:0:0:0:
192,192,71542,1,0,0:0:0:0:
448,192,71581,1,0,0:0:0:0:
320,192,71619,1,0,0:0:0:0:
192,192,71658,1,0,0:0:0:0:
448,192,71696,1,0,0:0:0:0:
64,192,71735,1,0,0:0:0:0:
320,192,71774,1,0,0:0:0:0:
192,192,71812,1,0,0:0:0:0:
64,192,71851,1,0,0:0:0:0:
448,192,71890,1,0,0:0:0:0:
192,192,71929,1,0,0:0:0:0:
320,192,71967,1,0,0:0:0:0:
64,192,72006,1,0,0:0:0:0:
448,192,72044,1,0,0:0:0:0:
320,192,72083,1,0,0:0:0:0:
192,192,72121,1,0,0:0:0:0:
64,192,72160,1,0,0:0:0:0:
448,192,72199,1,0,0:0:0:0:
192,192,72237,1,0,0:0:0:0:
320,192,72276,1,0,0:0:0:0:
64,192,72314,1,0,0:0:0:0:
448,192,72353,1,0,0:0:0:0:
192,192,72391,1,0,0:0:0:0:
320,192,72430,1,0,0:0:0:0:
448,192,72469,1,0,0:0:0:0:
64,192,72507,1,0,0:0:0:0:
192,192,72546,1,0,0:0:0:0:
320,192,72585,1,0,0:0:0:0:
64,192,72624,1,0,0:0:0:0:
448,192,72662,1,0,0:0:0:0:
192,192,72701,1,0,0:0:0:0:
320,192,72739,1,0,0:0:0:0:
64,192,72778,1,0,0:0:0:0:
448,192,72816,1,0,0:0:0:0:
320,192,72855,1,0,0:0:0:0:
192,192,72894,1,0,0:0:0:0:
64,192,72932,1,0,0:0:0:0:
320,192,72971,1,0,0:0:0:0:
192,192,73009,1,0,0:0:0:0:
448,192,73048,1,0,0:0:0:0:
64,192,73086,1,0,0:0:0:0:
448,192,73202,1,0,0:0:0:0:
320,192,73202,1,0,0:0:0:0:
64,192,73202,1,0,0:0:0:0:
448,192,73434,1,0,0:0:0:0:
320,192,73434,1,0,0:0:0:0:
192,192,73434,1,0,0:0:0:0:
320,192,73666,1,0,0:0:0:0:
192,192,73666,1,0,0:0:0:0:
64,192,73666,1,0,0:0:0:0:
448,192,73897,1,0,0:0:0:0:
320,192,73897,1,0,0:0:0:0:
64,192,73897,1,0,0:0:0:0:
448,192,74129,1,0,0:0:0:0:
192,192,74129,1,0,0:0:0:0:
64,192,74129,1,0,0:0:0:0:
320,192,74245,1,0,0:0:0:0:
192,192,74303,1,0,0:0:0:0:
64,192,74361,1,0,0:0:0:0:
448,192,74592,1,0,0:0:0:0:
320,192,74592,1,0,0:0:0:0:
448,192,74824,1,0,0:0:0:0:
320,192,74824,1,0,0:0:0:0:
448,192,74940,1,0,0:0:0:0:
320,192,74940,1,0,0:0:0:0:
448,192,75056,1,0,0:0:0:0:
64,192,75056,1,0,0:0:0:0:
192,192,75094,1,0,0:0:0:0:
320,192,75133,1,0,0:0:0:0:
64,192,75171,1,0,0:0:0:0:
448,192,75210,1,0,0:0:0:0:
192,192,75249,1,0,0:0:0:0:
320,192,75287,1,0,0:0:0:0:
64,192,75326,1,0,0:0:0:0:
448,192,75364,1,0,0:0:0:0:
320,192,75403,1,0,0:0:0:0:
192,192,75442,1,0,0:0:0:0:
448,192,75481,1,0,0:0:0:0:
64,192,75519,1,0,0:0:0:0:
192,192,75558,1,0,0:0:0:0:
320,192,75596,1,0,0:0:0:0:
448,192,75635,1,0,0:0:0:0:
64,192,75674,1,0,0:0:0:0:
320,192,75712,1,0,0:0:0:0:
192,192,75751,1,0,0:0:0:0:
64,192,75789,1,0,0:0:0:0:
448,192,75828,1,0,0:0:0:0:
320,192,75866,1,0,0:0:0:0:
192,192,75905,1,0,0:0:0:0:
64,192,75944,1,0,0:0:0:0:
448,192,75988,1,0,0:0:0:0:
320,192,76026,1,0,0:0:0:0:
192,192,76065,1,0,0:0:0:0:
448,192,76104,1,0,0:0:0:0:
192,192,76141,1,0,0:0:0:0:
320,192,76181,1,0,0:0:0:0:
448,192,76219,1,0,0:0:0:0:
192,192,76253,1,0,0:0:0:0:
320,192,76291,1,0,0:0:0:0:
192,192,76330,1,0,0:0:0:0:
448,192,76369,1,0,0:0:0:0:
64,192,76407,1,0,0:0:0:0:
192,192,76446,1,0,0:0:0:0:
320,192,76484,1,0,0:0:0:0:
64,192,76523,1,0,0:0:0:0:
448,192,76561,1,0,0:0:0:0:
320,192,76600,1,0,0:0:0:0:
192,192,76639,1,0,0:0:0:0:
64,192,76677,1,0,0:0:0:0:
448,192,76716,1,0,0:0:0:0:
320,192,76754,1,0,0:0:0:0:
192,192,76793,1,0,0:0:0:0:
64,192,76831,1,0,0:0:0:0:
448,192,76871,1,0,0:0:0:0:
192,192,76909,1,0,0:0:0:0:
320,192,76948,1,0,0:0:0:0:
448,192,76986,1,0,0:0:0:0:
64,192,77025,1,0,0:0:0:0:
192,192,77064,1,0,0:0:0:0:
320,192,77102,1,0,0:0:0:0:
448,192,77141,1,0,0:0:0:0:
64,192,77179,1,0,0:0:0:0:
192,192,77218,1,0,0:0:0:0:
320,192,77256,1,0,0:0:0:0:
448,192,77295,1,0,0:0:0:0:
192,192,77334,1,0,0:0:0:0:
64,192,77372,1,0,0:0:0:0:
320,192,77411,1,0,0:0:0:0:
192,192,77449,1,0,0:0:0:0:
448,192,77488,1,0,0:0:0:0:
320,192,77526,1,0,0:0:0:0:
192,192,77565,1,0,0:0:0:0:
64,192,77609,1,0,0:0:0:0:
448,192,77647,1,0,0:0:0:0:
320,192,77686,1,0,0:0:0:0:
64,192,77725,1,0,0:0:0:0:
192,192,77764,1,0,0:0:0:0:
320,192,77802,1,0,0:0:0:0:
64,192,77841,1,0,0:0:0:0:
448,192,77879,1,0,0:0:0:0:
320,192,77919,1,0,0:0:0:0:
64,192,77957,1,0,0:0:0:0:
192,192,77995,1,0,0:0:0:0:
320,192,78034,1,0,0:0:0:0:
64,192,78073,1,0,0:0:0:0:
448,192,78106,1,0,0:0:0:0:
320,192,78144,1,0,0:0:0:0:
192,192,78183,1,0,0:0:0:0:
448,192,78221,1,0,0:0:0:0:
64,192,78260,1,0,0:0:0:0:
320,192,78299,1,0,0:0:0:0:
192,192,78357,1,0,0:0:0:0:
320,192,78415,1,0,0:0:0:0:
448,192,78473,1,0,0:0:0:0:
320,192,78531,1,0,0:0:0:0:
192,192,78589,1,0,0:0:0:0:
320,192,78646,1,0,0:0:0:0:
448,192,78704,1,0,0:0:0:0:
320,192,78762,1,0,0:0:0:0:
64,192,78762,1,0,0:0:0:0:
192,192,78820,1,0,0:0:0:0:
64,192,78878,1,0,0:0:0:0:
320,192,78936,1,0,0:0:0:0:
448,192,78994,1,0,0:0:0:0:
192,192,78994,1,0,0:0:0:0:
64,192,79052,1,0,0:0:0:0:
320,192,79110,1,0,0:0:0:0:
192,192,79168,1,0,0:0:0:0:
448,192,79226,1,0,0:0:0:0:
64,192,79226,1,0,0:0:0:0:
320,192,79284,1,0,0:0:0:0:
448,192,79341,1,0,0:0:0:0:
192,192,79399,1,0,0:0:0:0:
320,192,79457,1,0,0:0:0:0:
64,192,79457,1,0,0:0:0:0:
192,192,79515,1,0,0:0:0:0:
448,192,79573,1,0,0:0:0:0:
320,192,79631,1,0,0:0:0:0:
192,192,79689,1,0,0:0:0:0:
64,192,79689,1,0,0:0:0:0:
448,192,79728,1,0,0:0:0:0:
192,192,79766,1,0,0:0:0:0:
320,192,79805,1,0,0:0:0:0:
64,192,79844,1,0,0:0:0:0:
448,192,79882,1,0,0:0:0:0:
192,192,79921,1,0,0:0:0:0:
320,192,79979,1,0,0:0:0:0:
192,192,80036,1,0,0:0:0:0:
320,192,80094,1,0,0:0:0:0:
192,192,80152,1,0,0:0:0:0:
64,192,80152,1,0,0:0:0:0:
448,192,80210,1,0,0:0:0:0:
64,192,80268,1,0,0:0:0:0:
320,192,80326,1,0,0:0:0:0:
192,192,80384,1,0,0:0:0:0:
64,192,80384,1,0,0:0:0:0:
448,192,80442,1,0,0:0:0:0:
320,192,80500,1,0,0:0:0:0:
192,192,80558,1,0,0:0:0:0:
448,192,80616,1,0,0:0:0:0:
64,192,80616,1,0,0:0:0:0:
320,192,80674,1,0,0:0:0:0:
192,192,80731,1,0,0:0:0:0:
320,192,80789,1,0,0:0:0:0:
448,192,80847,1,0,0:0:0:0:
192,192,80847,1,0,0:0:0:0:
64,192,80905,1,0,0:0:0:0:
320,192,80963,1,0,0:0:0:0:
192,192,81021,1,0,0:0:0:0:
320,192,81079,1,0,0:0:0:0:
64,192,81079,1,0,0:0:0:0:
448,192,81136,1,0,0:0:0:0:
192,192,81195,1,0,0:0:0:0:
320,192,81253,1,0,0:0:0:0:
192,192,81311,1,0,0:0:0:0:
64,192,81311,1,0,0:0:0:0:
320,192,81369,1,0,0:0:0:0:
448,192,81426,1,0,0:0:0:0:
192,192,81426,1,0,0:0:0:0:
320,192,81484,1,0,0:0:0:0:
192,192,81542,1,0,0:0:0:0:
64,192,81542,1,0,0:0:0:0:
448,192,81581,1,0,0:0:0:0:
64,192,81619,1,0,0:0:0:0:
192,192,81658,1,0,0:0:0:0:
320,192,81696,1,0,0:0:0:0:
64,192,81735,1,0,0:0:0:0:
448,192,81774,1,0,0:0:0:0:
320,192,81812,1,0,0:0:0:0:
192,192,81851,1,0,0:0:0:0:
64,192,81890,1,0,0:0:0:0:
192,192,81948,1,0,0:0:0:0:
320,192,82006,1,0,0:0:0:0:
448,192,82044,1,0,0:0:0:0:
64,192,82064,1,0,0:0:0:0:
192,192,82121,1,0,0:0:0:0:
320,192,82160,1,0,0:0:0:0:
448,192,82179,1,0,0:0:0:0:
64,192,82237,1,0,0:0:0:0:
192,192,82276,1,0,0:0:0:0:
448,192,82295,1,0,0:0:0:0:
64,192,82353,1,0,0:0:0:0:
192,192,82391,1,0,0:0:0:0:
448,192,82469,1,0,0:0:0:0:
64,192,82469,1,0,0:0:0:0:
320,192,82507,1,0,0:0:0:0:
192,192,82546,1,0,0:0:0:0:
448,192,82585,1,0,0:0:0:0:
64,192,82624,1,0,0:0:0:0:
320,192,82662,1,0,0:0:0:0:
192,192,82701,1,0,0:0:0:0:
448,192,82739,1,0,0:0:0:0:
64,192,82778,1,0,0:0:0:0:
192,192,82816,1,0,0:0:0:0:
320,192,82855,1,0,0:0:0:0:
64,192,82894,1,0,0:0:0:0:
448,192,82932,1,0,0:0:0:0:
320,192,82971,1,0,0:0:0:0:
192,192,83009,1,0,0:0:0:0:
64,192,83048,1,0,0:0:0:0:
448,192,83086,1,0,0:0:0:0:
192,192,83125,1,0,0:0:0:0:
320,192,83164,1,0,0:0:0:0:
448,192,83202,1,0,0:0:0:0:
64,192,83241,1,0,0:0:0:0:
192,192,83279,1,0,0:0:0:0:
320,192,83319,1,0,0:0:0:0:
448,192,83357,1,0,0:0:0:0:
64,192,83401,1,0,0:0:0:0:
192,192,83439,1,0,0:0:0:0:
320,192,83478,1,0,0:0:0:0:
64,192,83516,1,0,0:0:0:0:
320,192,83555,1,0,0:0:0:0:
192,192,83594,1,0,0:0:0:0:
64,192,83633,1,0,0:0:0:0:
320,192,83666,1,0,0:0:0:0:
192,192,83704,1,0,0:0:0:0:
320,192,83743,1,0,0:0:0:0:
64,192,83781,1,0,0:0:0:0:
448,192,83820,1,0,0:0:0:0:
320,192,83859,1,0,0:0:0:0:
192,192,83897,1,0,0:0:0:0:
448,192,83936,1,0,0:0:0:0:
64,192,83974,1,0,0:0:0:0:
192,192,84014,1,0,0:0:0:0:
320,192,84052,1,0,0:0:0:0:
448,192,84091,1,0,0:0:0:0:
64,192,84129,1,0,0:0:0:0:
192,192,84168,1,0,0:0:0:0:
320,192,84206,1,0,0:0:0:0:
448,192,84245,1,0,0:0:0:0:
64,192,84284,1,0,0:0:0:0:
320,192,84322,1,0,0:0:0:0:
192,192,84361,1,0,0:0:0:0:
64,192,84399,1,0,0:0:0:0:
448,192,84438,1,0,0:0:0:0:
320,192,84476,1,0,0:0:0:0:
192,192,84515,1,0,0:0:0:0:
64,192,84554,1,0,0:0:0:0:
448,192,84592,1,0,0:0:0:0:
320,192,84631,1,0,0:0:0:0:
192,192,84669,1,0,0:0:0:0:
64,192,84708,1,0,0:0:0:0:
320,192,84747,1,0,0:0:0:0:
448,192,84786,1,0,0:0:0:0:
192,192,84824,1,0,0:0:0:0:
320,192,84863,1,0,0:0:0:0:
64,192,84901,1,0,0:0:0:0:
192,192,84940,1,0,0:0:0:0:
320,192,84979,1,0,0:0:0:0:
448,192,85022,1,0,0:0:0:0:
64,192,85061,1,0,0:0:0:0:
192,192,85100,1,0,0:0:0:0:
448,192,85139,1,0,0:0:0:0:
320,192,85176,1,0,0:0:0:0:
192,192,85216,1,0,0:0:0:0:
448,192,85254,1,0,0:0:0:0:
64,192,85292,1,0,0:0:0:0:
192,192,85331,1,0,0:0:0:0:
448,192,85370,1,0,0:0:0:0:
320,192,85408,1,0,0:0:0:0:
192,192,85447,1,0,0:0:0:0:
448,192,85486,1,0,0:0:0:0:
64,192,85519,1,0,0:0:0:0:
192,192,85558,1,0,0:0:0:0:
320,192,85596,1,0,0:0:0:0:
64,192,85635,1,0,0:0:0:0:
448,192,85674,1,0,0:0:0:0:
320,192,85712,1,0,0:0:0:0:
192,192,85770,1,0,0:0:0:0:
320,192,85828,1,0,0:0:0:0:
64,192,85828,1,0,0:0:0:0:
192,192,85886,1,0,0:0:0:0:
448,192,85944,1,0,0:0:0:0:
64,192,85944,1,0,0:0:0:0:
320,192,86001,1,0,0:0:0:0:
448,192,86059,1,0,0:0:0:0:
192,192,86059,1,0,0:0:0:0:
64,192,86117,1,0,0:0:0:0:
320,192,86176,1,0,0:0:0:0:
192,192,86214,1,0,0:0:0:0:
448,192,86253,1,0,0:0:0:0:
320,192,86291,1,0,0:0:0:0:
64,192,86330,1,0,0:0:0:0:
192,192,86369,1,0,0:0:0:0:
320,192,86407,1,0,0:0:0:0:
64,192,86465,1,0,0:0:0:0:
448,192,86523,1,0,0:0:0:0:
320,192,86561,1,0,0:0:0:0:
64,192,86600,1,0,0:0:0:0:
192,192,86639,1,0,0:0:0:0:
448,192,86677,1,0,0:0:0:0:
320,192,86716,1,0,0:0:0:0:
192,192,86754,1,0,0:0:0:0:
448,192,86812,1,0,0:0:0:0:
64,192,86871,1,0,0:0:0:0:
192,192,86909,1,0,0:0:0:0:
448,192,86948,1,0,0:0:0:0:
320,192,86986,1,0,0:0:0:0:
64,192,87025,1,0,0:0:0:0:
192,192,87064,1,0,0:0:0:0:
320,192,87102,1,0,0:0:0:0:
64,192,87160,1,0,0:0:0:0:
192,192,87218,1,0,0:0:0:0:
320,192,87256,1,0,0:0:0:0:
64,192,87295,1,0,0:0:0:0:
192,192,87334,1,0,0:0:0:0:
448,192,87372,1,0,0:0:0:0:
320,192,87411,1,0,0:0:0:0:
192,192,87449,1,0,0:0:0:0:
448,192,87507,1,0,0:0:0:0:
64,192,87565,1,0,0:0:0:0:
192,192,87624,1,0,0:0:0:0:
320,192,87681,1,0,0:0:0:0:
448,192,87739,1,0,0:0:0:0:
320,192,87797,1,0,0:0:0:0:
192,192,87855,1,0,0:0:0:0:
448,192,87913,1,0,0:0:0:0:
64,192,87913,1,0,0:0:0:0:
320,192,87942,1,0,0:0:0:0:
192,192,87971,1,0,0:0:0:0:
448,192,88000,1,0,0:0:0:0:
64,192,88029,1,0,0:0:0:0:
192,192,88144,1,0,0:0:0:0:
320,192,88260,1,0,0:0:0:0:
192,192,88376,1,0,0:0:0:0:
448,192,88492,1,0,0:0:0:0:
64,192,88492,1,0,0:0:0:0:
320,192,88608,1,0,0:0:0:0:
192,192,88724,1,0,0:0:0:0:
320,192,88781,1,0,0:0:0:0:
64,192,88839,1,0,0:0:0:0:
448,192,88897,1,0,0:0:0:0:
64,192,88955,1,0,0:0:0:0:
448,192,89014,1,0,0:0:0:0:
64,192,89071,1,0,0:0:0:0:
448,192,89129,1,0,0:0:0:0:
64,192,89187,1,0,0:0:0:0:
448,192,89245,1,0,0:0:0:0:
64,192,89303,1,0,0:0:0:0:
448,192,89361,1,0,0:0:0:0:
192,192,89419,1,0,0:0:0:0:
64,192,89419,1,0,0:0:0:0:
320,192,89534,1,0,0:0:0:0:
192,192,89592,1,0,0:0:0:0:
448,192,89650,1,0,0:0:0:0:
192,192,89708,1,0,0:0:0:0:
320,192,89766,1,0,0:0:0:0:
192,192,89824,1,0,0:0:0:0:
448,192,89882,1,0,0:0:0:0:
64,192,89998,1,0,0:0:0:0:
320,192,90114,1,0,0:0:0:0:
64,192,90229,1,0,0:0:0:0:
448,192,90345,1,0,0:0:0:0:
320,192,90345,1,0,0:0:0:0:
192,192,90461,1,0,0:0:0:0:
448,192,90577,1,0,0:0:0:0:
64,192,90635,1,0,0:0:0:0:
192,192,90693,1,0,0:0:0:0:
320,192,90751,1,0,0:0:0:0:
192,192,90809,1,0,0:0:0:0:
320,192,90866,1,0,0:0:0:0:
192,192,90924,1,0,0:0:0:0:
320,192,90982,1,0,0:0:0:0:
448,192,91040,1,0,0:0:0:0:
64,192,91156,1,0,0:0:0:0:
448,192,91272,1,0,0:0:0:0:
192,192,91272,1,0,0:0:0:0:
320,192,91388,1,0,0:0:0:0:
192,192,91446,1,0,0:0:0:0:
448,192,91504,1,0,0:0:0:0:
64,192,91561,1,0,0:0:0:0:
320,192,91619,1,0,0:0:0:0:
192,192,91677,1,0,0:0:0:0:
320,192,91735,1,0,0:0:0:0:
64,192,91735,1,0,0:0:0:0:
