osu file format v14

[General]
AudioFilename: audio120.mp3
AudioLeadIn: 0
PreviewTime: -1
Countdown: 0
SampleSet: None
StackLeniency: 0.7
Mode: 3
LetterboxInBreaks: 0
SpecialStyle: 0
WidescreenStoryboard: 0

[Editor]
DistanceSpacing: 0.8
BeatDivisor: 3
GridSize: 32
TimelineZoom: 1

[Metadata]
Title:TRAGEDY;ETERNITY
TitleUnicode:TRAGEDY;ETERNITY
Artist:MYTH & ROID
ArtistUnicode:MYTH & ROID
Creator:Yyorshire
Version:Etternaty [1.2x Rate]
Source:eYe's
Tags:gamer
BeatmapID:2333294
BeatmapSetID:1058991

[Difficulty]
HPDrainRate:8
CircleSize:4
OverallDifficulty:8.3
ApproachRate:5
SliderMultiplier:1.4
SliderTickRate:1

[Events]
//Background and Video events
0,0,"tebg.jpg",0,0
//Break Periods
//Storyboard Layer 0 (Background)
//Storyboard Layer 1 (Fail)
//Storyboard Layer 2 (Pass)
//Storyboard Layer 3 (Foreground)
//Storyboard Layer 4 (Overlay)
//Storyboard Sound Samples

[TimingPoints]
2153,270.27027,4,2,0,20,1,0

[HitObjects]
192,192,2153,5,0,0:0:0:0:
448,192,2153,1,0,0:0:0:0:
320,192,2963,1,0,0:0:0:0:
64,192,2963,1,0,0:0:0:0:
192,192,3234,1,0,0:0:0:0:
64,192,3234,1,0,0:0:0:0:
64,192,4045,1,0,0:0:0:0:
192,192,4180,1,0,0:0:0:0:
320,192,4315,1,0,0:0:0:0:
64,192,4450,1,0,0:0:0:0:
320,192,4585,1,0,0:0:0:0:
192,192,4721,1,0,0:0:0:0:
448,192,4856,1,0,0:0:0:0:
192,192,4991,1,0,0:0:0:0:
448,192,5126,1,0,0:0:0:0:
192,192,5261,1,0,0:0:0:0:
448,192,5396,1,0,0:0:0:0:
64,192,5396,1,0,0:0:0:0:
320,192,5667,1,0,0:0:0:0:
192,192,5802,1,0,0:0:0:0:
64,192,5937,1,0,0:0:0:0:
448,192,6478,1,0,0:0:0:0:
320,192,6478,1,0,0:0:0:0:
448,192,7288,1,0,0:0:0:0:
320,192,7288,1,0,0:0:0:0:
448,192,7558,1,0,0:0:0:0:
192,192,7558,1,0,0:0:0:0:
320,192,7828,1,0,0:0:0:0:
448,192,7963,1,0,0:0:0:0:
320,192,8099,1,0,0:0:0:0:
192,192,8234,1,0,0:0:0:0:
320,192,8369,1,0,0:0:0:0:
64,192,8504,1,0,0:0:0:0:
448,192,8639,1,0,0:0:0:0:
192,192,8639,1,0,0:0:0:0:
64,192,9045,1,0,0:0:0:0:
448,192,9450,1,0,0:0:0:0:
64,192,9495,1,0,0:0:0:0:
320,192,9562,1,0,0:0:0:0:
192,192,9630,1,0,0:0:0:0:
448,192,9721,1,0,0:0:0:0:
64,192,9721,1,0,0:0:0:0:
320,192,9788,1,0,0:0:0:0:
192,192,9856,1,0,0:0:0:0:
448,192,9923,1,0,0:0:0:0:
64,192,9991,1,0,0:0:0:0:
320,192,10036,1,0,0:0:0:0:
192,192,10103,1,0,0:0:0:0:
448,192,10171,1,0,0:0:0:0:
320,192,10261,1,0,0:0:0:0:
64,192,10396,1,0,0:0:0:0:
192,192,10532,1,0,0:0:0:0:
64,192,10667,1,0,0:0:0:0:
448,192,10802,1,0,0:0:0:0:
192,192,10802,1,0,0:0:0:0:
320,192,11072,1,0,0:0:0:0:
192,192,11072,1,0,0:0:0:0:
448,192,11342,1,0,0:0:0:0:
64,192,11342,1,0,0:0:0:0:
192,192,11612,1,0,0:0:0:0:
64,192,11612,1,0,0:0:0:0:
320,192,11882,1,0,0:0:0:0:
64,192,11882,1,0,0:0:0:0:
320,192,12152,1,0,0:0:0:0:
192,192,12152,1,0,0:0:0:0:
448,192,12423,1,0,0:0:0:0:
192,192,12423,1,0,0:0:0:0:
448,192,12693,1,0,0:0:0:0:
320,192,12693,1,0,0:0:0:0:
320,192,12963,1,0,0:0:0:0:
64,192,12963,1,0,0:0:0:0:
320,192,13234,1,0,0:0:0:0:
192,192,13234,1,0,0:0:0:0:
448,192,13504,1,0,0:0:0:0:
192,192,13504,1,0,0:0:0:0:
448,192,13774,1,0,0:0:0:0:
320,192,13774,1,0,0:0:0:0:
448,192,14045,1,0,0:0:0:0:
64,192,14045,1,0,0:0:0:0:
448,192,14315,1,0,0:0:0:0:
192,192,14315,1,0,0:0:0:0:
448,192,14585,1,0,0:0:0:0:
320,192,14585,1,0,0:0:0:0:
448,192,14856,1,0,0:0:0:0:
320,192,14991,1,0,0:0:0:0:
448,192,15126,1,0,0:0:0:0:
64,192,15126,1,0,0:0:0:0:
192,192,15396,1,0,0:0:0:0:
64,192,15396,1,0,0:0:0:0:
448,192,15667,1,0,0:0:0:0:
192,192,15667,1,0,0:0:0:0:
320,192,15937,1,0,0:0:0:0:
192,192,15937,1,0,0:0:0:0:
64,192,16207,1,0,0:0:0:0:
448,192,16478,1,0,0:0:0:0:
320,192,16478,1,0,0:0:0:0:
320,192,16748,1,0,0:0:0:0:
192,192,16882,1,0,0:0:0:0:
448,192,17018,1,0,0:0:0:0:
64,192,17288,1,0,0:0:0:0:
192,192,17693,1,0,0:0:0:0:
448,192,18099,128,0,19315:0:0:0:0:
320,192,18099,128,0,19315:0:0:0:0:
448,192,19450,1,0,0:0:0:0:
320,192,19450,1,0,0:0:0:0:
192,192,19450,1,0,0:0:0:0:
64,192,19518,1,0,0:0:0:0:
448,192,19585,1,0,0:0:0:0:
192,192,19585,1,0,0:0:0:0:
320,192,19652,1,0,0:0:0:0:
448,192,19721,1,0,0:0:0:0:
64,192,19721,1,0,0:0:0:0:
320,192,19788,1,0,0:0:0:0:
192,192,19856,1,0,0:0:0:0:
64,192,19856,1,0,0:0:0:0:
448,192,19923,1,0,0:0:0:0:
320,192,19991,1,0,0:0:0:0:
64,192,19991,1,0,0:0:0:0:
192,192,20058,1,0,0:0:0:0:
448,192,20126,1,0,0:0:0:0:
320,192,20126,1,0,0:0:0:0:
64,192,20193,1,0,0:0:0:0:
320,192,20261,1,0,0:0:0:0:
192,192,20261,1,0,0:0:0:0:
64,192,20328,1,0,0:0:0:0:
448,192,20396,1,0,0:0:0:0:
192,192,20396,1,0,0:0:0:0:
320,192,20463,1,0,0:0:0:0:
192,192,20532,1,0,0:0:0:0:
64,192,20532,1,0,0:0:0:0:
448,192,20599,1,0,0:0:0:0:
320,192,20667,1,0,0:0:0:0:
192,192,20667,1,0,0:0:0:0:
64,192,20734,1,0,0:0:0:0:
448,192,20802,1,0,0:0:0:0:
320,192,20802,1,0,0:0:0:0:
64,192,20869,1,0,0:0:0:0:
320,192,20937,1,0,0:0:0:0:
192,192,20937,1,0,0:0:0:0:
448,192,21004,1,0,0:0:0:0:
192,192,21072,1,0,0:0:0:0:
64,192,21072,1,0,0:0:0:0:
320,192,21139,1,0,0:0:0:0:
448,192,21207,1,0,0:0:0:0:
192,192,21207,1,0,0:0:0:0:
64,192,21207,1,0,0:0:0:0:
320,192,21274,1,0,0:0:0:0:
448,192,21342,1,0,0:0:0:0:
192,192,21342,1,0,0:0:0:0:
64,192,21342,1,0,0:0:0:0:
320,192,21410,1,0,0:0:0:0:
192,192,21478,1,0,0:0:0:0:
320,192,21545,1,0,0:0:0:0:
448,192,21612,1,0,0:0:0:0:
192,192,21612,1,0,0:0:0:0:
64,192,21612,1,0,0:0:0:0:
320,192,21680,1,0,0:0:0:0:
448,192,21748,1,0,0:0:0:0:
64,192,21748,1,0,0:0:0:0:
192,192,21815,1,0,0:0:0:0:
448,192,21882,1,0,0:0:0:0:
320,192,21882,1,0,0:0:0:0:
64,192,21950,1,0,0:0:0:0:
320,192,22018,1,0,0:0:0:0:
192,192,22018,1,0,0:0:0:0:
64,192,22085,1,0,0:0:0:0:
320,192,22152,1,0,0:0:0:0:
192,192,22152,1,0,0:0:0:0:
448,192,22221,1,0,0:0:0:0:
192,192,22288,1,0,0:0:0:0:
64,192,22288,1,0,0:0:0:0:
320,192,22356,1,0,0:0:0:0:
448,192,22423,1,0,0:0:0:0:
64,192,22423,1,0,0:0:0:0:
192,192,22491,1,0,0:0:0:0:
448,192,22558,1,0,0:0:0:0:
320,192,22558,1,0,0:0:0:0:
192,192,22626,1,0,0:0:0:0:
448,192,22693,1,0,0:0:0:0:
320,192,22693,1,0,0:0:0:0:
64,192,22693,1,0,0:0:0:0:
192,192,22761,1,0,0:0:0:0:
448,192,22828,1,0,0:0:0:0:
64,192,22828,1,0,0:0:0:0:
320,192,22896,1,0,0:0:0:0:
192,192,22963,1,0,0:0:0:0:
64,192,22963,1,0,0:0:0:0:
448,192,23032,1,0,0:0:0:0:
320,192,23099,1,0,0:0:0:0:
64,192,23099,1,0,0:0:0:0:
192,192,23167,1,0,0:0:0:0:
448,192,23234,1,0,0:0:0:0:
320,192,23234,1,0,0:0:0:0:
64,192,23302,1,0,0:0:0:0:
320,192,23369,1,0,0:0:0:0:
192,192,23369,1,0,0:0:0:0:
448,192,23437,1,0,0:0:0:0:
192,192,23504,1,0,0:0:0:0:
64,192,23504,1,0,0:0:0:0:
320,192,23572,1,0,0:0:0:0:
192,192,23639,1,0,0:0:0:0:
64,192,23639,1,0,0:0:0:0:
448,192,23707,1,0,0:0:0:0:
320,192,23774,1,0,0:0:0:0:
192,192,23774,1,0,0:0:0:0:
64,192,23774,1,0,0:0:0:0:
448,192,23842,1,0,0:0:0:0:
320,192,23910,1,0,0:0:0:0:
192,192,23910,1,0,0:0:0:0:
64,192,23978,1,0,0:0:0:0:
448,192,24045,1,0,0:0:0:0:
192,192,24045,1,0,0:0:0:0:
320,192,24112,1,0,0:0:0:0:
448,192,24180,1,0,0:0:0:0:
192,192,24180,1,0,0:0:0:0:
64,192,24180,1,0,0:0:0:0:
320,192,24248,1,0,0:0:0:0:
192,192,24315,1,0,0:0:0:0:
64,192,24315,1,0,0:0:0:0:
320,192,24382,1,0,0:0:0:0:
448,192,24450,1,0,0:0:0:0:
192,192,24450,1,0,0:0:0:0:
320,192,24518,1,0,0:0:0:0:
192,192,24585,1,0,0:0:0:0:
64,192,24585,1,0,0:0:0:0:
448,192,24652,1,0,0:0:0:0:
64,192,24721,1,0,0:0:0:0:
320,192,24766,1,0,0:0:0:0:
192,192,24811,1,0,0:0:0:0:
448,192,24856,1,0,0:0:0:0:
64,192,24901,1,0,0:0:0:0:
192,192,24946,1,0,0:0:0:0:
448,192,24991,1,0,0:0:0:0:
320,192,24991,1,0,0:0:0:0:
64,192,25126,1,0,0:0:0:0:
320,192,25261,1,0,0:0:0:0:
64,192,25261,1,0,0:0:0:0:
192,192,25328,1,0,0:0:0:0:
448,192,25396,1,0,0:0:0:0:
320,192,25396,1,0,0:0:0:0:
448,192,25532,1,0,0:0:0:0:
192,192,25532,1,0,0:0:0:0:
320,192,25599,1,0,0:0:0:0:
192,192,25667,1,0,0:0:0:0:
64,192,25667,1,0,0:0:0:0:
448,192,25734,1,0,0:0:0:0:
320,192,25802,1,0,0:0:0:0:
64,192,25802,1,0,0:0:0:0:
192,192,25869,1,0,0:0:0:0:
320,192,25937,1,0,0:0:0:0:
64,192,25937,1,0,0:0:0:0:
192,192,25982,1,0,0:0:0:0:
448,192,26027,1,0,0:0:0:0:
64,192,26072,1,0,0:0:0:0:
320,192,26117,1,0,0:0:0:0:
192,192,26162,1,0,0:0:0:0:
448,192,26207,1,0,0:0:0:0:
320,192,26252,1,0,0:0:0:0:
192,192,26297,1,0,0:0:0:0:
448,192,26342,1,0,0:0:0:0:
64,192,26388,1,0,0:0:0:0:
320,192,26432,1,0,0:0:0:0:
192,192,26478,1,0,0:0:0:0:
64,192,26522,1,0,0:0:0:0:
448,192,26568,1,0,0:0:0:0:
192,192,26612,1,0,0:0:0:0:
320,192,26658,1,0,0:0:0:0:
64,192,26702,1,0,0:0:0:0:
448,192,26748,1,0,0:0:0:0:
320,192,26792,1,0,0:0:0:0:
192,192,26838,1,0,0:0:0:0:
64,192,26882,1,0,0:0:0:0:
448,192,26928,1,0,0:0:0:0:
192,192,26972,1,0,0:0:0:0:
320,192,27018,1,0,0:0:0:0:
64,192,27062,1,0,0:0:0:0:
448,192,27108,1,0,0:0:0:0:
192,192,27152,1,0,0:0:0:0:
320,192,27198,1,0,0:0:0:0:
448,192,27243,1,0,0:0:0:0:
64,192,27288,1,0,0:0:0:0:
192,192,27333,1,0,0:0:0:0:
320,192,27378,1,0,0:0:0:0:
64,192,27423,1,0,0:0:0:0:
448,192,27468,1,0,0:0:0:0:
192,192,27513,1,0,0:0:0:0:
320,192,27558,1,0,0:0:0:0:
64,192,27603,1,0,0:0:0:0:
448,192,27648,1,0,0:0:0:0:
320,192,27693,1,0,0:0:0:0:
192,192,27738,1,0,0:0:0:0:
64,192,27783,1,0,0:0:0:0:
320,192,27828,1,0,0:0:0:0:
192,192,27873,1,0,0:0:0:0:
448,192,27918,1,0,0:0:0:0:
64,192,27963,1,0,0:0:0:0:
448,192,28099,1,0,0:0:0:0:
320,192,28099,1,0,0:0:0:0:
192,192,28099,1,0,0:0:0:0:
64,192,28167,1,0,0:0:0:0:
320,192,28234,1,0,0:0:0:0:
192,192,28234,1,0,0:0:0:0:
448,192,28302,1,0,0:0:0:0:
320,192,28369,1,0,0:0:0:0:
64,192,28369,1,0,0:0:0:0:
192,192,28437,1,0,0:0:0:0:
448,192,28504,1,0,0:0:0:0:
320,192,28504,1,0,0:0:0:0:
64,192,28504,1,0,0:0:0:0:
192,192,28572,1,0,0:0:0:0:
448,192,28639,1,0,0:0:0:0:
320,192,28639,1,0,0:0:0:0:
192,192,28707,1,0,0:0:0:0:
320,192,28774,1,0,0:0:0:0:
64,192,28774,1,0,0:0:0:0:
192,192,28842,1,0,0:0:0:0:
448,192,28910,1,0,0:0:0:0:
320,192,28910,1,0,0:0:0:0:
64,192,28978,1,0,0:0:0:0:
448,192,29045,1,0,0:0:0:0:
192,192,29090,1,0,0:0:0:0:
320,192,29135,1,0,0:0:0:0:
64,192,29180,1,0,0:0:0:0:
448,192,29225,1,0,0:0:0:0:
320,192,29270,1,0,0:0:0:0:
192,192,29315,1,0,0:0:0:0:
64,192,29315,1,0,0:0:0:0:
448,192,29450,1,0,0:0:0:0:
448,192,29585,1,0,0:0:0:0:
192,192,29585,1,0,0:0:0:0:
320,192,29652,1,0,0:0:0:0:
192,192,29721,1,0,0:0:0:0:
64,192,29721,1,0,0:0:0:0:
320,192,29856,1,0,0:0:0:0:
64,192,29856,1,0,0:0:0:0:
192,192,29923,1,0,0:0:0:0:
448,192,29991,1,0,0:0:0:0:
320,192,29991,1,0,0:0:0:0:
64,192,30058,1,0,0:0:0:0:
448,192,30126,1,0,0:0:0:0:
192,192,30126,1,0,0:0:0:0:
320,192,30193,1,0,0:0:0:0:
448,192,30261,1,0,0:0:0:0:
192,192,30261,1,0,0:0:0:0:
320,192,30306,1,0,0:0:0:0:
64,192,30351,1,0,0:0:0:0:
448,192,30396,1,0,0:0:0:0:
192,192,30441,1,0,0:0:0:0:
320,192,30486,1,0,0:0:0:0:
64,192,30532,1,0,0:0:0:0:
192,192,30577,1,0,0:0:0:0:
320,192,30622,1,0,0:0:0:0:
64,192,30667,1,0,0:0:0:0:
448,192,30712,1,0,0:0:0:0:
192,192,30757,1,0,0:0:0:0:
320,192,30802,1,0,0:0:0:0:
448,192,30847,1,0,0:0:0:0:
64,192,30892,1,0,0:0:0:0:
320,192,30937,1,0,0:0:0:0:
192,192,30982,1,0,0:0:0:0:
448,192,31027,1,0,0:0:0:0:
64,192,31072,1,0,0:0:0:0:
192,192,31117,1,0,0:0:0:0:
320,192,31162,1,0,0:0:0:0:
448,192,31207,1,0,0:0:0:0:
64,192,31252,1,0,0:0:0:0:
320,192,31297,1,0,0:0:0:0:
192,192,31342,1,0,0:0:0:0:
448,192,31388,1,0,0:0:0:0:
64,192,31432,1,0,0:0:0:0:
320,192,31478,1,0,0:0:0:0:
192,192,31522,1,0,0:0:0:0:
64,192,31568,1,0,0:0:0:0:
448,192,31612,1,0,0:0:0:0:
320,192,31658,1,0,0:0:0:0:
192,192,31702,1,0,0:0:0:0:
448,192,31748,1,0,0:0:0:0:
64,192,31792,1,0,0:0:0:0:
320,192,31838,1,0,0:0:0:0:
192,192,31882,1,0,0:0:0:0:
448,192,31928,1,0,0:0:0:0:
64,192,31972,1,0,0:0:0:0:
192,192,32018,1,0,0:0:0:0:
320,192,32062,1,0,0:0:0:0:
448,192,32108,1,0,0:0:0:0:
192,192,32152,1,0,0:0:0:0:
320,192,32198,1,0,0:0:0:0:
64,192,32243,1,0,0:0:0:0:
448,192,32288,1,0,0:0:0:0:
192,192,32423,1,0,0:0:0:0:
320,192,32693,1,0,0:0:0:0:
192,192,32963,1,0,0:0:0:0:
64,192,33234,1,0,0:0:0:0:
448,192,33504,1,0,0:0:0:0:
192,192,33639,1,0,0:0:0:0:
320,192,33707,1,0,0:0:0:0:
448,192,33774,1,0,0:0:0:0:
192,192,34045,1,0,0:0:0:0:
64,192,34045,1,0,0:0:0:0:
192,192,34315,1,0,0:0:0:0:
64,192,34315,1,0,0:0:0:0:
192,192,34450,1,0,0:0:0:0:
64,192,34450,1,0,0:0:0:0:
448,192,34585,1,0,0:0:0:0:
64,192,34585,1,0,0:0:0:0:
320,192,34630,1,0,0:0:0:0:
192,192,34676,1,0,0:0:0:0:
448,192,34721,1,0,0:0:0:0:
64,192,34766,1,0,0:0:0:0:
320,192,34811,1,0,0:0:0:0:
192,192,34856,1,0,0:0:0:0:
448,192,34901,1,0,0:0:0:0:
64,192,34946,1,0,0:0:0:0:
192,192,34991,1,0,0:0:0:0:
320,192,35036,1,0,0:0:0:0:
64,192,35081,1,0,0:0:0:0:
448,192,35126,1,0,0:0:0:0:
320,192,35171,1,0,0:0:0:0:
192,192,35216,1,0,0:0:0:0:
64,192,35261,1,0,0:0:0:0:
448,192,35306,1,0,0:0:0:0:
192,192,35351,1,0,0:0:0:0:
320,192,35396,1,0,0:0:0:0:
448,192,35441,1,0,0:0:0:0:
64,192,35486,1,0,0:0:0:0:
192,192,35532,1,0,0:0:0:0:
320,192,35577,1,0,0:0:0:0:
448,192,35622,1,0,0:0:0:0:
64,192,35672,1,0,0:0:0:0:
192,192,35718,1,0,0:0:0:0:
320,192,35762,1,0,0:0:0:0:
64,192,35808,1,0,0:0:0:0:
320,192,35852,1,0,0:0:0:0:
192,192,35898,1,0,0:0:0:0:
64,192,35943,1,0,0:0:0:0:
320,192,35982,1,0,0:0:0:0:
192,192,36027,1,0,0:0:0:0:
320,192,36072,1,0,0:0:0:0:
64,192,36117,1,0,0:0:0:0:
448,192,36162,1,0,0:0:0:0:
320,192,36207,1,0,0:0:0:0:
192,192,36252,1,0,0:0:0:0:
448,192,36297,1,0,0:0:0:0:
64,192,36342,1,0,0:0:0:0:
192,192,36388,1,0,0:0:0:0:
320,192,36432,1,0,0:0:0:0:
448,192,36478,1,0,0:0:0:0:
64,192,36522,1,0,0:0:0:0:
192,192,36568,1,0,0:0:0:0:
320,192,36612,1,0,0:0:0:0:
448,192,36658,1,0,0:0:0:0:
64,192,36702,1,0,0:0:0:0:
320,192,36748,1,0,0:0:0:0:
192,192,36792,1,0,0:0:0:0:
64,192,36838,1,0,0:0:0:0:
448,192,36882,1,0,0:0:0:0:
320,192,36928,1,0,0:0:0:0:
192,192,36972,1,0,0:0:0:0:
64,192,37018,1,0,0:0:0:0:
448,192,37062,1,0,0:0:0:0:
320,192,37108,1,0,0:0:0:0:
192,192,37152,1,0,0:0:0:0:
64,192,37198,1,0,0:0:0:0:
320,192,37243,1,0,0:0:0:0:
448,192,37288,1,0,0:0:0:0:
192,192,37333,1,0,0:0:0:0:
320,192,37378,1,0,0:0:0:0:
64,192,37423,1,0,0:0:0:0:
192,192,37468,1,0,0:0:0:0:
320,192,37513,1,0,0:0:0:0:
448,192,37565,1,0,0:0:0:0:
64,192,37609,1,0,0:0:0:0:
192,192,37655,1,0,0:0:0:0:
448,192,37700,1,0,0:0:0:0:
320,192,37744,1,0,0:0:0:0:
192,192,37790,1,0,0:0:0:0:
448,192,37835,1,0,0:0:0:0:
64,192,37879,1,0,0:0:0:0:
192,192,37925,1,0,0:0:0:0:
448,192,37970,1,0,0:0:0:0:
320,192,38014,1,0,0:0:0:0:
192,192,38060,1,0,0:0:0:0:
448,192,38105,1,0,0:0:0:0:
64,192,38144,1,0,0:0:0:0:
192,192,38189,1,0,0:0:0:0:
320,192,38234,1,0,0:0:0:0:
64,192,38279,1,0,0:0:0:0:
448,192,38324,1,0,0:0:0:0:
192,192,38369,1,0,0:0:0:0:
320,192,38437,1,0,0:0:0:0:
192,192,38504,1,0,0:0:0:0:
64,192,38572,1,0,0:0:0:0:
192,192,38639,1,0,0:0:0:0:
320,192,38707,1,0,0:0:0:0:
192,192,38774,1,0,0:0:0:0:
64,192,38842,1,0,0:0:0:0:
448,192,38910,1,0,0:0:0:0:
192,192,38910,1,0,0:0:0:0:
320,192,38978,1,0,0:0:0:0:
448,192,39045,1,0,0:0:0:0:
192,192,39112,1,0,0:0:0:0:
320,192,39180,1,0,0:0:0:0:
64,192,39180,1,0,0:0:0:0:
448,192,39248,1,0,0:0:0:0:
192,192,39315,1,0,0:0:0:0:
320,192,39382,1,0,0:0:0:0:
448,192,39450,1,0,0:0:0:0:
64,192,39450,1,0,0:0:0:0:
192,192,39518,1,0,0:0:0:0:
64,192,39585,1,0,0:0:0:0:
320,192,39652,1,0,0:0:0:0:
448,192,39721,1,0,0:0:0:0:
192,192,39721,1,0,0:0:0:0:
320,192,39788,1,0,0:0:0:0:
64,192,39856,1,0,0:0:0:0:
192,192,39923,1,0,0:0:0:0:
448,192,39991,1,0,0:0:0:0:
320,192,39991,1,0,0:0:0:0:
64,192,40036,1,0,0:0:0:0:
320,192,40081,1,0,0:0:0:0:
192,192,40126,1,0,0:0:0:0:
448,192,40171,1,0,0:0:0:0:
64,192,40216,1,0,0:0:0:0:
320,192,40261,1,0,0:0:0:0:
192,192,40328,1,0,0:0:0:0:
320,192,40396,1,0,0:0:0:0:
192,192,40463,1,0,0:0:0:0:
448,192,40532,1,0,0:0:0:0:
320,192,40532,1,0,0:0:0:0:
64,192,40599,1,0,0:0:0:0:
448,192,40667,1,0,0:0:0:0:
192,192,40734,1,0,0:0:0:0:
448,192,40802,1,0,0:0:0:0:
320,192,40802,1,0,0:0:0:0:
64,192,40869,1,0,0:0:0:0:
192,192,40937,1,0,0:0:0:0:
320,192,41004,1,0,0:0:0:0:
448,192,41072,1,0,0:0:0:0:
64,192,41072,1,0,0:0:0:0:
192,192,41139,1,0,0:0:0:0:
320,192,41207,1,0,0:0:0:0:
192,192,41274,1,0,0:0:0:0:
320,192,41342,1,0,0:0:0:0:
64,192,41342,1,0,0:0:0:0:
448,192,41410,1,0,0:0:0:0:
192,192,41478,1,0,0:0:0:0:
320,192,41545,1,0,0:0:0:0:
448,192,41612,1,0,0:0:0:0:
192,192,41612,1,0,0:0:0:0:
64,192,41680,1,0,0:0:0:0:
320,192,41748,1,0,0:0:0:0:
192,192,41815,1,0,0:0:0:0:
448,192,41882,1,0,0:0:0:0:
320,192,41882,1,0,0:0:0:0:
192,192,41950,1,0,0:0:0:0:
320,192,42018,1,0,0:0:0:0:
64,192,42018,1,0,0:0:0:0:
192,192,42085,1,0,0:0:0:0:
448,192,42152,1,0,0:0:0:0:
320,192,42152,1,0,0:0:0:0:
64,192,42198,1,0,0:0:0:0:
448,192,42243,1,0,0:0:0:0:
320,192,42288,1,0,0:0:0:0:
192,192,42333,1,0,0:0:0:0:
448,192,42378,1,0,0:0:0:0:
64,192,42423,1,0,0:0:0:0:
192,192,42468,1,0,0:0:0:0:
320,192,42513,1,0,0:0:0:0:
448,192,42558,1,0,0:0:0:0:
320,192,42626,1,0,0:0:0:0:
192,192,42693,1,0,0:0:0:0:
64,192,42738,1,0,0:0:0:0:
448,192,42761,1,0,0:0:0:0:
320,192,42828,1,0,0:0:0:0:
192,192,42873,1,0,0:0:0:0:
64,192,42896,1,0,0:0:0:0:
448,192,42963,1,0,0:0:0:0:
320,192,43009,1,0,0:0:0:0:
64,192,43032,1,0,0:0:0:0:
448,192,43099,1,0,0:0:0:0:
320,192,43144,1,0,0:0:0:0:
448,192,43234,1,0,0:0:0:0:
64,192,43234,1,0,0:0:0:0:
192,192,43279,1,0,0:0:0:0:
320,192,43324,1,0,0:0:0:0:
64,192,43369,1,0,0:0:0:0:
448,192,43414,1,0,0:0:0:0:
192,192,43459,1,0,0:0:0:0:
320,192,43504,1,0,0:0:0:0:
64,192,43549,1,0,0:0:0:0:
448,192,43594,1,0,0:0:0:0:
320,192,43639,1,0,0:0:0:0:
192,192,43684,1,0,0:0:0:0:
448,192,43729,1,0,0:0:0:0:
64,192,43774,1,0,0:0:0:0:
192,192,43819,1,0,0:0:0:0:
320,192,43865,1,0,0:0:0:0:
448,192,43910,1,0,0:0:0:0:
64,192,43955,1,0,0:0:0:0:
320,192,44000,1,0,0:0:0:0:
192,192,44045,1,0,0:0:0:0:
64,192,44090,1,0,0:0:0:0:
448,192,44135,1,0,0:0:0:0:
320,192,44180,1,0,0:0:0:0:
192,192,44225,1,0,0:0:0:0:
64,192,44270,1,0,0:0:0:0:
448,192,44322,1,0,0:0:0:0:
320,192,44366,1,0,0:0:0:0:
192,192,44412,1,0,0:0:0:0:
448,192,44457,1,0,0:0:0:0:
192,192,44501,1,0,0:0:0:0:
320,192,44547,1,0,0:0:0:0:
448,192,44592,1,0,0:0:0:0:
192,192,44630,1,0,0:0:0:0:
320,192,44676,1,0,0:0:0:0:
192,192,44721,1,0,0:0:0:0:
448,192,44766,1,0,0:0:0:0:
64,192,44811,1,0,0:0:0:0:
192,192,44856,1,0,0:0:0:0:
320,192,44901,1,0,0:0:0:0:
64,192,44946,1,0,0:0:0:0:
448,192,44991,1,0,0:0:0:0:
320,192,45036,1,0,0:0:0:0:
192,192,45081,1,0,0:0:0:0:
64,192,45126,1,0,0:0:0:0:
448,192,45171,1,0,0:0:0:0:
320,192,45216,1,0,0:0:0:0:
192,192,45261,1,0,0:0:0:0:
64,192,45306,1,0,0:0:0:0:
448,192,45351,1,0,0:0:0:0:
192,192,45396,1,0,0:0:0:0:
320,192,45441,1,0,0:0:0:0:
448,192,45486,1,0,0:0:0:0:
64,192,45532,1,0,0:0:0:0:
192,192,45577,1,0,0:0:0:0:
320,192,45622,1,0,0:0:0:0:
448,192,45667,1,0,0:0:0:0:
64,192,45712,1,0,0:0:0:0:
192,192,45757,1,0,0:0:0:0:
320,192,45802,1,0,0:0:0:0:
448,192,45847,1,0,0:0:0:0:
192,192,45892,1,0,0:0:0:0:
64,192,45937,1,0,0:0:0:0:
320,192,45982,1,0,0:0:0:0:
192,192,46027,1,0,0:0:0:0:
448,192,46072,1,0,0:0:0:0:
320,192,46117,1,0,0:0:0:0:
192,192,46162,1,0,0:0:0:0:
64,192,46213,1,0,0:0:0:0:
448,192,46258,1,0,0:0:0:0:
320,192,46303,1,0,0:0:0:0:
64,192,46348,1,0,0:0:0:0:
192,192,46392,1,0,0:0:0:0:
320,192,46438,1,0,0:0:0:0:
64,192,46483,1,0,0:0:0:0:
448,192,46528,1,0,0:0:0:0:
320,192,46573,1,0,0:0:0:0:
64,192,46618,1,0,0:0:0:0:
192,192,46663,1,0,0:0:0:0:
320,192,46709,1,0,0:0:0:0:
64,192,46754,1,0,0:0:0:0:
448,192,46792,1,0,0:0:0:0:
320,192,46838,1,0,0:0:0:0:
192,192,46882,1,0,0:0:0:0:
448,192,46928,1,0,0:0:0:0:
64,192,46972,1,0,0:0:0:0:
192,192,47018,1,0,0:0:0:0:
320,192,47085,1,0,0:0:0:0:
448,192,47152,1,0,0:0:0:0:
192,192,47152,1,0,0:0:0:0:
320,192,47221,1,0,0:0:0:0:
448,192,47288,1,0,0:0:0:0:
64,192,47288,1,0,0:0:0:0:
192,192,47356,1,0,0:0:0:0:
320,192,47423,1,0,0:0:0:0:
64,192,47423,1,0,0:0:0:0:
448,192,47491,1,0,0:0:0:0:
192,192,47558,1,0,0:0:0:0:
320,192,47603,1,0,0:0:0:0:
64,192,47648,1,0,0:0:0:0:
192,192,47693,1,0,0:0:0:0:
448,192,47738,1,0,0:0:0:0:
320,192,47783,1,0,0:0:0:0:
192,192,47828,1,0,0:0:0:0:
448,192,47896,1,0,0:0:0:0:
64,192,47963,1,0,0:0:0:0:
192,192,48009,1,0,0:0:0:0:
448,192,48054,1,0,0:0:0:0:
320,192,48099,1,0,0:0:0:0:
64,192,48144,1,0,0:0:0:0:
192,192,48189,1,0,0:0:0:0:
320,192,48234,1,0,0:0:0:0:
64,192,48302,1,0,0:0:0:0:
448,192,48369,1,0,0:0:0:0:
320,192,48414,1,0,0:0:0:0:
64,192,48459,1,0,0:0:0:0:
192,192,48504,1,0,0:0:0:0:
448,192,48549,1,0,0:0:0:0:
320,192,48594,1,0,0:0:0:0:
192,192,48639,1,0,0:0:0:0:
448,192,48707,1,0,0:0:0:0:
320,192,48774,1,0,0:0:0:0:
192,192,48819,1,0,0:0:0:0:
448,192,48865,1,0,0:0:0:0:
320,192,48910,1,0,0:0:0:0:
64,192,48955,1,0,0:0:0:0:
192,192,49000,1,0,0:0:0:0:
320,192,49045,1,0,0:0:0:0:
64,192,49112,1,0,0:0:0:0:
448,192,49180,1,0,0:0:0:0:
320,192,49248,1,0,0:0:0:0:
192,192,49315,1,0,0:0:0:0:
64,192,49382,1,0,0:0:0:0:
192,192,49450,1,0,0:0:0:0:
320,192,49518,1,0,0:0:0:0:
448,192,49585,1,0,0:0:0:0:
64,192,49585,1,0,0:0:0:0:
192,192,49619,1,0,0:0:0:0:
320,192,49652,1,0,0:0:0:0:
64,192,49687,1,0,0:0:0:0:
448,192,49721,1,0,0:0:0:0:
320,192,49856,1,0,0:0:0:0:
192,192,49991,1,0,0:0:0:0:
320,192,50126,1,0,0:0:0:0:
448,192,50261,1,0,0:0:0:0:
64,192,50261,1,0,0:0:0:0:
192,192,50396,1,0,0:0:0:0:
320,192,50532,1,0,0:0:0:0:
192,192,50599,1,0,0:0:0:0:
448,192,50667,1,0,0:0:0:0:
64,192,50734,1,0,0:0:0:0:
448,192,50802,1,0,0:0:0:0:
64,192,50869,1,0,0:0:0:0:
448,192,50937,1,0,0:0:0:0:
64,192,51004,1,0,0:0:0:0:
448,192,51072,1,0,0:0:0:0:
64,192,51139,1,0,0:0:0:0:
448,192,51207,1,0,0:0:0:0:
64,192,51274,1,0,0:0:0:0:
448,192,51342,1,0,0:0:0:0:
320,192,51342,1,0,0:0:0:0:
192,192,51478,1,0,0:0:0:0:
320,192,51545,1,0,0:0:0:0:
64,192,51612,1,0,0:0:0:0:
320,192,51680,1,0,0:0:0:0:
192,192,51748,1,0,0:0:0:0:
320,192,51815,1,0,0:0:0:0:
64,192,51882,1,0,0:0:0:0:
448,192,52018,1,0,0:0:0:0:
192,192,52152,1,0,0:0:0:0:
448,192,52288,1,0,0:0:0:0:
192,192,52423,1,0,0:0:0:0:
64,192,52423,1,0,0:0:0:0:
320,192,52558,1,0,0:0:0:0:
64,192,52693,1,0,0:0:0:0:
448,192,52761,1,0,0:0:0:0:
320,192,52828,1,0,0:0:0:0:
192,192,52896,1,0,0:0:0:0:
320,192,52963,1,0,0:0:0:0:
192,192,53032,1,0,0:0:0:0:
320,192,53099,1,0,0:0:0:0:
192,192,53167,1,0,0:0:0:0:
64,192,53234,1,0,0:0:0:0:
448,192,53369,1,0,0:0:0:0:
320,192,53504,1,0,0:0:0:0:
64,192,53504,1,0,0:0:0:0:
192,192,53639,1,0,0:0:0:0:
320,192,53707,1,0,0:0:0:0:
64,192,53774,1,0,0:0:0:0:
448,192,53842,1,0,0:0:0:0:
192,192,53910,1,0,0:0:0:0:
320,192,53978,1,0,0:0:0:0:
448,192,54045,1,0,0:0:0:0:
192,192,54045,1,0,0:0:0:0:
320,192,54315,1,0,0:0:0:0:
192,192,54315,1,0,0:0:0:0:
448,192,54585,1,0,0:0:0:0:
64,192,54585,1,0,0:0:0:0:
192,192,54856,1,0,0:0:0:0:
64,192,54856,1,0,0:0:0:0:
320,192,55126,1,0,0:0:0:0:
64,192,55126,1,0,0:0:0:0:
320,192,55396,1,0,0:0:0:0:
192,192,55396,1,0,0:0:0:0:
448,192,55667,1,0,0:0:0:0:
192,192,55667,1,0,0:0:0:0:
448,192,55937,1,0,0:0:0:0:
320,192,55937,1,0,0:0:0:0:
320,192,56207,1,0,0:0:0:0:
64,192,56207,1,0,0:0:0:0:
320,192,56478,1,0,0:0:0:0:
192,192,56478,1,0,0:0:0:0:
448,192,56748,1,0,0:0:0:0:
192,192,56748,1,0,0:0:0:0:
448,192,57018,1,0,0:0:0:0:
320,192,57018,1,0,0:0:0:0:
448,192,57288,1,0,0:0:0:0:
64,192,57288,1,0,0:0:0:0:
448,192,57558,1,0,0:0:0:0:
192,192,57558,1,0,0:0:0:0:
448,192,57828,1,0,0:0:0:0:
320,192,57828,1,0,0:0:0:0:
448,192,58099,1,0,0:0:0:0:
320,192,58234,1,0,0:0:0:0:
448,192,58369,1,0,0:0:0:0:
64,192,58369,1,0,0:0:0:0:
192,192,58639,1,0,0:0:0:0:
64,192,58639,1,0,0:0:0:0:
448,192,58910,1,0,0:0:0:0:
192,192,58910,1,0,0:0:0:0:
320,192,59180,1,0,0:0:0:0:
192,192,59180,1,0,0:0:0:0:
64,192,59450,1,0,0:0:0:0:
448,192,59721,1,0,0:0:0:0:
320,192,59991,1,0,0:0:0:0:
192,192,60126,1,0,0:0:0:0:
448,192,60261,1,0,0:0:0:0:
64,192,60532,1,0,0:0:0:0:
320,192,61072,1,0,0:0:0:0:
192,192,61207,1,0,0:0:0:0:
320,192,61342,1,0,0:0:0:0:
448,192,61612,1,0,0:0:0:0:
192,192,61612,1,0,0:0:0:0:
320,192,61748,1,0,0:0:0:0:
448,192,61882,1,0,0:0:0:0:
192,192,62152,1,0,0:0:0:0:
64,192,62288,1,0,0:0:0:0:
192,192,62423,1,0,0:0:0:0:
448,192,62693,1,0,0:0:0:0:
192,192,62693,1,0,0:0:0:0:
320,192,62963,1,0,0:0:0:0:
192,192,62963,1,0,0:0:0:0:
448,192,63234,1,0,0:0:0:0:
64,192,63234,1,0,0:0:0:0:
192,192,63504,1,0,0:0:0:0:
64,192,63504,1,0,0:0:0:0:
320,192,63774,1,0,0:0:0:0:
64,192,63774,1,0,0:0:0:0:
320,192,64045,1,0,0:0:0:0:
192,192,64045,1,0,0:0:0:0:
448,192,64315,1,0,0:0:0:0:
192,192,64315,1,0,0:0:0:0:
448,192,64585,1,0,0:0:0:0:
320,192,64585,1,0,0:0:0:0:
320,192,64856,1,0,0:0:0:0:
64,192,64856,1,0,0:0:0:0:
320,192,65126,1,0,0:0:0:0:
192,192,65126,1,0,0:0:0:0:
448,192,65396,1,0,0:0:0:0:
192,192,65396,1,0,0:0:0:0:
448,192,65667,1,0,0:0:0:0:
320,192,65667,1,0,0:0:0:0:
448,192,65937,1,0,0:0:0:0:
64,192,65937,1,0,0:0:0:0:
448,192,66207,1,0,0:0:0:0:
192,192,66207,1,0,0:0:0:0:
448,192,66478,1,0,0:0:0:0:
320,192,66478,1,0,0:0:0:0:
448,192,66748,1,0,0:0:0:0:
320,192,66882,1,0,0:0:0:0:
448,192,67018,1,0,0:0:0:0:
64,192,67018,1,0,0:0:0:0:
192,192,67288,1,0,0:0:0:0:
64,192,67288,1,0,0:0:0:0:
448,192,67558,1,0,0:0:0:0:
192,192,67558,1,0,0:0:0:0:
320,192,67828,1,0,0:0:0:0:
192,192,67828,1,0,0:0:0:0:
64,192,68099,1,0,0:0:0:0:
448,192,68369,1,0,0:0:0:0:
320,192,68639,1,0,0:0:0:0:
192,192,68774,1,0,0:0:0:0:
448,192,68910,1,0,0:0:0:0:
64,192,69180,1,0,0:0:0:0:
192,192,69585,1,0,0:0:0:0:
448,192,69991,128,0,71207:0:0:0:0:
64,192,69991,128,0,71207:0:0:0:0:
320,192,70261,1,0,0:0:0:0:
192,192,70396,1,0,0:0:0:0:
320,192,70532,1,0,0:0:0:0:
192,192,70802,1,0,0:0:0:0:
320,192,70937,1,0,0:0:0:0:
192,192,71072,1,0,0:0:0:0:
448,192,72423,1,0,0:0:0:0:
320,192,72423,1,0,0:0:0:0:
64,192,72423,1,0,0:0:0:0:
192,192,72491,1,0,0:0:0:0:
448,192,72558,1,0,0:0:0:0:
320,192,72558,1,0,0:0:0:0:
64,192,72626,1,0,0:0:0:0:
448,192,72693,1,0,0:0:0:0:
192,192,72693,1,0,0:0:0:0:
320,192,72761,1,0,0:0:0:0:
192,192,72828,1,0,0:0:0:0:
64,192,72828,1,0,0:0:0:0:
320,192,72896,1,0,0:0:0:0:
448,192,72963,1,0,0:0:0:0:
64,192,72963,1,0,0:0:0:0:
192,192,73032,1,0,0:0:0:0:
448,192,73099,1,0,0:0:0:0:
320,192,73099,1,0,0:0:0:0:
192,192,73167,1,0,0:0:0:0:
320,192,73234,1,0,0:0:0:0:
64,192,73234,1,0,0:0:0:0:
192,192,73302,1,0,0:0:0:0:
448,192,73369,1,0,0:0:0:0:
320,192,73369,1,0,0:0:0:0:
64,192,73437,1,0,0:0:0:0:
448,192,73504,1,0,0:0:0:0:
192,192,73504,1,0,0:0:0:0:
320,192,73572,1,0,0:0:0:0:
192,192,73639,1,0,0:0:0:0:
64,192,73639,1,0,0:0:0:0:
448,192,73707,1,0,0:0:0:0:
320,192,73774,1,0,0:0:0:0:
192,192,73774,1,0,0:0:0:0:
64,192,73842,1,0,0:0:0:0:
448,192,73910,1,0,0:0:0:0:
320,192,73910,1,0,0:0:0:0:
192,192,73978,1,0,0:0:0:0:
448,192,74045,1,0,0:0:0:0:
64,192,74045,1,0,0:0:0:0:
320,192,74112,1,0,0:0:0:0:
448,192,74180,1,0,0:0:0:0:
192,192,74180,1,0,0:0:0:0:
320,192,74248,1,0,0:0:0:0:
192,192,74315,1,0,0:0:0:0:
64,192,74315,1,0,0:0:0:0:
448,192,74382,1,0,0:0:0:0:
320,192,74450,1,0,0:0:0:0:
64,192,74450,1,0,0:0:0:0:
192,192,74518,1,0,0:0:0:0:
448,192,74585,1,0,0:0:0:0:
320,192,74585,1,0,0:0:0:0:
64,192,74585,1,0,0:0:0:0:
192,192,74652,1,0,0:0:0:0:
448,192,74721,1,0,0:0:0:0:
320,192,74721,1,0,0:0:0:0:
192,192,74788,1,0,0:0:0:0:
448,192,74856,1,0,0:0:0:0:
64,192,74856,1,0,0:0:0:0:
320,192,74923,1,0,0:0:0:0:
448,192,74991,1,0,0:0:0:0:
192,192,74991,1,0,0:0:0:0:
320,192,75058,1,0,0:0:0:0:
192,192,75126,1,0,0:0:0:0:
64,192,75126,1,0,0:0:0:0:
448,192,75193,1,0,0:0:0:0:
320,192,75261,1,0,0:0:0:0:
64,192,75261,1,0,0:0:0:0:
192,192,75328,1,0,0:0:0:0:
448,192,75396,1,0,0:0:0:0:
320,192,75396,1,0,0:0:0:0:
64,192,75463,1,0,0:0:0:0:
320,192,75532,1,0,0:0:0:0:
192,192,75532,1,0,0:0:0:0:
448,192,75599,1,0,0:0:0:0:
320,192,75667,1,0,0:0:0:0:
192,192,75667,1,0,0:0:0:0:
64,192,75667,1,0,0:0:0:0:
448,192,75734,1,0,0:0:0:0:
320,192,75802,1,0,0:0:0:0:
64,192,75802,1,0,0:0:0:0:
192,192,75869,1,0,0:0:0:0:
448,192,75937,1,0,0:0:0:0:
320,192,75937,1,0,0:0:0:0:
192,192,76004,1,0,0:0:0:0:
448,192,76072,1,0,0:0:0:0:
64,192,76072,1,0,0:0:0:0:
192,192,76139,1,0,0:0:0:0:
320,192,76213,1,0,0:0:0:0:
192,192,76247,1,0,0:0:0:0:
320,192,76348,1,0,0:0:0:0:
192,192,76382,1,0,0:0:0:0:
64,192,76483,1,0,0:0:0:0:
320,192,76518,1,0,0:0:0:0:
64,192,76618,1,0,0:0:0:0:
320,192,76652,1,0,0:0:0:0:
448,192,76748,1,0,0:0:0:0:
320,192,76748,1,0,0:0:0:0:
192,192,76748,1,0,0:0:0:0:
64,192,76815,1,0,0:0:0:0:
320,192,76882,1,0,0:0:0:0:
192,192,76882,1,0,0:0:0:0:
448,192,76950,1,0,0:0:0:0:
320,192,77018,1,0,0:0:0:0:
64,192,77018,1,0,0:0:0:0:
192,192,77085,1,0,0:0:0:0:
448,192,77152,1,0,0:0:0:0:
320,192,77152,1,0,0:0:0:0:
64,192,77152,1,0,0:0:0:0:
192,192,77221,1,0,0:0:0:0:
448,192,77288,1,0,0:0:0:0:
320,192,77288,1,0,0:0:0:0:
192,192,77356,1,0,0:0:0:0:
320,192,77423,1,0,0:0:0:0:
64,192,77423,1,0,0:0:0:0:
192,192,77491,1,0,0:0:0:0:
448,192,77558,1,0,0:0:0:0:
320,192,77558,1,0,0:0:0:0:
64,192,77626,1,0,0:0:0:0:
448,192,77693,1,0,0:0:0:0:
192,192,77738,1,0,0:0:0:0:
320,192,77783,1,0,0:0:0:0:
64,192,77828,1,0,0:0:0:0:
448,192,77873,1,0,0:0:0:0:
320,192,77918,1,0,0:0:0:0:
192,192,77963,1,0,0:0:0:0:
64,192,77963,1,0,0:0:0:0:
448,192,78032,1,0,0:0:0:0:
320,192,78099,1,0,0:0:0:0:
192,192,78099,1,0,0:0:0:0:
64,192,78167,1,0,0:0:0:0:
320,192,78234,1,0,0:0:0:0:
192,192,78234,1,0,0:0:0:0:
448,192,78302,1,0,0:0:0:0:
320,192,78369,1,0,0:0:0:0:
64,192,78369,1,0,0:0:0:0:
192,192,78437,1,0,0:0:0:0:
320,192,78504,1,0,0:0:0:0:
64,192,78504,1,0,0:0:0:0:
192,192,78572,1,0,0:0:0:0:
448,192,78639,1,0,0:0:0:0:
320,192,78639,1,0,0:0:0:0:
64,192,78707,1,0,0:0:0:0:
448,192,78774,1,0,0:0:0:0:
192,192,78774,1,0,0:0:0:0:
320,192,78842,1,0,0:0:0:0:
448,192,78910,1,0,0:0:0:0:
192,192,78910,1,0,0:0:0:0:
320,192,78955,1,0,0:0:0:0:
64,192,79000,1,0,0:0:0:0:
448,192,79045,1,0,0:0:0:0:
192,192,79090,1,0,0:0:0:0:
320,192,79135,1,0,0:0:0:0:
64,192,79180,1,0,0:0:0:0:
192,192,79225,1,0,0:0:0:0:
320,192,79270,1,0,0:0:0:0:
64,192,79315,1,0,0:0:0:0:
448,192,79360,1,0,0:0:0:0:
192,192,79405,1,0,0:0:0:0:
320,192,79450,1,0,0:0:0:0:
448,192,79495,1,0,0:0:0:0:
64,192,79540,1,0,0:0:0:0:
320,192,79585,1,0,0:0:0:0:
192,192,79630,1,0,0:0:0:0:
448,192,79676,1,0,0:0:0:0:
64,192,79721,1,0,0:0:0:0:
192,192,79766,1,0,0:0:0:0:
320,192,79811,1,0,0:0:0:0:
448,192,79856,1,0,0:0:0:0:
64,192,79901,1,0,0:0:0:0:
320,192,79946,1,0,0:0:0:0:
192,192,79991,1,0,0:0:0:0:
448,192,80036,1,0,0:0:0:0:
64,192,80081,1,0,0:0:0:0:
320,192,80126,1,0,0:0:0:0:
192,192,80171,1,0,0:0:0:0:
64,192,80216,1,0,0:0:0:0:
448,192,80261,1,0,0:0:0:0:
320,192,80306,1,0,0:0:0:0:
192,192,80351,1,0,0:0:0:0:
448,192,80396,1,0,0:0:0:0:
64,192,80441,1,0,0:0:0:0:
320,192,80486,1,0,0:0:0:0:
192,192,80532,1,0,0:0:0:0:
448,192,80577,1,0,0:0:0:0:
64,192,80622,1,0,0:0:0:0:
192,192,80667,1,0,0:0:0:0:
320,192,80712,1,0,0:0:0:0:
448,192,80757,1,0,0:0:0:0:
192,192,80802,1,0,0:0:0:0:
320,192,80847,1,0,0:0:0:0:
64,192,80892,1,0,0:0:0:0:
448,192,80937,1,0,0:0:0:0:
320,192,81072,1,0,0:0:0:0:
192,192,81072,1,0,0:0:0:0:
64,192,81072,1,0,0:0:0:0:
448,192,81139,1,0,0:0:0:0:
320,192,81207,1,0,0:0:0:0:
192,192,81207,1,0,0:0:0:0:
64,192,81274,1,0,0:0:0:0:
448,192,81342,1,0,0:0:0:0:
192,192,81342,1,0,0:0:0:0:
320,192,81410,1,0,0:0:0:0:
448,192,81478,1,0,0:0:0:0:
192,192,81478,1,0,0:0:0:0:
64,192,81478,1,0,0:0:0:0:
320,192,81545,1,0,0:0:0:0:
192,192,81612,1,0,0:0:0:0:
64,192,81612,1,0,0:0:0:0:
320,192,81680,1,0,0:0:0:0:
448,192,81748,1,0,0:0:0:0:
192,192,81748,1,0,0:0:0:0:
320,192,81815,1,0,0:0:0:0:
192,192,81882,1,0,0:0:0:0:
64,192,81882,1,0,0:0:0:0:
448,192,81950,1,0,0:0:0:0:
64,192,82018,1,0,0:0:0:0:
320,192,82062,1,0,0:0:0:0:
192,192,82108,1,0,0:0:0:0:
448,192,82152,1,0,0:0:0:0:
64,192,82198,1,0,0:0:0:0:
192,192,82243,1,0,0:0:0:0:
448,192,82288,1,0,0:0:0:0:
320,192,82288,1,0,0:0:0:0:
64,192,82356,1,0,0:0:0:0:
320,192,82423,1,0,0:0:0:0:
192,192,82423,1,0,0:0:0:0:
448,192,82491,1,0,0:0:0:0:
320,192,82558,1,0,0:0:0:0:
192,192,82558,1,0,0:0:0:0:
64,192,82626,1,0,0:0:0:0:
448,192,82693,1,0,0:0:0:0:
192,192,82693,1,0,0:0:0:0:
320,192,82761,1,0,0:0:0:0:
448,192,82828,1,0,0:0:0:0:
192,192,82828,1,0,0:0:0:0:
320,192,82896,1,0,0:0:0:0:
192,192,82963,1,0,0:0:0:0:
64,192,82963,1,0,0:0:0:0:
448,192,83032,1,0,0:0:0:0:
320,192,83099,1,0,0:0:0:0:
64,192,83099,1,0,0:0:0:0:
192,192,83167,1,0,0:0:0:0:
320,192,83234,1,0,0:0:0:0:
64,192,83234,1,0,0:0:0:0:
192,192,83279,1,0,0:0:0:0:
448,192,83324,1,0,0:0:0:0:
64,192,83369,1,0,0:0:0:0:
320,192,83414,1,0,0:0:0:0:
192,192,83459,1,0,0:0:0:0:
448,192,83504,1,0,0:0:0:0:
320,192,83549,1,0,0:0:0:0:
192,192,83594,1,0,0:0:0:0:
448,192,83639,1,0,0:0:0:0:
64,192,83684,1,0,0:0:0:0:
320,192,83729,1,0,0:0:0:0:
192,192,83774,1,0,0:0:0:0:
64,192,83819,1,0,0:0:0:0:
448,192,83865,1,0,0:0:0:0:
192,192,83910,1,0,0:0:0:0:
320,192,83955,1,0,0:0:0:0:
64,192,84000,1,0,0:0:0:0:
448,192,84045,1,0,0:0:0:0:
320,192,84090,1,0,0:0:0:0:
192,192,84135,1,0,0:0:0:0:
64,192,84180,1,0,0:0:0:0:
448,192,84225,1,0,0:0:0:0:
192,192,84270,1,0,0:0:0:0:
320,192,84315,1,0,0:0:0:0:
64,192,84360,1,0,0:0:0:0:
448,192,84405,1,0,0:0:0:0:
192,192,84450,1,0,0:0:0:0:
320,192,84495,1,0,0:0:0:0:
448,192,84540,1,0,0:0:0:0:
64,192,84585,1,0,0:0:0:0:
192,192,84630,1,0,0:0:0:0:
320,192,84676,1,0,0:0:0:0:
64,192,84721,1,0,0:0:0:0:
448,192,84766,1,0,0:0:0:0:
192,192,84811,1,0,0:0:0:0:
320,192,84856,1,0,0:0:0:0:
64,192,84901,1,0,0:0:0:0:
448,192,84946,1,0,0:0:0:0:
320,192,84991,1,0,0:0:0:0:
192,192,85036,1,0,0:0:0:0:
64,192,85081,1,0,0:0:0:0:
320,192,85126,1,0,0:0:0:0:
192,192,85171,1,0,0:0:0:0:
448,192,85216,1,0,0:0:0:0:
64,192,85261,1,0,0:0:0:0:
448,192,85396,1,0,0:0:0:0:
320,192,85396,1,0,0:0:0:0:
64,192,85396,1,0,0:0:0:0:
448,192,85667,1,0,0:0:0:0:
320,192,85667,1,0,0:0:0:0:
192,192,85667,1,0,0:0:0:0:
320,192,85937,1,0,0:0:0:0:
192,192,85937,1,0,0:0:0:0:
64,192,85937,1,0,0:0:0:0:
448,192,86207,1,0,0:0:0:0:
320,192,86207,1,0,0:0:0:0:
64,192,86207,1,0,0:0:0:0:
448,192,86478,1,0,0:0:0:0:
192,192,86478,1,0,0:0:0:0:
64,192,86478,1,0,0:0:0:0:
320,192,86612,1,0,0:0:0:0:
192,192,86680,1,0,0:0:0:0:
64,192,86748,1,0,0:0:0:0:
448,192,87018,1,0,0:0:0:0:
320,192,87018,1,0,0:0:0:0:
448,192,87288,1,0,0:0:0:0:
320,192,87288,1,0,0:0:0:0:
448,192,87423,1,0,0:0:0:0:
320,192,87423,1,0,0:0:0:0:
448,192,87558,1,0,0:0:0:0:
64,192,87558,1,0,0:0:0:0:
192,192,87603,1,0,0:0:0:0:
320,192,87648,1,0,0:0:0:0:
64,192,87693,1,0,0:0:0:0:
448,192,87738,1,0,0:0:0:0:
192,192,87783,1,0,0:0:0:0:
320,192,87828,1,0,0:0:0:0:
64,192,87873,1,0,0:0:0:0:
448,192,87918,1,0,0:0:0:0:
320,192,87963,1,0,0:0:0:0:
192,192,88009,1,0,0:0:0:0:
448,192,88054,1,0,0:0:0:0:
64,192,88099,1,0,0:0:0:0:
192,192,88144,1,0,0:0:0:0:
320,192,88189,1,0,0:0:0:0:
448,192,88234,1,0,0:0:0:0:
64,192,88279,1,0,0:0:0:0:
320,192,88324,1,0,0:0:0:0:
192,192,88369,1,0,0:0:0:0:
64,192,88414,1,0,0:0:0:0:
448,192,88459,1,0,0:0:0:0:
320,192,88504,1,0,0:0:0:0:
192,192,88549,1,0,0:0:0:0:
64,192,88594,1,0,0:0:0:0:
448,192,88646,1,0,0:0:0:0:
320,192,88690,1,0,0:0:0:0:
192,192,88736,1,0,0:0:0:0:
448,192,88781,1,0,0:0:0:0:
192,192,88825,1,0,0:0:0:0:
320,192,88871,1,0,0:0:0:0:
448,192,88916,1,0,0:0:0:0:
192,192,88955,1,0,0:0:0:0:
320,192,89000,1,0,0:0:0:0:
192,192,89045,1,0,0:0:0:0:
448,192,89090,1,0,0:0:0:0:
64,192,89135,1,0,0:0:0:0:
192,192,89180,1,0,0:0:0:0:
320,192,89225,1,0,0:0:0:0:
64,192,89270,1,0,0:0:0:0:
448,192,89315,1,0,0:0:0:0:
320,192,89360,1,0,0:0:0:0:
192,192,89405,1,0,0:0:0:0:
64,192,89450,1,0,0:0:0:0:
448,192,89495,1,0,0:0:0:0:
320,192,89540,1,0,0:0:0:0:
192,192,89585,1,0,0:0:0:0:
64,192,89630,1,0,0:0:0:0:
448,192,89676,1,0,0:0:0:0:
192,192,89721,1,0,0:0:0:0:
320,192,89766,1,0,0:0:0:0:
448,192,89811,1,0,0:0:0:0:
64,192,89856,1,0,0:0:0:0:
192,192,89901,1,0,0:0:0:0:
320,192,89946,1,0,0:0:0:0:
448,192,89991,1,0,0:0:0:0:
64,192,90036,1,0,0:0:0:0:
192,192,90081,1,0,0:0:0:0:
320,192,90126,1,0,0:0:0:0:
448,192,90171,1,0,0:0:0:0:
192,192,90216,1,0,0:0:0:0:
64,192,90261,1,0,0:0:0:0:
320,192,90306,1,0,0:0:0:0:
192,192,90351,1,0,0:0:0:0:
448,192,90396,1,0,0:0:0:0:
320,192,90441,1,0,0:0:0:0:
192,192,90486,1,0,0:0:0:0:
64,192,90538,1,0,0:0:0:0:
448,192,90582,1,0,0:0:0:0:
320,192,90628,1,0,0:0:0:0:
64,192,90672,1,0,0:0:0:0:
192,192,90718,1,0,0:0:0:0:
320,192,90762,1,0,0:0:0:0:
64,192,90808,1,0,0:0:0:0:
448,192,90852,1,0,0:0:0:0:
320,192,90898,1,0,0:0:0:0:
64,192,90943,1,0,0:0:0:0:
192,192,90988,1,0,0:0:0:0:
320,192,91033,1,0,0:0:0:0:
64,192,91078,1,0,0:0:0:0:
448,192,91117,1,0,0:0:0:0:
320,192,91162,1,0,0:0:0:0:
192,192,91207,1,0,0:0:0:0:
448,192,91252,1,0,0:0:0:0:
64,192,91297,1,0,0:0:0:0:
320,192,91342,1,0,0:0:0:0:
192,192,91410,1,0,0:0:0:0:
320,192,91478,1,0,0:0:0:0:
448,192,91545,1,0,0:0:0:0:
320,192,91612,1,0,0:0:0:0:
192,192,91680,1,0,0:0:0:0:
320,192,91748,1,0,0:0:0:0:
448,192,91815,1,0,0:0:0:0:
320,192,91882,1,0,0:0:0:0:
64,192,91882,1,0,0:0:0:0:
192,192,91950,1,0,0:0:0:0:
64,192,92018,1,0,0:0:0:0:
320,192,92085,1,0,0:0:0:0:
448,192,92152,1,0,0:0:0:0:
192,192,92152,1,0,0:0:0:0:
64,192,92221,1,0,0:0:0:0:
320,192,92288,1,0,0:0:0:0:
192,192,92356,1,0,0:0:0:0:
448,192,92423,1,0,0:0:0:0:
64,192,92423,1,0,0:0:0:0:
320,192,92491,1,0,0:0:0:0:
448,192,92558,1,0,0:0:0:0:
192,192,92626,1,0,0:0:0:0:
320,192,92693,1,0,0:0:0:0:
64,192,92693,1,0,0:0:0:0:
192,192,92761,1,0,0:0:0:0:
448,192,92828,1,0,0:0:0:0:
320,192,92896,1,0,0:0:0:0:
192,192,92963,1,0,0:0:0:0:
64,192,92963,1,0,0:0:0:0:
448,192,93009,1,0,0:0:0:0:
192,192,93054,1,0,0:0:0:0:
320,192,93099,1,0,0:0:0:0:
64,192,93144,1,0,0:0:0:0:
448,192,93189,1,0,0:0:0:0:
192,192,93234,1,0,0:0:0:0:
320,192,93302,1,0,0:0:0:0:
192,192,93369,1,0,0:0:0:0:
320,192,93437,1,0,0:0:0:0:
192,192,93504,1,0,0:0:0:0:
64,192,93504,1,0,0:0:0:0:
448,192,93572,1,0,0:0:0:0:
64,192,93639,1,0,0:0:0:0:
320,192,93707,1,0,0:0:0:0:
192,192,93774,1,0,0:0:0:0:
64,192,93774,1,0,0:0:0:0:
448,192,93842,1,0,0:0:0:0:
320,192,93910,1,0,0:0:0:0:
192,192,93978,1,0,0:0:0:0:
448,192,94045,1,0,0:0:0:0:
64,192,94045,1,0,0:0:0:0:
320,192,94112,1,0,0:0:0:0:
192,192,94180,1,0,0:0:0:0:
320,192,94248,1,0,0:0:0:0:
448,192,94315,1,0,0:0:0:0:
192,192,94315,1,0,0:0:0:0:
64,192,94382,1,0,0:0:0:0:
320,192,94450,1,0,0:0:0:0:
192,192,94518,1,0,0:0:0:0:
320,192,94585,1,0,0:0:0:0:
64,192,94585,1,0,0:0:0:0:
448,192,94652,1,0,0:0:0:0:
192,192,94721,1,0,0:0:0:0:
320,192,94788,1,0,0:0:0:0:
192,192,94856,1,0,0:0:0:0:
64,192,94856,1,0,0:0:0:0:
320,192,94923,1,0,0:0:0:0:
448,192,94991,1,0,0:0:0:0:
192,192,94991,1,0,0:0:0:0:
320,192,95058,1,0,0:0:0:0:
192,192,95126,1,0,0:0:0:0:
64,192,95126,1,0,0:0:0:0:
448,192,95171,1,0,0:0:0:0:
64,192,95216,1,0,0:0:0:0:
192,192,95261,1,0,0:0:0:0:
320,192,95306,1,0,0:0:0:0:
64,192,95351,1,0,0:0:0:0:
448,192,95396,1,0,0:0:0:0:
320,192,95441,1,0,0:0:0:0:
192,192,95486,1,0,0:0:0:0:
64,192,95532,1,0,0:0:0:0:
192,192,95599,1,0,0:0:0:0:
320,192,95667,1,0,0:0:0:0:
448,192,95712,1,0,0:0:0:0:
64,192,95734,1,0,0:0:0:0:
192,192,95802,1,0,0:0:0:0:
320,192,95847,1,0,0:0:0:0:
448,192,95869,1,0,0:0:0:0:
64,192,95937,1,0,0:0:0:0:
192,192,95982,1,0,0:0:0:0:
448,192,96004,1,0,0:0:0:0:
64,192,96072,1,0,0:0:0:0:
192,192,96117,1,0,0:0:0:0:
448,192,96207,1,0,0:0:0:0:
64,192,96207,1,0,0:0:0:0:
320,192,96252,1,0,0:0:0:0:
192,192,96297,1,0,0:0:0:0:
448,192,96342,1,0,0:0:0:0:
64,192,96388,1,0,0:0:0:0:
320,192,96432,1,0,0:0:0:0:
192,192,96478,1,0,0:0:0:0:
448,192,96522,1,0,0:0:0:0:
64,192,96568,1,0,0:0:0:0:
192,192,96612,1,0,0:0:0:0:
320,192,96658,1,0,0:0:0:0:
64,192,96702,1,0,0:0:0:0:
448,192,96748,1,0,0:0:0:0:
320,192,96792,1,0,0:0:0:0:
192,192,96838,1,0,0:0:0:0:
64,192,96882,1,0,0:0:0:0:
448,192,96928,1,0,0:0:0:0:
192,192,96972,1,0,0:0:0:0:
320,192,97018,1,0,0:0:0:0:
448,192,97062,1,0,0:0:0:0:
64,192,97108,1,0,0:0:0:0:
192,192,97152,1,0,0:0:0:0:
320,192,97198,1,0,0:0:0:0:
448,192,97243,1,0,0:0:0:0:
64,192,97294,1,0,0:0:0:0:
192,192,97338,1,0,0:0:0:0:
320,192,97384,1,0,0:0:0:0:
64,192,97429,1,0,0:0:0:0:
320,192,97474,1,0,0:0:0:0:
192,192,97519,1,0,0:0:0:0:
64,192,97565,1,0,0:0:0:0:
320,192,97603,1,0,0:0:0:0:
192,192,97648,1,0,0:0:0:0:
320,192,97693,1,0,0:0:0:0:
64,192,97738,1,0,0:0:0:0:
448,192,97783,1,0,0:0:0:0:
320,192,97828,1,0,0:0:0:0:
192,192,97873,1,0,0:0:0:0:
448,192,97918,1,0,0:0:0:0:
64,192,97963,1,0,0:0:0:0:
192,192,98009,1,0,0:0:0:0:
320,192,98054,1,0,0:0:0:0:
448,192,98099,1,0,0:0:0:0:
64,192,98144,1,0,0:0:0:0:
192,192,98189,1,0,0:0:0:0:
320,192,98234,1,0,0:0:0:0:
448,192,98279,1,0,0:0:0:0:
64,192,98324,1,0,0:0:0:0:
320,192,98369,1,0,0:0:0:0:
192,192,98414,1,0,0:0:0:0:
64,192,98459,1,0,0:0:0:0:
448,192,98504,1,0,0:0:0:0:
320,192,98549,1,0,0:0:0:0:
192,192,98594,1,0,0:0:0:0:
64,192,98639,1,0,0:0:0:0:
448,192,98684,1,0,0:0:0:0:
320,192,98729,1,0,0:0:0:0:
192,192,98774,1,0,0:0:0:0:
64,192,98819,1,0,0:0:0:0:
320,192,98865,1,0,0:0:0:0:
448,192,98910,1,0,0:0:0:0:
192,192,98955,1,0,0:0:0:0:
320,192,99000,1,0,0:0:0:0:
64,192,99045,1,0,0:0:0:0:
192,192,99090,1,0,0:0:0:0:
320,192,99135,1,0,0:0:0:0:
448,192,99186,1,0,0:0:0:0:
64,192,99231,1,0,0:0:0:0:
192,192,99277,1,0,0:0:0:0:
448,192,99322,1,0,0:0:0:0:
320,192,99366,1,0,0:0:0:0:
192,192,99412,1,0,0:0:0:0:
448,192,99457,1,0,0:0:0:0:
64,192,99501,1,0,0:0:0:0:
192,192,99547,1,0,0:0:0:0:
448,192,99592,1,0,0:0:0:0:
320,192,99636,1,0,0:0:0:0:
192,192,99682,1,0,0:0:0:0:
448,192,99727,1,0,0:0:0:0:
64,192,99766,1,0,0:0:0:0:
192,192,99811,1,0,0:0:0:0:
320,192,99856,1,0,0:0:0:0:
64,192,99901,1,0,0:0:0:0:
448,192,99946,1,0,0:0:0:0:
320,192,99991,1,0,0:0:0:0:
192,192,100058,1,0,0:0:0:0:
320,192,100126,1,0,0:0:0:0:
64,192,100126,1,0,0:0:0:0:
192,192,100193,1,0,0:0:0:0:
448,192,100261,1,0,0:0:0:0:
64,192,100261,1,0,0:0:0:0:
320,192,100328,1,0,0:0:0:0:
448,192,100396,1,0,0:0:0:0:
192,192,100396,1,0,0:0:0:0:
64,192,100463,1,0,0:0:0:0:
320,192,100532,1,0,0:0:0:0:
192,192,100577,1,0,0:0:0:0:
448,192,100622,1,0,0:0:0:0:
320,192,100667,1,0,0:0:0:0:
64,192,100712,1,0,0:0:0:0:
192,192,100757,1,0,0:0:0:0:
320,192,100802,1,0,0:0:0:0:
64,192,100869,1,0,0:0:0:0:
448,192,100937,1,0,0:0:0:0:
320,192,100982,1,0,0:0:0:0:
64,192,101027,1,0,0:0:0:0:
192,192,101072,1,0,0:0:0:0:
448,192,101117,1,0,0:0:0:0:
320,192,101162,1,0,0:0:0:0:
192,192,101207,1,0,0:0:0:0:
448,192,101274,1,0,0:0:0:0:
64,192,101342,1,0,0:0:0:0:
192,192,101388,1,0,0:0:0:0:
448,192,101432,1,0,0:0:0:0:
320,192,101478,1,0,0:0:0:0:
64,192,101522,1,0,0:0:0:0:
192,192,101568,1,0,0:0:0:0:
320,192,101612,1,0,0:0:0:0:
64,192,101680,1,0,0:0:0:0:
192,192,101748,1,0,0:0:0:0:
320,192,101792,1,0,0:0:0:0:
64,192,101838,1,0,0:0:0:0:
192,192,101882,1,0,0:0:0:0:
448,192,101928,1,0,0:0:0:0:
320,192,101972,1,0,0:0:0:0:
192,192,102018,1,0,0:0:0:0:
448,192,102085,1,0,0:0:0:0:
64,192,102152,1,0,0:0:0:0:
192,192,102221,1,0,0:0:0:0:
320,192,102288,1,0,0:0:0:0:
448,192,102356,1,0,0:0:0:0:
320,192,102423,1,0,0:0:0:0:
192,192,102491,1,0,0:0:0:0:
448,192,102558,1,0,0:0:0:0:
64,192,102558,1,0,0:0:0:0:
320,192,102592,1,0,0:0:0:0:
192,192,102626,1,0,0:0:0:0:
448,192,102660,1,0,0:0:0:0:
64,192,102693,1,0,0:0:0:0:
192,192,102828,1,0,0:0:0:0:
320,192,102963,1,0,0:0:0:0:
192,192,103099,1,0,0:0:0:0:
448,192,103234,1,0,0:0:0:0:
64,192,103234,1,0,0:0:0:0:
320,192,103369,1,0,0:0:0:0:
192,192,103504,1,0,0:0:0:0:
320,192,103572,1,0,0:0:0:0:
64,192,103639,1,0,0:0:0:0:
448,192,103707,1,0,0:0:0:0:
64,192,103774,1,0,0:0:0:0:
448,192,103842,1,0,0:0:0:0:
64,192,103910,1,0,0:0:0:0:
448,192,103978,1,0,0:0:0:0:
64,192,104045,1,0,0:0:0:0:
448,192,104112,1,0,0:0:0:0:
64,192,104180,1,0,0:0:0:0:
448,192,104248,1,0,0:0:0:0:
192,192,104315,1,0,0:0:0:0:
64,192,104315,1,0,0:0:0:0:
320,192,104450,1,0,0:0:0:0:
192,192,104518,1,0,0:0:0:0:
448,192,104585,1,0,0:0:0:0:
192,192,104652,1,0,0:0:0:0:
320,192,104721,1,0,0:0:0:0:
192,192,104788,1,0,0:0:0:0:
448,192,104856,1,0,0:0:0:0:
64,192,104991,1,0,0:0:0:0:
320,192,105126,1,0,0:0:0:0:
64,192,105261,1,0,0:0:0:0:
448,192,105396,1,0,0:0:0:0:
320,192,105396,1,0,0:0:0:0:
192,192,105532,1,0,0:0:0:0:
448,192,105667,1,0,0:0:0:0:
64,192,105734,1,0,0:0:0:0:
192,192,105802,1,0,0:0:0:0:
320,192,105869,1,0,0:0:0:0:
192,192,105937,1,0,0:0:0:0:
320,192,106004,1,0,0:0:0:0:
192,192,106072,1,0,0:0:0:0:
320,192,106139,1,0,0:0:0:0:
448,192,106207,1,0,0:0:0:0:
64,192,106342,1,0,0:0:0:0:
448,192,106478,1,0,0:0:0:0:
192,192,106478,1,0,0:0:0:0:
320,192,106612,1,0,0:0:0:0:
192,192,106680,1,0,0:0:0:0:
448,192,106748,1,0,0:0:0:0:
64,192,106815,1,0,0:0:0:0:
320,192,106882,1,0,0:0:0:0:
192,192,106950,1,0,0:0:0:0:
320,192,107018,1,0,0:0:0:0:
64,192,107018,1,0,0:0:0:0:
