osu file format v14

[General]
AudioFilename: audio.mp3
AudioLeadIn: 0
PreviewTime: 55490
Countdown: 0
SampleSet: Soft
StackLeniency: 0.7
Mode: 0
LetterboxInBreaks: 0
WidescreenStoryboard: 0

[Editor]
Bookmarks: 17228,50523,56072
DistanceSpacing: 1
BeatDivisor: 4
GridSize: 32
TimelineZoom: 1.5

[Metadata]
Title:TIT FOR TAT (TV Size)
TitleUnicode:TIT FOR TAT (TV Size)
Artist:MYTH & ROID
ArtistUnicode:MYTH & ROID
Creator:Kuki1537
Version:Ready Perfectly
Source:慎重勇者~この勇者が俺TUEEEくせに慎重すぎる~
Tags:Kono Yuusha ga Ore Tueee Kuse ni Shinchou Sugiru Cautious Hero: The Is Overpowered but Overly Funimation KADOKAWA english japanese female vocal anime pop rock
BeatmapID:2243773
BeatmapSetID:1072007

[Difficulty]
HPDrainRate:5.5
CircleSize:4.2
OverallDifficulty:9
ApproachRate:9.2
SliderMultiplier:2
SliderTickRate:1

[Events]
//Background and Video events
0,0,"bg.jpg",0,0
Video,250,"tft.mp4"
//Break Periods
//Storyboard Layer 0 (Background)
//Storyboard Layer 1 (Fail)
//Storyboard Layer 2 (Pass)
//Storyboard Layer 3 (Foreground)
//Storyboard Layer 4 (Overlay)
//Storyboard Sound Samples

[TimingPoints]
780,346.820809248555,4,2,45,52,1,0
780,-166.666666666667,4,2,45,52,0,0
6329,-133.333333333333,4,2,45,52,0,0
11878,-133.333333333333,4,2,45,22,0,0
12225,-133.333333333333,4,2,45,27,0,0
12571,-133.333333333333,4,2,45,37,0,0
12918,-133.333333333333,4,2,45,45,0,0
13265,-133.333333333333,4,2,45,53,0,0
13612,-133.333333333333,4,2,45,60,0,0
13959,-117.647058823529,4,2,45,66,0,0
14652,-117.647058823529,4,2,45,74,0,0
17427,-100,4,2,45,70,0,0
22282,-142.857142857143,4,2,45,70,0,0
22629,-100,4,2,45,70,0,0
28525,-166.666666666667,4,2,45,56,0,0
33381,-125,4,2,45,63,0,0
34074,-111.111111111111,4,2,45,70,0,0
38930,-142.857142857143,4,2,45,70,0,0
39277,-111.111111111111,4,2,45,70,0,0
39623,-166.666666666666,4,2,45,56,0,0
44479,-125,4,2,45,63,0,0
45173,-111.111111111111,4,2,45,70,0,0
50028,-142.857142857143,4,2,45,70,0,0
50375,-111.111111111111,4,2,45,70,0,0
50722,-142.857142857143,4,2,45,56,0,0
53496,-142.857142857143,4,2,45,71,0,0
56271,-90.9090909090908,4,2,45,80,0,1
65982,-90.9090909090908,4,2,45,80,0,0
66675,-90.9090909090908,4,2,45,86,0,0
67369,-90.9090909090908,4,2,45,80,0,1
72225,-125,4,2,45,80,0,1
72918,-90.9090909090909,4,2,45,80,0,1
75693,-90.9090909090909,4,2,45,86,0,0
77774,-125,4,2,45,86,0,0
78467,-111.111111111111,4,2,45,70,0,0
83323,-142.857142857143,4,2,45,70,0,0
83670,-111.111111111111,4,2,45,70,0,0
88872,-111.111111111111,4,2,45,80,0,0

[Colours]
Combo1 : 193,193,193
Combo2 : 250,255,51
Combo3 : 253,151,255
Combo4 : 21,173,255
Combo5 : 96,96,96
Combo6 : 255,134,53

[HitObjects]
87,168,780,6,0,P|116:184|150:193,1,59.9999981689454,2|0,0:2|0:2,0:0:0:0:
183,112,1126,2,0,P|221:98|250:95,1,59.9999981689454,2|0,0:2|0:2,0:0:0:0:
325,148,1473,1,2,0:2:0:0:
288,227,1647,2,0,P|255:242|229:249,1,59.9999981689454,2|0,0:2|0:0,0:0:0:0:
350,295,1993,1,2,0:2:0:0:
413,238,2167,6,0,P|425:205|428:176,1,59.9999981689454,2|0,0:2|0:2,0:0:0:0:
455,313,2514,1,2,0:2:0:0:
504,249,2687,1,0,0:2:0:0:
373,327,2860,2,0,P|335:338|281:342,1,89.9999972534181,2|0,0:2|0:0,0:0:0:0:
251,332,3207,2,0,L|247:298,3,29.9999990844727,2|0|0|0,0:2|0:0|0:0|0:0,0:0:0:0:
154,256,3554,6,0,P|161:288|165:324,1,59.9999981689454,2|0,0:2|0:2,0:0:0:0:
86,317,3901,2,0,P|81:346|72:375,1,59.9999981689454,2|0,0:2|0:2,0:0:0:0:
2,308,4248,1,2,0:2:0:0:
25,221,4421,2,0,P|64:193|89:183,1,59.9999981689454,2|0,0:2|0:0,0:0:0:0:
154,143,4768,1,2,0:2:0:0:
77,98,4941,6,0,P|42:108|3:109,1,59.9999981689454,2|0,0:2|0:2,0:0:0:0:
122,21,5288,1,2,0:2:0:0:
199,66,5462,1,0,0:2:0:0:
287,19,5635,5,10,0:2:0:0:
209,206,5982,1,2,0:2:0:0:
351,84,6329,6,0,B|401:63|401:63|519:68,1,150.000005722046,6|2,1:2|1:2,0:0:0:0:
370,178,6849,2,0,P|315:169|255:91,1,150.000005722046,2|2,0:2|0:2,0:0:0:0:
466,155,7369,2,0,L|471:271,1,112.500004291535,2|0,1:2|0:0,0:0:0:0:
472,300,7716,6,0,P|393:279|320:313,1,150.000005722046,6|0,1:2|1:2,0:0:0:0:
331,302,8410,1,2,1:2:0:0:
181,236,8583,1,2,0:2:0:0:
323,190,8756,1,2,1:2:0:0:
230,326,8930,1,2,0:2:0:0:
90,232,9103,6,0,P|110:171|121:71,1,150.000005722046,6|2,1:2|1:2,0:0:0:0:
32,19,9623,2,0,B|69:41|69:41|176:31,1,150.000005722046,2|2,0:2|0:2,0:0:0:0:
276,113,10144,2,0,P|248:140|268:223,1,112.500004291535,2|0,1:2|0:0,0:0:0:0:
276,232,10490,6,0,B|356:224|332:285|429:279,1,150.000005722046,6|0,1:2|1:2,0:0:0:0:
410,195,11011,1,0,0:0:0:0:
288,313,11184,2,0,P|243:337|200:348,1,75.0000028610231,2|0,1:2|0:0,0:0:0:0:
176,224,11531,1,8,1:2:0:0:
176,224,11878,6,0,L|168:142,1,75.0000028610231,14|8,0:2|0:2,0:0:0:0:
46,56,12225,2,0,L|38:140,1,75.0000028610231,10|8,0:2|0:2,0:0:0:0:
81,253,12571,5,10,0:2:0:0:
162,70,12745,1,8,0:2:0:0:
198,330,12918,5,10,0:2:0:0:
64,146,13092,1,10,0:2:0:0:
352,222,13265,5,8,0:2:0:0:
101,355,13438,1,10,0:2:0:0:
400,335,13612,5,10,0:2:0:0:
146,187,13785,1,10,0:2:0:0:
430,146,13959,2,0,P|480:167|507:200,2,85.0000016212464,2|0|0,1:2|1:2|1:2,0:0:0:0:
89,59,14652,5,10,0:2:0:0:
281,118,14826,1,2,1:2:0:0:
76,207,14999,1,2,1:2:0:0:
216,56,15173,2,0,P|264:33|313:31,1,85.0000016212464,10|0,0:2|0:0,0:0:0:0:
351,216,15519,1,2,0:2:0:0:
143,136,15693,5,10,0:2:0:0:
393,99,15866,1,2,1:2:0:0:
205,216,16040,1,2,1:2:0:0:
435,250,16213,2,0,P|477:264|521:293,1,85.0000016212464,10|0,0:2|0:0,0:0:0:0:
338,332,16560,1,2,1:2:0:0:
267,71,16733,5,10,0:2:0:0:
225,338,16907,1,0,1:2:0:0:
357,136,17080,2,0,L|367:45,1,85.0000016212464,8|2,0:2|1:2,0:0:0:0:
258,215,17427,6,0,P|314:240|381:250,1,100,6|0,1:2|1:2,0:0:0:0:
245,46,17774,2,0,P|192:55|138:82,1,100,8|0,0:2|0:2,0:0:0:0:
148,238,18121,1,2,1:2:0:0:
272,127,18294,1,0,1:2:0:0:
77,126,18467,1,8,0:2:0:0:
224,296,18641,1,2,0:2:0:0:
224,296,18727,1,0,0:0:0:0:
224,296,18814,6,0,P|175:326|123:331,1,100,2|0,1:2|1:2,0:0:0:0:
340,186,19161,2,0,P|399:199|448:233,1,100,8|0,0:2|0:2,0:0:0:0:
265,371,19508,2,0,B|259:305|259:305|268:278|268:278|263:220,1,150,2|0,1:2|0:0,0:0:0:0:
252,145,19855,2,0,B|222:152|202:174|202:174|155:197|103:180,1,150,10|0,1:2|0:0,0:0:0:0:
37,167,20201,6,0,P|33:219|27:266,1,100,0|0,1:2|1:2,0:0:0:0:
155,104,20548,2,0,P|196:76|244:63,1,100,8|0,0:2|0:2,0:0:0:0:
347,202,20895,1,2,1:2:0:0:
188,215,21069,1,0,1:2:0:0:
376,104,21242,1,8,0:2:0:0:
322,299,21415,1,2,0:2:0:0:
322,299,21502,1,0,0:0:0:0:
322,299,21589,6,0,L|427:309,1,100,0|0,1:2|1:2,0:0:0:0:
512,130,21936,2,0,P|462:162|414:172,1,100,8|0,0:2|0:2,0:0:0:0:
255,10,22282,2,0,P|255:62|264:117,1,104.999996795654,2|0,1:2|0:0,0:0:0:0:
267,145,22629,2,0,P|212:123|136:170,1,150,10|0,1:2|0:0,0:0:0:0:
134,199,22976,6,0,P|140:255|151:299,1,100,0|0,1:2|1:2,0:0:0:0:
345,192,23323,2,0,P|354:140|358:84,1,100,8|0,0:2|0:2,0:0:0:0:
179,85,23670,1,2,1:2:0:0:
265,232,23843,1,0,1:2:0:0:
293,31,24016,1,8,0:2:0:0:
412,185,24190,1,2,0:2:0:0:
412,185,24277,1,0,0:0:0:0:
412,185,24363,6,0,P|357:164|314:160,1,100,0|0,1:2|1:2,0:0:0:0:
346,354,24710,2,0,L|352:246,1,100,8|0,0:2|0:2,0:0:0:0:
93,137,25057,2,0,B|106:248|106:248|138:203,1,150,2|0,1:2|0:0,0:0:0:0:
173,151,25404,2,0,B|249:125|243:184|319:159,1,150,10|0,1:2|0:0,0:0:0:0:
386,111,25751,6,0,P|326:77|273:88,1,100,0|0,1:2|1:2,0:0:0:0:
409,221,26097,2,0,P|467:204|497:172,1,100,8|0,0:2|0:2,0:0:0:0:
429,5,26444,1,2,1:2:0:0:
317,159,26618,1,0,1:2:0:0:
498,87,26791,1,8,0:2:0:0:
321,1,26964,1,2,0:2:0:0:
321,1,27051,1,0,0:0:0:0:
321,1,27138,6,0,P|266:12|212:17,1,100,0|0,1:2|1:2,0:0:0:0:
36,81,27485,2,0,P|103:85|156:102,1,100,8|0,0:2|0:2,0:0:0:0:
240,147,27832,6,0,L|236:207,1,50,2|0,1:2|0:0,0:0:0:0:
227,373,28005,2,0,L|230:318,1,50,8|0,1:2|0:0,0:0:0:0:
152,119,28178,6,0,L|148:179,1,50,2|0,1:2|0:0,0:0:0:0:
137,384,28351,2,0,L|140:329,1,50,8|0,1:2|0:0,0:0:0:0:
290,263,28525,6,0,L|353:268,1,59.9999981689454,2|2,1:2|1:2,0:0:0:0:
461,292,28872,2,0,P|475:329|478:358,1,59.9999981689454,10|2,0:2|1:2,0:0:0:0:
395,341,29219,2,0,P|376:368|350:387,1,59.9999981689454,2|0,0:2|1:2,0:0:0:0:
309,291,29566,1,10,0:2:0:0:
418,213,29739,2,0,P|447:173|431:106,1,119.999996337891,2|0,0:2|1:2,0:0:0:0:
290,96,30259,2,0,P|320:91|348:80,1,59.9999981689454,10|2,0:2|1:2,0:0:0:0:
251,20,30606,2,0,P|211:8|184:7,1,59.9999981689454,2|0,0:2|1:2,0:0:0:0:
207,124,30953,2,0,B|212:181|212:181|192:214,1,89.9999972534181,10|0,0:2|0:0,0:0:0:0:
149,266,31300,5,2,1:2:0:0:
149,266,31473,1,2,1:2:0:0:
246,317,31647,1,10,0:2:0:0:
246,317,31820,1,2,1:2:0:0:
158,357,31993,2,0,P|110:349|83:330,1,59.9999981689454,2|0,0:2|1:2,0:0:0:0:
52,250,32340,1,10,0:2:0:0:
134,188,32514,2,0,B|208:176|180:215|250:209,1,119.999996337891,2|0,0:2|1:2,0:0:0:0:
322,100,33034,2,0,P|330:128|349:151,1,59.9999981689454,10|0,0:2|1:2,0:0:0:0:
469,149,33381,6,0,P|434:189|453:276,1,120,2|0,1:2|0:0,0:0:0:0:
454,280,33727,2,0,B|409:286|409:286|383:303|383:303|330:310,1,120,10|0,1:2|0:0,0:0:0:0:
308,313,34074,6,0,P|264:298|220:294,1,89.9999972534181,4|0,1:2|1:2,0:0:0:0:
63,209,34421,2,0,P|120:203|163:185,1,89.9999972534181,10|2,0:2|0:2,0:0:0:0:
265,113,34768,1,2,1:2:0:0:
96,96,34941,1,2,1:2:0:0:
253,210,35115,1,8,0:2:0:0:
189,31,35288,1,2,0:2:0:0:
189,31,35375,1,0,0:0:0:0:
189,31,35462,6,0,P|246:17|297:12,1,89.9999972534181,2|2,1:2|1:2,0:0:0:0:
345,127,35808,2,0,P|392:146|450:151,1,89.9999972534181,10|2,0:2|0:2,0:0:0:0:
485,13,36155,2,0,B|452:-3|407:10|398:49|398:49|445:72,1,134.999995880127,2|0,1:2|0:0,0:0:0:0:
496,97,36502,2,0,B|513:143|513:143|505:239,1,134.999995880127,10|0,1:2|0:0,0:0:0:0:
496,311,36849,6,0,P|445:332|389:337,1,89.9999972534181,0|0,1:2|1:2,0:0:0:0:
313,203,37196,2,0,P|376:211|430:233,1,89.9999972534181,10|2,0:2|0:2,0:0:0:0:
301,345,37543,1,2,1:2:0:0:
207,191,37716,1,2,1:2:0:0:
373,246,37889,1,8,0:2:0:0:
207,363,38063,1,2,0:2:0:0:
207,363,38149,1,0,0:0:0:0:
207,363,38236,6,0,L|198:262,1,89.9999972534181,2|2,1:2|1:2,0:0:0:0:
48,256,38583,2,0,L|56:166,1,89.9999972534181,10|2,0:2|0:2,0:0:0:0:
146,47,38930,2,0,B|209:46|257:59,1,104.999996795654,2|0,1:2|0:0,0:0:0:0:
279,70,39277,2,0,P|259:116|331:196,1,134.999995880127,2|0,1:2|0:0,0:0:0:0:
339,118,39623,6,0,P|370:107|425:101,1,59.9999981689454,2|2,1:2|1:2,0:0:0:0:
488,195,39970,2,0,L|494:136,1,59.9999981689454,10|2,0:2|1:2,0:0:0:0:
399,189,40317,2,0,L|404:256,1,59.9999981689454,2|0,0:2|1:2,0:0:0:0:
496,288,40664,1,10,0:2:0:0:
439,358,40837,2,0,P|401:336|371:333,1,59.9999981689454,2|0,0:2|1:2,0:0:0:0:
306,274,41184,1,2,1:2:0:0:
306,274,41358,2,0,P|260:296|236:298,1,59.9999981689454,10|2,0:2|1:2,0:0:0:0:
191,378,41704,2,0,P|141:358|112:358,1,59.9999981689454,2|0,0:2|1:2,0:0:0:0:
31,344,42051,2,0,B|35:278|35:278|59:236,1,89.9999972534181,10|0,0:2|0:0,0:0:0:0:
95,197,42398,5,2,1:2:0:0:
95,197,42571,1,2,1:2:0:0:
16,126,42745,1,10,0:2:0:0:
16,126,42918,1,2,1:2:0:0:
117,93,43092,2,0,P|153:109|178:135,1,59.9999981689454,2|0,0:2|1:2,0:0:0:0:
182,221,43438,1,10,0:2:0:0:
260,160,43612,2,0,B|279:122|279:122|269:26,1,119.999996337891,2|0,0:2|1:2,0:0:0:0:
379,0,44132,2,0,L|371:65,1,59.9999981689454,10|0,0:2|1:2,0:0:0:0:
484,93,44479,6,0,B|495:174|495:174|474:228,1,120,2|0,1:2|0:0,0:0:0:0:
468,239,44826,2,0,B|401:232|419:283|346:277,1,120,10|0,1:2|0:0,0:0:0:0:
324,275,45173,6,0,L|329:185,1,89.9999972534181,4|0,1:2|1:2,0:0:0:0:
185,295,45519,2,0,L|191:384,1,89.9999972534181,10|2,0:2|0:2,0:0:0:0:
250,186,45866,1,2,1:2:0:0:
99,273,46040,1,2,1:2:0:0:
274,333,46213,1,8,0:2:0:0:
113,370,46386,1,2,0:2:0:0:
113,370,46473,1,0,0:0:0:0:
113,370,46560,6,0,P|51:360|11:339,1,89.9999972534181,2|2,1:2|1:2,0:0:0:0:
116,249,46907,2,0,P|139:207|148:161,1,89.9999972534181,10|2,0:2|0:2,0:0:0:0:
65,34,47253,2,0,B|138:23|116:85|219:73,1,134.999995880127,2|0,1:2|0:0,0:0:0:0:
251,27,47600,2,0,B|283:78|250:127|250:127|257:173,1,134.999995880127,10|0,1:2|0:0,0:0:0:0:
271,230,47947,6,0,P|320:254|369:265,1,89.9999972534181,0|0,1:2|1:2,0:0:0:0:
446,131,48294,2,0,P|394:139|346:161,1,89.9999972534181,10|2,0:2|0:2,0:0:0:0:
466,238,48641,1,2,1:2:0:0:
500,67,48814,1,2,1:2:0:0:
338,165,48988,1,8,0:2:0:0:
405,3,49161,1,2,0:2:0:0:
405,3,49248,1,0,0:0:0:0:
405,3,49334,6,0,L|413:112,1,89.9999972534181,2|2,1:2|1:2,0:0:0:0:
256,104,49681,2,0,L|247:207,1,89.9999972534181,10|2,0:2|0:2,0:0:0:0:
398,298,50028,2,0,P|340:285|284:308,1,104.999996795654,2|0,1:2|0:0,0:0:0:0:
274,313,50375,2,0,B|235:342|235:342|131:350,1,134.999995880127,2|0,1:2|0:0,0:0:0:0:
113,347,50722,6,0,P|133:288|109:187,1,139.999995727539,6|2,0:2|0:2,0:0:0:0:
19,126,51242,1,0,1:2:0:0:
19,126,51329,1,0,1:2:0:0:
19,126,51415,2,0,B|81:133|81:133|108:124|108:124|166:131,1,139.999995727539,10|2,0:2|1:2,0:0:0:0:
331,97,52109,5,6,0:2:0:0:
397,163,52282,2,0,P|405:213|329:257,1,139.999995727539,0|0,1:2|1:2,0:0:0:0:
278,184,52803,2,0,B|294:223|294:223|286:325,1,139.999995727539,10|2,0:2|0:2,0:0:0:0:
209,238,53323,1,0,1:2:0:0:
364,338,53496,5,10,1:2:0:0:
134,289,53670,1,0,1:2:0:0:
134,289,54016,5,10,1:2:0:0:
377,211,54190,1,0,1:2:0:0:
377,211,54537,5,10,1:2:0:0:
241,373,54711,1,0,1:2:0:0:
241,373,55057,5,8,1:2:0:0:
272,42,55230,1,8,1:2:0:0:
282,52,56271,6,0,P|306:116|309:184,1,110.000003356934,6|0,1:2|0:0,0:0:0:0:
172,336,56618,1,10,0:2:0:0:
95,126,56791,2,0,L|226:115,1,110.000003356934,2|0,0:2|1:2,0:0:0:0:
394,341,57138,1,2,0:2:0:0:
191,216,57311,1,10,1:2:0:0:
434,121,57485,1,0,0:0:0:0:
434,121,57571,1,0,0:0:0:0:
434,121,57658,6,0,L|442:242,1,110.000003356934,2|0,1:2|0:0,0:0:0:0:
183,325,58005,2,0,L|191:207,1,110.000003356934,8|0,0:2|0:0,0:0:0:0:
325,28,58352,1,2,1:2:0:0:
385,311,58525,1,2,0:2:0:0:
204,116,58699,1,10,1:2:0:0:
512,186,58872,1,2,0:2:0:0:
243,344,59045,6,0,P|182:364|128:366,1,110.000003356934,2|0,1:2|0:0,0:0:0:0:
104,156,59392,1,10,0:2:0:0:
344,255,59566,2,0,L|350:371,1,110.000003356934,2|0,0:2|1:2,0:0:0:0:
202,204,59912,1,2,0:2:0:0:
442,95,60086,1,10,1:2:0:0:
158,18,60259,1,0,0:0:0:0:
158,18,60346,1,0,0:0:0:0:
158,18,60433,6,0,P|222:25|275:44,1,110.000003356934,2|0,1:2|0:0,0:0:0:0:
126,238,60780,2,0,P|71:258|5:271,1,110.000003356934,8|0,0:2|0:0,0:0:0:0:
307,137,61126,2,0,L|317:258,1,110.000003356934,2|0,1:2|0:0,0:0:0:0:
26,121,61473,2,0,L|36:7,1,110.000003356934,8|0,1:2|0:0,0:0:0:0:
307,9,61820,6,0,B|315:96|315:96|340:124|340:124|350:236,1,220.000006713867,6|10,1:2|0:2,0:0:0:0:
238,384,62340,1,0,0:0:0:0:
140,221,62514,2,0,P|206:185|259:176,1,110.000003356934,2|0,1:2|0:0,0:0:0:0:
466,373,62860,1,10,0:2:0:0:
229,273,63034,1,2,0:2:0:0:
495,164,63207,5,0,1:2:0:0:
352,378,63381,1,2,0:2:0:0:
338,96,63554,1,10,0:2:0:0:
478,292,63727,1,2,0:2:0:0:
509,71,63901,2,0,P|472:22|427:-1,1,110.000003356934,2|0,1:2|0:0,0:0:0:0:
306,182,64248,2,0,B|284:218|303:259|303:259|340:274|384:248,1,165.000005035401,8|0,0:2|0:0,0:0:0:0:
390,166,64595,5,2,1:2:0:0:
137,75,64768,1,2,0:2:0:0:
427,86,64941,1,10,0:2:0:0:
170,224,65115,1,2,0:2:0:0:
291,20,65288,2,0,P|346:0|397:0,1,110.000003356934,2|0,1:2|0:0,0:0:0:0:
336,268,65635,2,0,L|330:212,1,55.0000016784668,10|0,1:2|0:0,0:0:0:0:
233,104,65808,2,0,L|226:162,1,55.0000016784668,0|0,1:2|0:0,0:0:0:0:
80,351,65982,5,2,1:2:0:0:
319,286,66155,1,2,0:2:0:0:
141,144,66329,2,0,P|84:118|32:114,1,110.000003356934,10|0,0:2|0:0,0:0:0:0:
165,369,66675,5,10,0:2:0:0:
315,101,66849,1,2,1:2:0:0:
38,243,67022,5,10,0:2:0:0:
405,325,67196,1,2,1:2:0:0:
219,44,67369,6,0,P|161:20|86:14,1,110.000003356934,6|0,1:2|0:0,0:0:0:0:
184,275,67716,1,10,0:2:0:0:
377,126,67889,2,0,P|397:64|403:10,1,110.000003356934,2|0,1:2|0:0,0:0:0:0:
202,161,68236,1,2,1:2:0:0:
445,288,68410,2,0,P|490:260|424:208,1,165.000005035401,10|0,0:2|0:0,0:0:0:0:
363,265,68756,6,0,P|295:288|227:293,1,110.000003356934,6|0,1:2|0:0,0:0:0:0:
57,56,69103,2,0,P|125:61|183:86,1,110.000003356934,8|0,0:2|1:2,0:0:0:0:
157,330,69450,1,2,0:2:0:0:
2,120,69623,1,2,1:2:0:0:
291,108,69797,1,10,0:2:0:0:
26,261,69970,1,2,0:2:0:0:
230,12,70144,6,0,L|346:24,1,110.000003356934,6|0,1:2|0:0,0:0:0:0:
363,265,70490,1,10,0:2:0:0:
156,103,70664,2,0,P|130:48|128:-11,1,110.000003356934,2|0,1:2|0:0,0:0:0:0:
400,125,71011,1,2,1:2:0:0:
167,217,71184,2,0,B|127:212|98:245|98:245|47:264|11:237,1,165.000005035401,10|0,0:2|0:0,0:0:0:0:
59,173,71531,6,0,P|77:120|85:59,1,110.000003356934,6|0,1:2|0:0,0:0:0:0:
339,181,71878,2,0,P|276:157|223:149,1,110.000003356934,8|0,0:2|1:2,0:0:0:0:
72,351,72225,2,0,B|162:365|130:284|234:298,1,160,2|10,0:2|0:2,0:0:0:0:
437,357,72745,1,0,0:0:0:0:
437,357,72832,1,0,0:0:0:0:
437,357,72918,5,6,1:2:0:0:
477,91,73092,1,2,1:2:0:0:
248,300,73265,1,10,0:2:0:0:
512,211,73438,1,0,0:0:0:0:
305,93,73612,2,0,P|246:68|181:67,1,110.000003356934,2|0,1:2|1:2,0:0:0:0:
359,285,73959,1,10,0:2:0:0:
392,30,74132,1,2,0:2:0:0:
207,224,74306,5,0,1:2:0:0:
466,120,74479,1,2,1:2:0:0:
172,67,74652,1,10,0:2:0:0:
412,202,74826,1,2,0:2:0:0:
157,296,74999,1,2,1:2:0:0:
305,93,75173,1,0,1:2:0:0:
359,285,75346,2,0,P|340:344|299:375,1,110.000003356934,10|0,0:2|0:0,0:0:0:0:
28,129,75693,5,2,1:2:0:0:
337,192,75866,1,2,1:2:0:0:
51,313,76040,1,10,1:2:0:0:
181,31,76213,1,2,1:2:0:0:
181,31,76560,5,10,0:2:0:0:
249,267,76733,2,0,L|242:378,1,110.000003356934,2|0,1:2|1:2,0:0:0:0:
104,74,77080,1,10,1:2:0:0:
408,118,77253,1,2,1:2:0:0:
408,118,77600,5,2,1:2:0:0:
101,189,77774,2,0,P|71:234|125:255,1,120,10|0,0:2|0:0,0:0:0:0:
174,211,78121,2,0,B|221:201|221:201|257:230|309:222,1,120,10|0,0:2|0:0,0:0:0:0:
356,181,78467,6,0,P|373:127|373:75,1,89.9999972534181,6|0,1:2|1:2,0:0:0:0:
205,0,78814,2,0,P|210:47|230:98,1,89.9999972534181,8|0,0:2|0:2,0:0:0:0:
455,135,79161,1,2,1:2:0:0:
301,18,79334,1,0,1:2:0:0:
488,21,79508,1,8,0:2:0:0:
288,125,79681,1,2,0:2:0:0:
288,125,79768,1,0,0:0:0:0:
288,125,79855,6,0,L|184:138,1,89.9999972534181,2|0,1:2|1:2,0:0:0:0:
19,20,80201,2,0,L|128:28,1,89.9999972534181,8|0,0:2|0:2,0:0:0:0:
251,205,80548,2,0,B|200:212|200:212|169:227|169:227|115:233,1,134.999995880127,2|0,1:2|0:0,0:0:0:0:
45,243,80895,2,0,P|1:203|14:111,1,134.999995880127,10|0,1:2|0:0,0:0:0:0:
77,163,81242,6,0,P|126:153|168:131,1,89.9999972534181,0|0,1:2|1:2,0:0:0:0:
315,313,81589,2,0,P|265:292|219:286,1,89.9999972534181,8|0,0:2|0:2,0:0:0:0:
72,342,81936,1,2,1:2:0:0:
254,379,82109,1,0,1:2:0:0:
169,227,82282,1,8,0:2:0:0:
364,202,82456,1,2,0:2:0:0:
364,202,82543,1,0,0:0:0:0:
364,202,82629,6,0,P|390:249|405:294,1,89.9999972534181,0|0,1:2|1:2,0:0:0:0:
487,149,82976,2,0,P|504:106|509:61,1,89.9999972534181,8|0,0:2|0:2,0:0:0:0:
351,52,83323,2,0,B|312:55|312:55|285:67|285:67|243:71,1,104.999996795654,2|0,1:2|0:0,0:0:0:0:
218,73,83670,2,0,P|195:127|98:131,1,134.999995880127,10|0,1:2|0:0,0:0:0:0:
95,140,84016,6,0,L|86:49,1,89.9999972534181,0|0,1:2|1:2,0:0:0:0:
241,216,84363,2,0,L|235:307,1,89.9999972534181,8|0,0:2|0:2,0:0:0:0:
103,249,84710,1,2,1:2:0:0:
273,130,84884,1,0,1:2:0:0:
319,309,85057,1,8,0:2:0:0:
165,170,85230,1,2,0:2:0:0:
165,170,85317,1,0,0:0:0:0:
165,170,85404,6,0,P|217:208|276:220,1,89.9999972534181,0|0,1:2|1:2,0:0:0:0:
354,93,85751,2,0,P|400:72|441:64,1,89.9999972534181,8|0,0:2|0:2,0:0:0:0:
410,279,86097,2,0,B|426:316|466:328|498:297|498:297|486:251,1,134.999995880127,2|0,1:2|0:0,0:0:0:0:
442,201,86444,2,0,P|390:198|326:257,1,134.999995880127,10|0,1:2|0:0,0:0:0:0:
342,336,86791,6,0,L|237:347,1,89.9999972534181,0|0,1:2|1:2,0:0:0:0:
123,200,87138,2,0,L|237:187,1,89.9999972534181,8|0,0:2|0:2,0:0:0:0:
165,356,87485,1,2,1:2:0:0:
37,213,87658,1,0,1:2:0:0:
252,262,87832,1,8,0:2:0:0:
55,376,88005,1,2,0:2:0:0:
55,376,88092,1,0,0:0:0:0:
55,376,88178,6,0,P|70:321|76:277,1,89.9999972534181,0|0,1:2|1:2,0:0:0:0:
212,189,88525,2,0,P|197:133|193:92,1,89.9999972534181,8|0,0:2|0:2,0:0:0:0:
63,64,88872,5,2,1:2:0:0:
381,148,89045,1,8,1:2:0:0:
123,224,89219,5,2,1:2:0:0:
464,124,89392,1,8,1:2:0:0:
