osu file format v14

[General]
AudioFilename: audio.mp3
AudioLeadIn: 0
PreviewTime: 55490
Countdown: 0
SampleSet: Soft
StackLeniency: 0.7
Mode: 0
LetterboxInBreaks: 0
WidescreenStoryboard: 1

[Editor]
Bookmarks: 17228,50523,56072
DistanceSpacing: 1
BeatDivisor: 4
GridSize: 32
TimelineZoom: 1.5

[Metadata]
Title:TIT FOR TAT (TV Size)
TitleUnicode:TIT FOR TAT (TV Size)
Artist:MYTH & ROID
ArtistUnicode:MYTH & ROID
Creator:Kuki1537
Version:Normal
Source:慎重勇者~この勇者が俺TUEEEくせに慎重すぎる~
Tags:Kono Yuusha ga Ore Tueee Kuse ni Shinchou Sugiru Cautious Hero: The Is Overpowered but Overly Funimation KADOKAWA english japanese female vocal anime pop rock
BeatmapID:2244758
BeatmapSetID:1072007

[Difficulty]
HPDrainRate:4
CircleSize:3.5
OverallDifficulty:4
ApproachRate:5.5
SliderMultiplier:1
SliderTickRate:1

[Events]
//Background and Video events
0,0,"bg.jpg",0,0
Video,250,"tft.mp4"
//Break Periods
//Storyboard Layer 0 (Background)
//Storyboard Layer 1 (Fail)
//Storyboard Layer 2 (Pass)
//Storyboard Layer 3 (Foreground)
//Storyboard Layer 4 (Overlay)
//Storyboard Sound Samples

[TimingPoints]
780,346.820809248555,4,2,45,68,1,0
780,-100,4,2,45,68,0,0
6329,-100,4,2,45,60,0,0
11878,-100,4,2,45,22,0,0
12225,-100,4,2,45,27,0,0
12571,-100,4,2,45,37,0,0
12918,-100,4,2,45,45,0,0
13265,-100,4,2,45,53,0,0
13612,-100,4,2,45,60,0,0
13959,-100,4,2,45,66,0,0
14652,-100,4,2,45,74,0,0
17427,-100,4,2,45,70,0,0
28525,-100,4,2,45,56,0,0
33381,-100,4,2,45,63,0,0
34074,-100,4,2,45,70,0,0
39623,-100,4,2,45,56,0,0
44479,-100,4,2,45,63,0,0
45173,-100,4,2,45,70,0,0
50722,-100,4,2,45,56,0,0
53496,-100,4,2,45,71,0,0
56271,-100,4,2,45,80,0,1
66675,-100,4,2,45,86,0,0
67369,-100,4,2,45,80,0,1
75693,-100,4,2,45,86,0,0
78467,-100,4,2,45,70,0,0
88872,-100,4,2,45,80,0,0

[Colours]
Combo1 : 193,193,193
Combo2 : 250,255,51
Combo3 : 253,151,255
Combo4 : 21,173,255
Combo5 : 96,96,96
Combo6 : 255,134,53

[HitObjects]
140,70,780,6,0,P|125:116|146:173,1,100,2|2,0:2|0:2,0:0:0:0:
182,188,1300,1,0,0:2:0:0:
182,188,1473,2,0,L|290:182,1,100,2|0,0:2|0:0,0:0:0:0:
379,158,2167,1,2,0:2:0:0:
464,210,2514,1,2,0:2:0:0:
473,309,2860,2,0,P|437:355|377:364,1,100,2|2,0:2|0:2,0:0:0:0:
302,343,3554,6,0,L|185:337,1,100,2|2,0:2|0:2,0:0:0:0:
153,348,4074,1,0,0:2:0:0:
153,348,4248,2,0,P|93:357|55:343,1,100,2|0,0:2|0:0,0:0:0:0:
32,247,4941,1,2,0:2:0:0:
41,147,5288,1,2,0:2:0:0:
120,86,5635,1,10,0:2:0:0:
294,5,6329,6,0,L|289:113,1,100,6|2,1:2|1:2,0:0:0:0:
288,155,6849,2,0,P|256:177|179:167,1,100,2|2,0:2|0:2,0:0:0:0:
157,144,7369,1,2,1:2:0:0:
57,153,7716,2,0,B|39:207|39:207|57:266,1,100,6|0,1:2|1:2,0:0:0:0:
111,328,8410,1,2,1:2:0:0:
210,339,8756,1,2,1:2:0:0:
286,273,9103,6,0,P|313:249|388:254,1,100,6|2,1:2|1:2,0:0:0:0:
420,267,9623,2,0,P|475:267|511:228,1,100,2|2,0:2|0:2,0:0:0:0:
510,187,10144,1,2,1:2:0:0:
503,87,10490,2,0,L|391:77,1,100,6|0,1:2|1:2,0:0:0:0:
374,37,11011,1,0,0:0:0:0:
374,37,11184,2,0,L|255:46,1,100,2|8,1:2|1:2,0:0:0:0:
177,17,11878,6,0,P|161:71|174:122,1,100,14|10,0:2|0:2,0:0:0:0:
246,176,12571,2,0,P|261:226|241:287,1,100,10|10,0:2|0:2,0:0:0:0:
170,332,13265,1,8,0:2:0:0:
71,314,13612,1,10,0:2:0:0:
27,223,13959,2,0,P|8:195|0:167,2,50,2|0|0,1:2|1:2|1:2,0:0:0:0:
125,205,14652,6,0,P|178:197|227:223,1,100,10|2,0:2|1:2,0:0:0:0:
239,261,15173,1,10,0:2:0:0:
250,363,15519,1,2,0:2:0:0:
250,363,15693,2,0,L|354:370,1,100,10|2,0:2|1:2,0:0:0:0:
399,364,16213,1,10,0:2:0:0:
479,300,16560,1,2,1:2:0:0:
479,300,16733,2,0,P|507:250|503:200,1,100,10|8,0:2|0:2,0:0:0:0:
497,113,17427,6,0,L|391:104,1,100,6|8,1:2|0:2,0:0:0:0:
351,83,17947,1,0,0:2:0:0:
351,83,18121,2,0,L|356:17,2,50,2|0|8,1:2|1:2|0:2,0:0:0:0:
288,161,18814,2,0,P|233:176|184:159,1,100,2|8,1:2|0:2,0:0:0:0:
152,135,19334,1,0,0:2:0:0:
152,135,19508,2,0,P|159:78|162:17,1,100,2|10,1:2|1:2,0:0:0:0:
64,7,20201,6,0,P|62:56|56:109,1,100,0|8,1:2|0:2,0:0:0:0:
41,154,20722,1,0,0:2:0:0:
41,154,20895,2,0,L|-12:157,2,50,2|0|8,1:2|1:2|0:2,0:0:0:0:
112,224,21589,2,0,P|130:270|106:329,1,100,0|8,1:2|0:2,0:0:0:0:
88,358,22109,1,0,0:2:0:0:
88,358,22282,2,0,L|201:370,1,100,2|10,1:2|1:2,0:0:0:0:
275,320,22976,6,0,P|326:305|379:321,1,100,0|8,1:2|0:2,0:0:0:0:
417,334,23496,1,0,0:2:0:0:
417,334,23670,2,0,L|420:387,2,50,2|0|8,1:2|1:2|0:2,0:0:0:0:
477,254,24363,2,0,L|485:155,1,100,0|8,1:2|0:2,0:0:0:0:
472,105,24884,1,0,0:2:0:0:
472,105,25057,2,0,P|417:83|369:99,1,100,2|10,1:2|1:2,0:0:0:0:
292,143,25751,6,0,P|228:156|185:135,1,100,0|8,1:2|0:2,0:0:0:0:
157,112,26271,1,0,0:2:0:0:
157,112,26444,2,0,L|163:46,2,50,2|0|8,1:2|1:2|0:2,0:0:0:0:
76,172,27138,2,0,P|48:220|46:283,1,100,0|8,1:2|0:2,0:0:0:0:
49,313,27658,1,0,0:2:0:0:
49,313,27832,2,0,P|71:331|99:344,1,50,2|8,1:2|1:2,0:0:0:0:
136,358,28178,1,2,1:2:0:0:
225,308,28525,6,0,L|218:206,2,100,2|10|2,1:2|0:2|0:2,0:0:0:0:
316,348,29566,1,10,0:2:0:0:
316,348,29739,2,0,P|365:370|422:351,1,100,2|0,0:2|1:2,0:0:0:0:
444,325,30259,1,10,0:0:0:0:
436,225,30606,1,2,0:2:0:0:
383,139,30953,1,10,0:2:0:0:
284,124,31300,6,0,L|291:231,2,100,2|10|2,1:2|0:2|0:2,0:0:0:0:
215,35,32340,1,10,0:2:0:0:
215,35,32514,2,0,P|166:18|102:31,1,100,2|0,0:2|1:2,0:0:0:0:
78,53,33034,1,10,0:2:0:0:
31,141,33381,1,2,1:2:0:0:
82,226,33727,1,10,1:2:0:0:
181,220,34074,6,0,P|233:210|289:226,1,100,4|10,1:2|0:2,0:0:0:0:
318,251,34595,1,2,0:2:0:0:
318,251,34768,2,0,L|322:319,2,50,2|2|8,1:2|1:2|0:2,0:0:0:0:
387,178,35462,2,0,L|395:75,1,100,2|10,1:2|0:2,0:0:0:0:
399,28,35982,1,2,0:2:0:0:
399,28,36155,2,0,P|464:16|505:41,1,100,2|10,1:2|1:2,0:0:0:0:
489,129,36849,6,0,L|482:233,1,100,0|10,1:2|0:2,0:0:0:0:
462,275,37369,1,2,0:2:0:0:
462,275,37543,2,0,L|467:334,2,50,2|2|8,1:2|1:2|0:2,0:0:0:0:
379,217,38236,2,0,P|331:200|272:217,1,100,2|10,1:2|0:2,0:0:0:0:
244,240,38756,1,2,0:2:0:0:
244,240,38930,2,0,B|206:262|206:262|130:257,1,100,2|2,1:2|1:2,0:0:0:0:
98,172,39623,6,0,L|-7:181,2,100,2|10|2,1:2|0:2|0:2,0:0:0:0:
175,108,40664,1,10,0:2:0:0:
175,108,40837,2,0,P|226:90|278:115,1,100,2|2,0:2|1:2,0:0:0:0:
304,138,41358,2,0,L|406:147,1,100,10|2,0:2|0:2,0:0:0:0:
496,109,42051,1,10,0:2:0:0:
481,208,42398,6,0,L|488:309,2,100,2|10|2,1:2|0:2|0:2,0:0:0:0:
403,146,43438,1,10,0:2:0:0:
403,146,43612,2,0,P|368:114|314:97,1,100,2|0,0:2|1:2,0:0:0:0:
268,92,44132,1,10,0:2:0:0:
167,90,44479,1,2,1:2:0:0:
76,132,44826,1,10,1:2:0:0:
49,227,45173,6,0,P|56:273|101:312,1,100,4|10,1:2|0:2,0:0:0:0:
143,314,45693,1,2,0:2:0:0:
143,314,45866,2,0,L|147:370,2,50,2|2|8,1:2|1:2|0:2,0:0:0:0:
191,226,46560,2,0,L|292:217,1,100,2|10,1:2|0:2,0:0:0:0:
334,192,47080,1,2,0:2:0:0:
334,192,47253,2,0,P|393:193|438:232,1,100,2|10,1:2|1:2,0:0:0:0:
478,300,47947,6,0,P|445:325|380:334,1,100,0|10,1:2|0:2,0:0:0:0:
338,334,48467,1,2,0:2:0:0:
338,334,48641,2,0,L|343:276,2,50,2|2|8,1:2|1:2|0:2,0:0:0:0:
245,368,49334,2,0,L|236:252,1,100,2|10,1:2|0:2,0:0:0:0:
231,218,49855,1,2,0:2:0:0:
231,218,50028,2,0,P|181:201|128:216,1,100,2|2,1:2|1:2,0:0:0:0:
51,265,50722,5,6,0:2:0:0:
14,171,51069,2,0,L|19:103,1,50,2|0,0:2|1:2,0:0:0:0:
23,71,51415,2,0,P|79:57|130:81,1,100,10|2,0:2|1:2,0:0:0:0:
196,131,52109,1,6,0:2:0:0:
196,131,52282,2,0,L|297:121,1,100,0|0,1:2|1:2,0:0:0:0:
340,99,52803,2,0,P|396:77|441:94,1,100,10|2,0:2|0:2,0:0:0:0:
471,179,53496,5,10,1:2:0:0:
471,179,53670,2,0,L|465:282,1,100,0|10,1:2|1:2,0:0:0:0:
462,328,54190,2,0,P|426:345|350:334,1,100,0|10,1:2|1:2,0:0:0:0:
329,308,54710,2,0,P|293:296|229:307,1,100,0|8,1:2|1:2,0:0:0:0:
196,339,55230,1,8,1:2:0:0:
34,215,56271,6,0,P|14:163|34:108,1,100,6|10,1:2|0:2,0:0:0:0:
38,73,56791,2,0,L|143:63,1,100,2|2,0:2|0:2,0:0:0:0:
187,61,57311,1,10,1:2:0:0:
206,159,57658,1,2,1:2:0:0:
295,202,58005,1,8,0:2:0:0:
366,131,58352,2,0,L|362:76,2,50,2|2|10,1:2|0:2|1:2,0:0:0:0:
454,177,59045,6,0,P|472:227|454:287,1,100,2|10,1:2|0:2,0:0:0:0:
429,309,59566,2,0,L|324:319,1,100,2|2,0:2|0:2,0:0:0:0:
279,310,60086,1,10,1:2:0:0:
184,278,60433,2,0,P|185:232|189:179,1,100,2|8,1:2|0:2,0:0:0:0:
207,131,60953,1,0,0:0:0:0:
207,131,61126,2,0,P|251:117|306:140,1,100,2|8,1:2|1:2,0:0:0:0:
336,227,61820,6,0,P|387:263|434:258,1,100,6|10,1:2|0:2,0:0:0:0:
489,187,62514,2,0,L|497:82,1,100,2|10,1:2|0:2,0:0:0:0:
472,43,63034,2,0,P|433:18|364:22,1,100,2|2,0:2|0:2,0:0:0:0:
340,46,63554,1,10,0:2:0:0:
248,86,63901,1,2,1:2:0:0:
157,43,64248,1,8,0:2:0:0:
78,105,64595,6,0,L|6:99,2,50,2|2|10,1:2|0:2|0:2,0:0:0:0:
118,135,65115,1,2,0:2:0:0:
118,135,65288,2,0,P|133:190|108:247,1,100,2|10,1:2|1:2,0:0:0:0:
74,319,65982,1,2,1:2:0:0:
74,319,66155,2,0,L|135:326,1,50,2|10,0:2|0:2,0:0:0:0:
219,297,66675,1,10,0:2:0:0:
307,344,67022,1,10,0:2:0:0:
393,293,67369,6,0,P|410:253|394:185,1,100,6|10,1:2|0:2,0:0:0:0:
377,154,67889,2,0,P|362:124|369:59,1,100,2|2,1:2|1:2,0:0:0:0:
398,18,68410,1,10,0:2:0:0:
478,77,68756,2,0,L|488:183,1,100,6|8,1:2|0:2,0:0:0:0:
455,215,69277,1,0,1:2:0:0:
455,215,69450,2,0,L|449:277,2,50,2|2|10,0:2|1:2|0:2,0:0:0:0:
387,140,70144,6,0,P|327:116|281:127,1,100,6|10,1:2|0:2,0:0:0:0:
255,154,70664,2,0,L|147:167,1,100,2|2,1:2|1:2,0:0:0:0:
107,151,71184,1,10,0:2:0:0:
19,102,71531,2,0,B|4:152|4:152|23:208,1,100,6|8,1:2|0:2,0:0:0:0:
41,242,72051,1,0,1:2:0:0:
41,242,72225,2,0,L|32:362,1,100,2|10,0:2|0:2,0:0:0:0:
132,358,72918,5,6,1:2:0:0:
218,307,73265,1,10,0:2:0:0:
307,350,73612,2,0,P|349:371|416:356,1,100,2|10,1:2|0:2,0:0:0:0:
424,321,74132,2,0,L|430:215,1,100,2|2,0:2|1:2,0:0:0:0:
409,175,74652,2,0,L|402:108,1,50,10|2,0:2|0:2,0:0:0:0:
413,75,74999,2,0,L|467:68,2,50,2|0|10,1:2|1:2|0:2,0:0:0:0:
320,35,75693,6,0,P|277:17|213:36,1,100,2|10,1:2|1:2,0:0:0:0:
185,57,76213,1,2,1:2:0:0:
86,42,76560,1,10,0:2:0:0:
86,42,76733,2,0,L|78:152,1,100,2|10,1:2|1:2,0:0:0:0:
91,190,77253,1,2,1:2:0:0:
78,289,77600,1,2,1:2:0:0:
78,289,77774,2,0,P|125:309|182:298,1,100,10|10,0:2|0:2,0:0:0:0:
256,249,78467,6,0,L|369:258,1,100,6|8,1:2|0:2,0:0:0:0:
405,261,78988,1,0,0:2:0:0:
405,261,79161,2,0,L|411:318,2,50,2|0|8,1:2|1:2|0:2,0:0:0:0:
385,162,79855,2,0,P|404:132|399:61,1,100,2|8,1:2|0:2,0:0:0:0:
378,25,80375,1,0,0:2:0:0:
378,25,80548,2,0,B|325:33|325:33|271:24,1,100,2|10,1:2|1:2,0:0:0:0:
179,10,81242,6,0,L|172:112,1,100,0|8,1:2|0:2,0:0:0:0:
167,159,81762,1,0,0:2:0:0:
167,159,81936,2,0,L|110:154,2,50,2|0|8,1:2|1:2|0:2,0:0:0:0:
265,140,82629,2,0,P|316:131|367:148,1,100,0|8,1:2|0:2,0:0:0:0:
396,180,83149,1,0,0:2:0:0:
396,180,83323,2,0,B|389:237|389:237|394:284,1,100,2|10,1:2|1:2,0:0:0:0:
454,358,84016,6,0,L|346:368,1,100,0|8,1:2|0:2,0:0:0:0:
308,347,84537,1,0,0:2:0:0:
308,347,84710,2,0,L|311:288,2,50,2|0|8,1:2|1:2|0:2,0:0:0:0:
207,347,85404,2,0,P|171:331|107:342,1,100,0|8,1:2|0:2,0:0:0:0:
71,368,85924,1,0,0:2:0:0:
71,368,86097,2,0,L|63:260,1,100,2|10,1:2|1:2,0:0:0:0:
57,168,86791,6,0,L|160:158,1,100,0|8,1:2|0:2,0:0:0:0:
202,137,87311,1,0,0:2:0:0:
202,137,87485,2,0,L|198:78,2,50,2|0|8,1:2|1:2|0:2,0:0:0:0:
255,221,88178,2,0,P|300:245|353:242,1,100,0|8,1:2|0:2,0:0:0:0:
389,215,88699,1,0,0:2:0:0:
389,215,88872,2,0,L|397:147,1,50,2|8,1:2|1:2,0:0:0:0:
369,122,89219,2,0,L|363:61,1,50,2|8,1:2|1:2,0:0:0:0:
