osu file format v14

[General]
AudioFilename: audio.mp3
AudioLeadIn: 0
PreviewTime: 55490
Countdown: 0
SampleSet: Soft
StackLeniency: 0.7
Mode: 0
LetterboxInBreaks: 0
WidescreenStoryboard: 1

[Editor]
Bookmarks: 17228,50523,56072
DistanceSpacing: 1
BeatDivisor: 4
GridSize: 32
TimelineZoom: 1.5

[Metadata]
Title:TIT FOR TAT (TV Size)
TitleUnicode:TIT FOR TAT (TV Size)
Artist:MYTH & ROID
ArtistUnicode:MYTH & ROID
Creator:Kuki1537
Version:Insane
Source:慎重勇者~この勇者が俺TUEEEくせに慎重すぎる~
Tags:Kono Yuusha ga Ore Tueee Kuse ni Shinchou Sugiru Cautious Hero: The Is Overpowered but Overly Funimation KADOKAWA english japanese female vocal anime pop rock
BeatmapID:2247102
BeatmapSetID:1072007

[Difficulty]
HPDrainRate:5
CircleSize:4
OverallDifficulty:8
ApproachRate:9
SliderMultiplier:1.8
SliderTickRate:1

[Events]
//Background and Video events
0,0,"bg.jpg",0,0
Video,250,"tft.mp4"
//Break Periods
//Storyboard Layer 0 (Background)
//Storyboard Layer 1 (Fail)
//Storyboard Layer 2 (Pass)
//Storyboard Layer 3 (Foreground)
//Storyboard Layer 4 (Overlay)
//Storyboard Sound Samples

[TimingPoints]
780,346.820809248555,4,2,45,68,1,0
780,-142.857142857143,4,2,45,68,0,0
6329,-125,4,2,45,60,0,0
11878,-117.647058823529,4,2,45,22,0,0
12225,-117.647058823529,4,2,45,27,0,0
12571,-117.647058823529,4,2,45,37,0,0
12918,-117.647058823529,4,2,45,45,0,0
13265,-117.647058823529,4,2,45,53,0,0
13612,-117.647058823529,4,2,45,60,0,0
13959,-117.647058823529,4,2,45,66,0,0
14652,-117.647058823529,4,2,45,74,0,0
17427,-117.647058823529,4,2,45,70,0,0
19508,-100,4,2,45,70,0,0
19855,-117.647058823529,4,2,45,70,0,0
22282,-142.857142857143,4,2,45,70,0,0
22629,-117.647058823529,4,2,45,70,0,0
25057,-100,4,2,45,70,0,0
25404,-117.647058823529,4,2,45,70,0,0
28525,-133.333333333333,4,2,45,56,0,0
33381,-117.647058823529,4,2,45,63,0,0
34074,-117.647058823529,4,2,45,70,0,0
36155,-100,4,2,45,70,0,0
36502,-117.647058823529,4,2,45,70,0,0
38930,-142.857142857143,4,2,45,70,0,0
39277,-117.647058823529,4,2,45,70,0,0
39623,-133.333333333333,4,2,45,56,0,0
44479,-117.647058823529,4,2,45,63,0,0
45173,-117.647058823529,4,2,45,70,0,0
47253,-100,4,2,45,70,0,0
47600,-117.647058823529,4,2,45,70,0,0
50028,-142.857142857143,4,2,45,70,0,0
50375,-117.647058823529,4,2,45,70,0,0
50722,-142.857142857143,4,2,45,56,0,0
53496,-142.857142857143,4,2,45,71,0,0
56271,-100,4,2,45,80,0,1
64248,-86.9565217391303,4,2,45,80,0,1
64595,-100,4,2,45,80,0,1
66675,-100,4,2,45,86,0,0
67369,-100,4,2,45,80,0,1
75693,-100,4,2,45,86,0,0
78467,-117.647058823529,4,2,45,70,0,0
80548,-100,4,2,45,70,0,0
80895,-117.647058823529,4,2,45,70,0,0
83323,-142.857142857143,4,2,45,70,0,0
83670,-117.647058823529,4,2,45,70,0,0
86097,-100,4,2,45,70,0,0
86444,-117.647058823529,4,2,45,70,0,0
88872,-117.647058823529,4,2,45,80,0,0

[Colours]
Combo1 : 193,193,193
Combo2 : 250,255,51
Combo3 : 253,151,255
Combo4 : 21,173,255
Combo5 : 96,96,96
Combo6 : 255,134,53

[HitObjects]
163,107,780,6,0,P|189:86|224:81,1,62.9999980773926,2|0,0:2|0:2,0:0:0:0:
220,160,1126,2,0,P|253:157|285:172,1,62.9999980773926,2|0,0:2|0:2,0:0:0:0:
236,236,1473,1,2,0:2:0:0:
236,236,1647,2,0,P|264:253|281:286,1,62.9999980773926,2|0,0:2|0:0,0:0:0:0:
202,372,1993,1,2,0:2:0:0:
202,372,2167,6,0,L|207:308,1,62.9999980773926,2|0,0:2|0:2,0:0:0:0:
120,240,2514,2,0,L|125:303,1,62.9999980773926,2|0,0:2|0:2,0:0:0:0:
28,366,2860,2,0,P|37:322|36:252,1,94.499997116089,2|0,0:2|0:0,0:0:0:0:
36,238,3207,2,0,L|31:200,3,31.4999990386963,2|0|0|0,0:2|0:0|0:0|0:0,0:0:0:0:
103,156,3554,6,0,P|138:146|173:143,1,62.9999980773926,2|0,0:2|0:2,0:0:0:0:
97,75,3901,2,0,P|62:68|30:67,1,62.9999980773926,2|0,0:2|0:2,0:0:0:0:
153,11,4248,1,2,0:2:0:0:
153,11,4421,2,0,P|200:20|226:21,1,62.9999980773926,2|0,0:2|0:0,0:0:0:0:
281,81,4768,1,2,0:2:0:0:
281,81,4941,6,0,L|286:146,1,62.9999980773926,2|0,0:2|0:2,0:0:0:0:
374,112,5288,2,0,L|370:174,1,62.9999980773926,2|0,0:2|0:2,0:0:0:0:
458,154,5635,1,10,0:2:0:0:
506,331,6329,6,0,P|456:299|369:307,1,144,6|2,1:2|1:2,0:0:0:0:
320,376,6849,2,0,B|291:332|291:332|294:241,1,144,2|2,0:2|0:2,0:0:0:0:
300,152,7369,1,2,1:2:0:0:
280,132,7716,6,0,B|197:132|224:179|138:186,1,144,6|0,1:2|1:2,0:0:0:0:
141,29,8410,2,0,L|147:101,1,72,2|2,1:2|0:2,0:0:0:0:
23,95,8756,2,0,L|17:175,1,72,2|2,1:2|0:2,0:0:0:0:
94,307,9103,6,0,P|136:339|228:315,1,144,6|2,1:2|1:2,0:0:0:0:
238,208,9623,2,0,P|185:171|104:192,1,144,2|2,0:2|0:2,0:0:0:0:
164,256,10144,1,2,1:2:0:0:
181,276,10490,6,0,B|217:301|217:301|329:294,1,144,6|0,1:2|1:2,0:0:0:0:
397,238,11011,1,0,0:0:0:0:
397,238,11184,2,0,P|412:191|413:159,1,72,2|0,1:2|0:0,0:0:0:0:
323,184,11531,1,8,1:2:0:0:
300,167,11878,6,0,P|291:120|289:86,1,76.5000014591217,14|8,0:2|0:2,0:0:0:0:
174,15,12225,2,0,P|171:53|162:95,1,76.5000014591217,10|8,0:2|0:2,0:0:0:0:
85,188,12571,5,10,0:2:0:0:
217,156,12745,1,8,0:2:0:0:
17,124,12918,5,10,0:2:0:0:
164,226,13092,1,10,0:2:0:0:
0,210,13265,5,8,0:2:0:0:
163,90,13438,1,10,0:2:0:0:
145,328,13612,5,10,0:2:0:0:
97,143,13785,1,10,0:2:0:0:
236,296,13959,2,0,P|273:311|314:319,2,76.5000014591217,2|0|0,1:2|1:2|1:2,0:0:0:0:
217,133,14652,5,10,0:2:0:0:
368,93,14826,1,2,1:2:0:0:
285,185,14999,1,2,1:2:0:0:
417,199,15173,2,0,P|469:208|509:225,1,76.5000014591217,10|0,0:2|0:0,0:0:0:0:
438,331,15519,1,2,0:2:0:0:
335,261,15693,6,0,P|326:223|323:181,1,76.5000014591217,10|2,0:2|1:2,0:0:0:0:
413,47,16040,1,2,1:2:0:0:
505,123,16213,2,0,P|502:175|494:209,1,76.5000014591217,10|0,0:2|0:0,0:0:0:0:
344,165,16560,1,2,1:2:0:0:
413,47,16733,6,0,L|498:38,1,76.5000014591217,10|0,0:2|1:2,0:0:0:0:
323,185,17080,2,0,L|243:176,1,76.5000014591217,8|2,0:2|1:2,0:0:0:0:
284,0,17427,6,0,P|292:41|295:84,1,76.5000014591217,6|0,1:2|1:2,0:0:0:0:
159,127,17774,2,0,P|152:172|151:212,1,76.5000014591217,8|0,0:2|0:2,0:0:0:0:
293,340,18121,1,2,1:2:0:0:
256,213,18294,1,0,1:2:0:0:
256,213,18467,1,8,0:2:0:0:
163,314,18641,1,2,0:2:0:0:
163,314,18727,1,0,0:0:0:0:
163,314,18814,6,0,P|123:330|81:334,1,76.5000014591217,2|0,1:2|1:2,0:0:0:0:
0,211,19161,2,0,P|45:225|83:227,1,76.5000014591217,8|0,0:2|0:2,0:0:0:0:
218,137,19508,2,0,P|236:90|175:39,1,135,2|0,1:2|0:0,0:0:0:0:
153,40,19855,2,0,P|113:45|64:49,1,76.5000014591217,10|0,1:2|0:0,0:0:0:0:
152,191,20201,6,0,P|195:216|246:219,1,76.5000014591217,0|0,1:2|1:2,0:0:0:0:
326,122,20548,2,0,P|375:109|406:109,1,76.5000014591217,8|0,0:2|0:2,0:0:0:0:
462,280,20895,1,2,1:2:0:0:
306,205,21069,1,0,1:2:0:0:
306,205,21242,1,8,0:2:0:0:
486,186,21415,1,2,0:2:0:0:
486,186,21502,1,0,0:0:0:0:
486,186,21589,6,0,P|446:192|407:202,1,76.5000014591217,0|0,1:2|1:2,0:0:0:0:
318,343,21936,2,0,P|356:353|399:358,1,76.5000014591217,8|0,0:2|0:2,0:0:0:0:
330,236,22282,2,0,L|233:245,1,94.499997116089,2|0,1:2|0:0,0:0:0:0:
208,246,22629,2,0,P|194:287|188:328,1,76.5000014591217,10|0,1:2|0:0,0:0:0:0:
42,224,22976,6,0,P|28:178|36:137,1,76.5000014591217,0|0,1:2|1:2,0:0:0:0:
107,283,23323,2,0,P|69:310|28:316,1,76.5000014591217,8|0,0:2|0:2,0:0:0:0:
115,145,23670,1,2,1:2:0:0:
208,246,23843,1,0,1:2:0:0:
208,246,24016,1,8,0:2:0:0:
190,93,24190,1,2,0:2:0:0:
190,93,24277,1,0,0:0:0:0:
190,93,24363,6,0,P|234:114|269:116,1,76.5000014591217,0|0,1:2|1:2,0:0:0:0:
325,14,24710,2,0,P|361:3|401:2,1,76.5000014591217,8|0,0:2|0:2,0:0:0:0:
496,100,25057,2,0,P|505:158|444:201,1,135,2|0,1:2|0:0,0:0:0:0:
429,205,25404,2,0,P|386:210|342:211,1,76.5000014591217,10|0,1:2|0:0,0:0:0:0:
218,106,25751,6,0,P|261:91|305:89,1,76.5000014591217,0|0,1:2|1:2,0:0:0:0:
203,198,26097,2,0,P|162:179|137:150,1,76.5000014591217,8|0,0:2|0:2,0:0:0:0:
137,11,26444,1,2,1:2:0:0:
241,119,26618,1,0,1:2:0:0:
241,119,26791,1,8,0:2:0:0:
85,102,26964,1,2,0:2:0:0:
85,102,27051,1,0,0:0:0:0:
85,102,27138,6,0,P|95:151|97:179,1,76.5000014591217,0|0,1:2|1:2,0:0:0:0:
0,317,27485,2,0,P|5:264|14:228,1,76.5000014591217,8|0,0:2|0:2,0:0:0:0:
180,196,27832,5,2,1:2:0:0:
9,160,28005,1,8,1:2:0:0:
261,92,28178,5,2,1:2:0:0:
96,177,28352,1,8,1:2:0:0:
305,169,28525,6,0,P|349:160|372:147,1,67.5000025749208,2|2,1:2|1:2,0:0:0:0:
425,72,28872,2,0,P|387:58|353:56,1,67.5000025749208,10|2,0:2|1:2,0:0:0:0:
242,98,29219,2,0,P|221:128|229:226,1,135.000005149842,2|10,0:2|0:2,0:0:0:0:
306,287,29739,2,0,B|262:266|262:266|162:274,1,135.000005149842,2|0,0:2|1:2,0:0:0:0:
250,351,30259,2,0,P|286:370|320:371,1,67.5000025749208,10|2,0:2|1:2,0:0:0:0:
369,270,30606,2,0,P|325:275|300:292,1,67.5000025749208,2|0,0:2|1:2,0:0:0:0:
442,356,30953,1,10,0:2:0:0:
456,347,31300,6,0,P|468:313|473:280,1,67.5000025749208,2|2,1:2|1:2,0:0:0:0:
418,199,31647,1,10,0:2:0:0:
418,199,31820,1,2,1:2:0:0:
509,174,31993,2,0,L|412:179,1,67.5000025749208,2|0,0:2|1:2,0:0:0:0:
333,123,32340,1,10,0:2:0:0:
333,123,32514,2,0,P|346:80|280:-1,1,135.000005149842,2|0,0:2|1:2,0:0:0:0:
198,97,33034,2,0,P|231:92|263:80,1,67.5000025749208,10|0,0:2|1:2,0:0:0:0:
61,17,33381,6,0,L|69:107,1,76.5000014591217,2|0,1:2|0:0,0:0:0:0:
165,169,33727,2,0,L|156:260,1,76.5000014591217,10|0,1:2|0:0,0:0:0:0:
0,310,34074,6,0,P|47:290|85:289,1,76.5000014591217,4|0,1:2|1:2,0:0:0:0:
196,365,34421,2,0,P|240:381|276:384,1,76.5000014591217,10|2,0:2|0:2,0:0:0:0:
316,208,34768,1,2,1:2:0:0:
173,259,34941,1,2,1:2:0:0:
173,259,35115,1,8,0:2:0:0:
326,312,35288,1,2,0:2:0:0:
326,312,35375,1,0,0:0:0:0:
326,312,35462,6,0,L|338:205,1,76.5000014591217,2|2,1:2|1:2,0:0:0:0:
214,173,35808,2,0,L|208:86,1,76.5000014591217,10|2,0:2|0:2,0:0:0:0:
330,11,36155,2,0,P|409:11|453:56,1,135,2|0,1:2|0:0,0:0:0:0:
453,68,36502,2,0,P|448:112|448:158,1,76.5000014591217,10|0,1:2|0:0,0:0:0:0:
504,256,36849,6,0,P|465:243|423:240,1,76.5000014591217,0|0,1:2|1:2,0:0:0:0:
348,331,37196,2,0,P|301:344|265:345,1,76.5000014591217,10|2,0:2|0:2,0:0:0:0:
185,212,37543,1,2,1:2:0:0:
339,243,37716,1,2,1:2:0:0:
339,243,37889,1,8,0:2:0:0:
257,119,38063,1,2,0:2:0:0:
257,119,38149,1,0,0:0:0:0:
257,119,38236,6,0,P|198:133|151:135,1,76.5000014591217,2|2,1:2|1:2,0:0:0:0:
300,32,38583,2,0,P|336:62|354:108,1,76.5000014591217,10|2,0:2|0:2,0:0:0:0:
161,137,38930,2,0,L|170:24,1,94.499997116089,2|0,1:2|0:0,0:0:0:0:
170,21,39277,2,0,P|126:3|74:0,1,76.5000014591217,2|0,1:2|0:0,0:0:0:0:
13,95,39623,6,0,P|15:134|25:164,1,67.5000025749208,2|2,1:2|1:2,0:0:0:0:
88,276,39970,2,0,P|101:244|105:212,1,67.5000025749208,10|2,0:2|1:2,0:0:0:0:
16,337,40317,2,0,P|79:370|153:346,1,135.000005149842,2|10,0:2|0:2,0:0:0:0:
236,384,40837,2,0,L|226:235,1,135.000005149842,2|2,0:2|1:2,0:0:0:0:
277,125,41358,2,0,P|306:107|350:107,1,67.5000025749208,10|2,0:2|1:2,0:0:0:0:
372,239,41704,2,0,P|339:213|325:183,1,67.5000025749208,2|0,0:2|1:2,0:0:0:0:
413,160,42051,1,10,0:2:0:0:
427,143,42398,6,0,L|421:75,1,67.5000025749208,2|2,1:2|1:2,0:0:0:0:
318,5,42745,2,0,L|312:72,1,67.5000025749208,10|2,0:2|1:2,0:0:0:0:
240,136,43092,2,0,B|201:157|201:157|105:150,1,135.000005149842,2|10,0:2|0:2,0:0:0:0:
76,25,43612,2,0,P|133:21|190:93,1,135.000005149842,2|0,0:2|1:2,0:0:0:0:
141,186,44132,2,0,P|128:220|122:253,1,67.5000025749208,10|0,0:2|1:2,0:0:0:0:
218,352,44479,6,0,L|311:360,1,76.5000014591217,2|0,1:2|0:0,0:0:0:0:
385,245,44826,2,0,L|477:237,1,76.5000014591217,10|0,1:2|0:0,0:0:0:0:
493,384,45173,6,0,P|450:374|421:356,1,76.5000014591217,4|0,1:2|1:2,0:0:0:0:
431,170,45519,2,0,P|457:209|460:251,1,76.5000014591217,10|2,0:2|0:2,0:0:0:0:
303,294,45866,1,2,1:2:0:0:
346,127,46040,1,2,1:2:0:0:
346,127,46213,1,8,0:2:0:0:
389,272,46386,1,2,0:2:0:0:
389,272,46473,1,0,0:0:0:0:
389,272,46560,6,0,L|298:262,1,76.5000014591217,2|2,1:2|1:2,0:0:0:0:
237,154,46907,2,0,L|150:165,1,76.5000014591217,10|2,0:2|0:2,0:0:0:0:
34,288,47253,2,0,P|58:338|151:325,1,135,2|0,1:2|0:0,0:0:0:0:
147,328,47600,2,0,P|149:283|154:242,1,76.5000014591217,10|0,1:2|0:0,0:0:0:0:
109,125,47947,6,0,P|71:108|10:101,1,76.5000014591217,0|0,1:2|1:2,0:0:0:0:
130,216,48294,2,0,P|170:194|193:159,1,76.5000014591217,10|2,0:2|0:2,0:0:0:0:
122,44,48641,1,2,1:2:0:0:
47,191,48814,1,2,1:2:0:0:
47,191,48988,1,8,0:2:0:0:
208,136,49161,1,2,0:2:0:0:
208,136,49248,1,0,0:0:0:0:
208,136,49334,6,0,L|216:235,1,76.5000014591217,2|2,1:2|1:2,0:0:0:0:
299,347,49681,2,0,L|307:261,1,76.5000014591217,10|2,0:2|0:2,0:0:0:0:
346,125,50028,2,0,L|446:134,1,94.499997116089,2|0,1:2|0:0,0:0:0:0:
460,136,50375,2,0,P|474:175|478:221,1,76.5000014591217,2|0,1:2|0:0,0:0:0:0:
467,325,50722,6,0,B|435:328|410:304|410:304|383:279|345:288,1,125.999996154785,6|2,0:2|0:2,0:0:0:0:
253,355,51242,1,0,1:2:0:0:
253,355,51329,1,0,1:2:0:0:
253,355,51415,2,0,P|268:308|235:229,1,125.999996154785,10|2,0:2|1:2,0:0:0:0:
87,151,52109,5,6,0:2:0:0:
87,151,52282,2,0,B|66:193|66:193|71:295,1,125.999996154785,0|0,1:2|1:2,0:0:0:0:
155,341,52803,2,0,L|147:210,1,125.999996154785,10|2,0:2|0:2,0:0:0:0:
180,130,53323,1,0,1:2:0:0:
284,152,53496,5,10,1:2:0:0:
284,152,53670,1,0,1:2:0:0:
380,198,54016,5,10,1:2:0:0:
380,198,54190,1,0,1:2:0:0:
484,155,54537,5,10,1:2:0:0:
484,155,54710,1,0,1:2:0:0:
391,33,55057,5,8,1:2:0:0:
380,198,55230,1,8,1:2:0:0:
368,214,56271,6,0,P|308:234|245:235,1,90,6|0,1:2|0:0,0:0:0:0:
135,166,56618,1,10,0:2:0:0:
283,47,56791,2,0,P|301:105|305:148,1,90,2|0,0:2|1:2,0:0:0:0:
178,69,57138,1,2,0:2:0:0:
381,21,57311,1,10,1:2:0:0:
223,174,57485,1,0,0:0:0:0:
223,174,57571,1,0,0:0:0:0:
223,174,57658,6,0,P|207:221|202:261,1,90,2|0,1:2|0:0,0:0:0:0:
347,364,58005,2,0,P|340:315|317:252,1,90,8|0,0:2|0:0,0:0:0:0:
134,177,58352,1,2,1:2:0:0:
182,349,58525,1,2,0:2:0:0:
301,147,58699,1,10,1:2:0:0:
263,319,58872,1,2,0:2:0:0:
152,160,59045,6,0,L|159:65,1,90,2|0,1:2|0:0,0:0:0:0:
318,68,59392,1,10,0:2:0:0:
202,231,59566,2,0,P|158:246|112:238,1,90,2|0,0:2|1:2,0:0:0:0:
0,125,59912,1,2,0:2:0:0:
158,70,60086,1,10,1:2:0:0:
22,220,60259,1,0,0:0:0:0:
22,220,60346,1,0,0:0:0:0:
22,220,60433,6,0,L|27:315,1,90,2|0,1:2|0:0,0:0:0:0:
202,231,60780,2,0,L|208:134,1,90,8|0,0:2|0:0,0:0:0:0:
0,125,61126,2,0,P|45:143|90:133,1,90,2|0,1:2|0:0,0:0:0:0:
280,81,61473,2,0,P|232:52|182:55,1,90,8|0,1:2|0:0,0:0:0:0:
124,273,61820,6,0,B|177:311|177:311|307:301,1,180,6|10,1:2|0:2,0:0:0:0:
384,173,62340,1,0,0:0:0:0:
207,141,62514,2,0,L|202:231,1,90,2|0,1:2|0:0,0:0:0:0:
383,342,62860,1,10,0:2:0:0:
295,154,63034,1,2,0:2:0:0:
274,336,63207,5,0,1:2:0:0:
465,281,63381,1,2,0:2:0:0:
243,222,63554,1,10,0:2:0:0:
434,167,63728,1,2,0:2:0:0:
249,327,63901,2,0,P|189:310|154:276,1,90,2|0,1:2|0:0,0:0:0:0:
208,115,64248,2,0,P|265:147|221:229,1,155.250002961159,8|0,0:2|0:0,0:0:0:0:
222,231,64595,5,2,1:2:0:0:
113,82,64768,1,2,0:2:0:0:
293,57,64941,1,10,0:2:0:0:
132,177,65115,1,2,0:2:0:0:
307,201,65288,2,0,P|358:199|407:178,1,90,2|0,1:2|0:0,0:0:0:0:
378,42,65635,1,10,1:2:0:0:
222,141,65808,1,0,1:2:0:0:
394,185,65982,5,2,1:2:0:0:
263,34,66155,1,2,0:2:0:0:
225,227,66329,2,0,P|257:271|316:288,1,90,10|0,0:2|0:0,0:0:0:0:
431,301,66675,5,10,0:2:0:0:
404,109,66849,1,2,1:2:0:0:
285,309,67022,5,10,0:2:0:0:
301,124,67196,1,2,1:2:0:0:
156,331,67369,6,0,P|74:356|-4:274,1,180,6|10,1:2|0:2,0:0:0:0:
119,180,67889,2,0,P|108:239|74:285,1,90,2|0,1:2|0:0,0:0:0:0:
1,141,68236,1,2,1:2:0:0:
143,53,68410,2,0,L|239:61,1,90,10|0,0:2|0:0,0:0:0:0:
326,241,68756,6,0,P|269:262|216:256,1,90,6|0,1:2|0:0,0:0:0:0:
381,149,69103,2,0,P|416:181|435:235,1,90,8|0,0:2|1:2,0:0:0:0:
233,342,69450,1,2,0:2:0:0:
288,160,69623,1,2,1:2:0:0:
368,333,69797,1,10,0:2:0:0:
161,295,69970,1,2,0:2:0:0:
288,160,70144,6,0,P|307:112|207:46,1,180,6|10,1:2|0:2,0:0:0:0:
230,232,70664,2,0,P|282:252|333:238,1,90,2|0,1:2|0:0,0:0:0:0:
394,156,71011,1,2,1:2:0:0:
234,113,71184,2,0,L|127:123,1,90,10|0,0:2|0:0,0:0:0:0:
18,238,71531,6,0,P|9:284|6:334,1,90,6|0,1:2|0:0,0:0:0:0:
153,210,71878,2,0,P|149:149|138:100,1,90,8|0,0:2|1:2,0:0:0:0:
120,291,72225,2,0,B|166:309|207:277|207:277|247:247|296:259,1,180,2|10,0:2|0:2,0:0:0:0:
449,286,72745,1,0,0:0:0:0:
449,286,72832,1,0,0:0:0:0:
449,286,72918,6,0,P|440:344|423:382,1,90,6|2,1:2|1:2,0:0:0:0:
300,240,73265,2,0,P|284:188|280:139,1,90,10|0,0:2|0:0,0:0:0:0:
469,28,73612,2,0,L|462:130,1,90,2|0,1:2|1:2,0:0:0:0:
381,230,73959,1,10,0:2:0:0:
197,110,74132,6,0,P|246:71|359:106,1,180,2|2,0:2|1:2,0:0:0:0:
284,260,74652,2,0,P|222:286|178:291,1,90,10|2,0:2|0:2,0:0:0:0:
68,207,74999,1,2,1:2:0:0:
68,207,75173,1,0,1:2:0:0:
197,110,75346,2,0,L|204:18,1,90,10|0,0:2|0:0,0:0:0:0:
34,79,75693,5,2,1:2:0:0:
181,193,75866,1,2,1:2:0:0:
203,20,76040,1,10,1:2:0:0:
109,139,76213,1,2,1:2:0:0:
105,135,76560,5,10,0:2:0:0:
291,88,76733,2,0,P|342:96|381:115,1,90,2|0,1:2|1:2,0:0:0:0:
296,244,77080,1,10,1:2:0:0:
197,110,77253,1,2,1:2:0:0:
197,110,77600,5,2,1:2:0:0:
213,266,77774,2,0,P|217:322|226:364,1,90,10|0,0:2|0:0,0:0:0:0:
85,251,78121,2,0,P|96:207|99:163,1,90,10|0,0:2|0:0,0:0:0:0:
43,58,78467,6,0,P|90:41|136:37,1,76.5000014591217,6|0,1:2|1:2,0:0:0:0:
214,128,78814,2,0,P|263:146|303:146,1,76.5000014591217,8|0,0:2|0:2,0:0:0:0:
373,9,79161,1,2,1:2:0:0:
221,35,79334,1,0,1:2:0:0:
221,35,79508,1,8,0:2:0:0:
364,100,79681,1,2,0:2:0:0:
364,100,79768,1,0,0:0:0:0:
364,100,79855,6,0,P|384:151|387:191,1,76.5000014591217,2|0,1:2|1:2,0:0:0:0:
275,295,80201,2,0,P|281:243|301:197,1,76.5000014591217,8|0,0:2|0:2,0:0:0:0:
484,250,80548,2,0,P|503:303|424:357,1,135,2|0,1:2|0:0,0:0:0:0:
429,362,80895,2,0,P|379:350|345:350,1,76.5000014591217,10|0,1:2|0:0,0:0:0:0:
176,358,81242,6,0,L|182:279,1,76.5000014591217,0|0,1:2|1:2,0:0:0:0:
288,220,81589,2,0,L|278:120,1,76.5000014591217,8|0,0:2|0:2,0:0:0:0:
184,15,81936,1,2,1:2:0:0:
146,172,82109,1,0,1:2:0:0:
146,172,82282,1,8,0:2:0:0:
289,56,82456,1,2,0:2:0:0:
289,56,82543,1,0,0:0:0:0:
289,56,82629,6,0,P|238:82|201:89,1,76.5000014591217,0|0,1:2|1:2,0:0:0:0:
104,21,82976,2,0,P|60:7|24:7,1,76.5000014591217,8|0,0:2|0:2,0:0:0:0:
48,110,83323,2,0,L|39:208,1,94.499997116089,2|0,1:2|0:0,0:0:0:0:
37,226,83670,2,0,P|80:236|126:261,1,76.5000014591217,10|0,1:2|0:0,0:0:0:0:
279,327,84016,6,0,P|291:279|294:238,1,76.5000014591217,0|0,1:2|1:2,0:0:0:0:
202,159,84363,2,0,P|192:118|189:79,1,76.5000014591217,8|0,0:2|0:2,0:0:0:0:
352,9,84710,1,2,1:2:0:0:
298,155,84884,1,0,1:2:0:0:
298,155,85057,1,8,0:2:0:0:
461,62,85230,1,2,0:2:0:0:
461,62,85317,1,0,0:0:0:0:
461,62,85404,6,0,L|470:155,1,76.5000014591217,0|0,1:2|1:2,0:0:0:0:
379,210,85751,2,0,L|374:292,1,76.5000014591217,8|0,0:2|0:2,0:0:0:0:
437,371,86097,2,0,P|375:330|314:349,1,135,2|0,1:2|0:0,0:0:0:0:
305,358,86444,2,0,L|204:366,1,76.5000014591217,10|0,1:2|0:0,0:0:0:0:
112,231,86791,6,0,P|90:188|88:148,1,76.5000014591217,0|0,1:2|1:2,0:0:0:0:
188,287,87138,2,0,P|158:311|111:324,1,76.5000014591217,8|0,0:2|0:2,0:0:0:0:
5,214,87485,1,2,1:2:0:0:
194,193,87658,1,0,1:2:0:0:
194,193,87832,1,8,0:2:0:0:
24,313,88005,1,2,0:2:0:0:
24,313,88092,1,0,0:0:0:0:
24,313,88178,6,0,L|32:216,1,76.5000014591217,0|0,1:2|1:2,0:0:0:0:
115,67,88525,2,0,L|122:143,1,76.5000014591217,8|0,0:2|0:2,0:0:0:0:
211,271,88872,5,2,1:2:0:0:
41,141,89045,1,8,1:2:0:0:
300,139,89219,5,2,1:2:0:0:
112,231,89392,1,8,1:2:0:0:
