osu file format v14

[General]
AudioFilename: audio.mp3
AudioLeadIn: 0
PreviewTime: 55490
Countdown: 0
SampleSet: Soft
StackLeniency: 0.7
Mode: 0
LetterboxInBreaks: 0
WidescreenStoryboard: 1

[Editor]
Bookmarks: 17228,50523,56072
DistanceSpacing: 1.6
BeatDivisor: 4
GridSize: 32
TimelineZoom: 1.5

[Metadata]
Title:TIT FOR TAT (TV Size)
TitleUnicode:TIT FOR TAT (TV Size)
Artist:MYTH & ROID
ArtistUnicode:MYTH & ROID
Creator:Kuki1537
Version:Hard
Source:慎重勇者~この勇者が俺TUEEEくせに慎重すぎる~
Tags:Kono Yuusha ga Ore Tueee Kuse ni Shinchou Sugiru Cautious Hero: The Is Overpowered but Overly Funimation KADOKAWA english japanese female vocal anime pop rock
BeatmapID:2247130
BeatmapSetID:1072007

[Difficulty]
HPDrainRate:4.5
CircleSize:3.7
OverallDifficulty:6.3
ApproachRate:8
SliderMultiplier:1.4
SliderTickRate:1

[Events]
//Background and Video events
0,0,"bg.jpg",0,0
Video,250,"tft.mp4"
//Break Periods
//Storyboard Layer 0 (Background)
//Storyboard Layer 1 (Fail)
//Storyboard Layer 2 (Pass)
//Storyboard Layer 3 (Foreground)
//Storyboard Layer 4 (Overlay)
//Storyboard Sound Samples

[TimingPoints]
780,346.820809248555,4,2,45,68,1,0
780,-100,4,2,45,68,0,0
6329,-100,4,2,45,60,0,0
11878,-100,4,2,45,22,0,0
12225,-100,4,2,45,27,0,0
12571,-100,4,2,45,37,0,0
12918,-100,4,2,45,45,0,0
13265,-100,4,2,45,53,0,0
13612,-100,4,2,45,60,0,0
13959,-100,4,2,45,66,0,0
14652,-100,4,2,45,74,0,0
17427,-100,4,2,45,70,0,0
28525,-100,4,2,45,56,0,0
33381,-100,4,2,45,63,0,0
34074,-100,4,2,45,70,0,0
39623,-100,4,2,45,56,0,0
44479,-100,4,2,45,63,0,0
45173,-100,4,2,45,70,0,0
50722,-100,4,2,45,56,0,0
53496,-100,4,2,45,71,0,0
56271,-100,4,2,45,80,0,1
65982,-100,4,2,45,80,0,0
66675,-100,4,2,45,86,0,0
67369,-100,4,2,45,80,0,1
75693,-100,4,2,45,86,0,0
78467,-100,4,2,45,70,0,0
88872,-100,4,2,45,80,0,0

[Colours]
Combo1 : 193,193,193
Combo2 : 250,255,51
Combo3 : 253,151,255
Combo4 : 21,173,255
Combo5 : 96,96,96
Combo6 : 255,134,53

[HitObjects]
173,66,780,6,0,P|207:92|222:127,1,70,2|0,0:2|0:2,0:0:0:0:
227,199,1126,2,0,P|195:246|158:264,1,70,2|0,0:2|0:2,0:0:0:0:
116,302,1473,2,0,L|31:292,2,70,2|2|0,0:2|0:2|0:0,0:0:0:0:
188,344,1993,1,2,0:2:0:0:
188,344,2167,6,0,L|263:335,1,70,2|0,0:2|0:2,0:0:0:0:
322,281,2514,2,0,L|401:292,1,70,2|0,0:2|0:2,0:0:0:0:
436,361,2860,2,0,P|475:308|451:232,1,140,2|2,0:2|0:2,0:0:0:0:
510,79,3554,6,0,P|469:100|431:104,1,70,2|0,0:2|0:2,0:0:0:0:
399,33,3901,2,0,P|361:21|325:21,1,70,2|0,0:2|0:2,0:0:0:0:
295,96,4248,2,0,L|301:180,2,70,2|2|0,0:2|0:2|0:0,0:0:0:0:
243,29,4768,1,2,0:2:0:0:
243,29,4941,6,0,L|171:17,1,70,2|0,0:2|0:2,0:0:0:0:
92,39,5288,2,0,P|70:87|81:121,1,70,2|0,0:2|0:2,0:0:0:0:
117,173,5635,1,10,0:2:0:0:
16,300,6329,6,0,P|76:274|155:307,1,140,6|2,1:2|1:2,0:0:0:0:
201,358,6849,2,0,B|224:323|224:323|220:225,1,140,2|2,0:2|0:2,0:0:0:0:
257,149,7369,1,2,1:2:0:0:
257,149,7716,6,0,B|298:141|324:168|324:168|350:197|389:192,1,140,6|0,1:2|1:2,0:0:0:0:
491,322,8410,2,0,L|420:313,1,70,2|2,1:2|0:2,0:0:0:0:
359,369,8756,2,0,L|279:376,1,70,2|2,1:2|0:2,0:0:0:0:
212,340,9103,6,0,P|235:288|188:208,1,140,6|2,1:2|1:2,0:0:0:0:
151,284,9623,2,0,B|105:308|105:308|-5:298,1,140,2|2,0:2|0:2,0:0:0:0:
47,220,10144,1,2,1:2:0:0:
47,220,10490,6,0,L|59:52,1,140,6|0,1:2|1:2,0:0:0:0:
107,12,11011,1,0,0:0:0:0:
107,12,11184,2,0,P|141:31|173:37,1,70,2|0,1:2|0:0,0:0:0:0:
252,14,11531,1,8,1:2:0:0:
265,25,11878,6,0,L|272:99,1,70,14|8,0:2|0:2,0:0:0:0:
350,175,12225,2,0,L|344:256,1,70,10|8,0:2|0:2,0:0:0:0:
248,298,12571,6,0,P|262:347|293:379,1,70,10|8,0:2|0:2,0:0:0:0:
371,382,12918,2,0,P|414:362|438:331,1,70,10|10,0:2|0:2,0:0:0:0:
466,254,13265,5,8,0:2:0:0:
492,159,13438,1,10,0:2:0:0:
451,69,13612,1,10,0:2:0:0:
360,32,13785,1,10,0:2:0:0:
262,44,13959,2,0,L|255:121,2,70,2|0|0,1:2|1:2|1:2,0:0:0:0:
70,3,14652,6,0,P|86:55|87:89,1,70,10|2,0:2|1:2,0:0:0:0:
30,141,14999,1,2,1:2:0:0:
30,141,15173,1,10,0:2:0:0:
176,221,15519,5,2,0:2:0:0:
176,221,15693,2,0,P|141:248|100:254,1,70,10|2,0:2|1:2,0:0:0:0:
25,248,16040,1,2,1:2:0:0:
25,248,16213,1,10,0:2:0:0:
115,372,16560,5,2,1:2:0:0:
115,372,16733,2,0,P|156:346|196:341,1,70,10|0,0:2|1:2,0:0:0:0:
267,335,17080,2,0,P|321:353|354:354,1,70,8|2,0:2|1:2,0:0:0:0:
438,362,17427,6,0,L|447:214,1,140,6|8,1:2|0:2,0:0:0:0:
428,132,17947,1,0,0:2:0:0:
362,196,18121,2,0,L|357:284,2,70,2|0|8,1:2|1:2|0:2,0:0:0:0:
334,108,18641,1,2,0:2:0:0:
267,45,18814,6,0,P|223:38|191:51,1,70,2|0,1:2|1:2,0:0:0:0:
126,102,19161,2,0,P|79:88|58:72,1,70,8|0,0:2|0:2,0:0:0:0:
3,5,19508,2,0,L|15:118,1,105,2|0,1:2|0:0,0:0:0:0:
20,154,19855,2,0,P|9:197|7:248,1,70,10|0,1:2|0:0,0:0:0:0:
17,312,20201,6,0,B|64:344|64:344|162:335,1,140,0|8,1:2|0:2,0:0:0:0:
237,323,20722,1,0,0:2:0:0:
178,253,20895,2,0,L|101:261,2,70,2|0|8,1:2|1:2|0:2,0:0:0:0:
268,242,21415,1,2,0:2:0:0:
321,168,21589,6,0,P|342:130|346:99,1,70,0|0,1:2|1:2,0:0:0:0:
386,22,21936,2,0,P|422:54|433:83,1,70,8|0,0:2|0:2,0:0:0:0:
442,163,22282,2,0,P|417:199|421:265,1,105,2|0,1:2|0:0,0:0:0:0:
435,300,22629,2,0,L|352:310,1,70,10|0,1:2|0:0,0:0:0:0:
277,285,22976,6,0,P|236:238|258:153,1,140,0|8,1:2|0:2,0:0:0:0:
300,91,23496,1,0,0:2:0:0:
386,61,23670,2,0,L|468:69,2,70,2|0|8,1:2|1:2|0:2,0:0:0:0:
300,91,24190,1,2,0:2:0:0:
224,40,24363,6,0,P|176:21|127:28,1,70,0|0,1:2|1:2,0:0:0:0:
71,50,24710,2,0,P|44:88|37:129,1,70,8|0,0:2|0:2,0:0:0:0:
69,195,25057,2,0,L|61:308,1,105,2|0,1:2|0:0,0:0:0:0:
57,345,25404,2,0,P|110:368|139:369,1,70,10|0,1:2|0:0,0:0:0:0:
198,319,25751,6,0,B|275:304|268:353|346:338,1,140,0|8,1:2|0:2,0:0:0:0:
398,276,26271,1,0,0:2:0:0:
481,312,26444,2,0,L|486:390,2,70,2|0|8,1:2|1:2|0:2,0:0:0:0:
472,221,26964,1,2,0:2:0:0:
413,150,27138,6,0,P|378:137|338:136,1,70,0|0,1:2|1:2,0:0:0:0:
286,204,27485,2,0,P|241:224|191:227,1,70,8|0,0:2|0:2,0:0:0:0:
135,195,27832,5,2,1:2:0:0:
61,141,28005,1,8,1:2:0:0:
72,50,28178,1,2,1:2:0:0:
154,10,28352,1,8,1:2:0:0:
234,51,28525,6,0,P|272:67|305:71,1,70,2|2,1:2|1:2,0:0:0:0:
364,27,28872,2,0,P|401:15|434:12,1,70,10|2,0:2|1:2,0:0:0:0:
491,61,29219,2,0,B|503:107|503:107|495:208,1,140,2|10,0:2|0:2,0:0:0:0:
442,255,29739,2,0,P|400:235|314:272,1,140,2|0,0:2|1:2,0:0:0:0:
303,343,30259,2,0,P|266:369|235:373,1,70,10|2,0:2|1:2,0:0:0:0:
170,344,30606,1,2,0:2:0:0:
69,227,30953,1,10,0:2:0:0:
217,268,31300,6,0,P|258:259|288:243,1,70,2|2,1:2|1:2,0:0:0:0:
326,182,31647,2,0,L|332:106,1,70,10|2,0:2|1:2,0:0:0:0:
327,35,31993,2,0,B|251:46|280:88|199:97,1,140,2|10,0:2|0:2,0:0:0:0:
167,28,32514,2,0,L|160:168,1,140,2|0,0:2|1:2,0:0:0:0:
113,229,33034,2,0,P|64:255|40:257,1,70,10|0,0:2|1:2,0:0:0:0:
1,325,33381,6,0,B|39:337|39:337|87:334,1,70,2|0,1:2|0:0,0:0:0:0:
151,322,33727,2,0,B|191:317|191:317|231:330,1,70,10|0,1:2|0:0,0:0:0:0:
294,364,34074,6,0,L|306:217,1,140,4|10,1:2|0:2,0:0:0:0:
374,163,34595,1,2,0:2:0:0:
389,252,34768,2,0,L|384:324,2,70,2|2|8,1:2|1:2|0:2,0:0:0:0:
460,195,35288,1,2,0:2:0:0:
445,104,35462,6,0,P|411:79|368:71,1,70,2|2,1:2|1:2,0:0:0:0:
301,107,35808,2,0,P|252:121|220:121,1,70,10|2,0:2|0:2,0:0:0:0:
159,68,36155,2,0,L|54:57,1,105,2|0,1:2|0:0,0:0:0:0:
9,53,36502,2,0,P|15:98|14:135,1,70,10|0,1:2|0:0,0:0:0:0:
6,213,36849,6,0,P|49:214|115:288,1,140,0|10,1:2|0:2,0:0:0:0:
165,354,37369,1,2,0:2:0:0:
211,275,37543,2,0,L|202:200,2,70,2|2|8,1:2|1:2|0:2,0:0:0:0:
267,346,38063,1,2,0:2:0:0:
354,368,38236,6,0,P|399:379|426:378,1,70,2|2,1:2|1:2,0:0:0:0:
481,308,38583,2,0,L|490:224,1,70,10|2,0:2|0:2,0:0:0:0:
458,151,38930,2,0,P|429:126|338:140,1,105,2|0,1:2|0:0,0:0:0:0:
330,153,39277,1,2,1:2:0:0:
186,238,39623,6,0,L|191:166,1,70,2|2,1:2|1:2,0:0:0:0:
254,124,39970,2,0,L|249:53,1,70,10|2,0:2|1:2,0:0:0:0:
185,9,40317,2,0,P|120:5|68:54,1,140,2|10,0:2|0:2,0:0:0:0:
86,128,40837,2,0,B|100:178|100:178|94:270,1,140,2|2,0:2|1:2,0:0:0:0:
73,340,41358,2,0,L|146:349,1,70,10|2,0:2|1:2,0:0:0:0:
192,290,41704,2,0,P|233:267|271:262,1,70,2|0,0:2|1:2,0:0:0:0:
324,296,42051,1,10,0:2:0:0:
462,364,42398,6,0,P|467:324|469:290,1,70,2|2,1:2|1:2,0:0:0:0:
418,236,42745,2,0,P|413:196|411:162,1,70,10|2,0:2|1:2,0:0:0:0:
460,106,43092,2,0,P|492:62|429:4,1,140,2|10,0:2|0:2,0:0:0:0:
374,35,43612,2,0,P|318:51|216:44,1,140,2|0,0:2|1:2,0:0:0:0:
165,18,44132,2,0,P|122:11|95:14,1,70,10|0,0:2|1:2,0:0:0:0:
31,55,44479,6,0,L|37:134,1,70,2|0,1:2|0:0,0:0:0:0:
118,143,44826,2,0,L|109:226,1,70,10|0,1:2|0:0,0:0:0:0:
41,261,45173,6,0,P|83:294|169:274,1,140,4|10,1:2|0:2,0:0:0:0:
250,252,45693,1,2,0:2:0:0:
316,314,45866,2,0,L|312:389,2,70,2|2|8,1:2|1:2|0:2,0:0:0:0:
343,226,46386,1,2,0:2:0:0:
420,177,46560,6,0,P|462:187|496:225,1,70,2|2,1:2|1:2,0:0:0:0:
483,294,46907,2,0,P|441:283|407:245,1,70,10|2,0:2|0:2,0:0:0:0:
343,226,47253,2,0,L|335:119,1,105,2|0,1:2|0:0,0:0:0:0:
330,75,47600,2,0,P|290:70|255:54,1,70,10|0,1:2|0:0,0:0:0:0:
178,23,47947,6,0,P|104:7|41:35,1,140,0|10,1:2|0:2,0:0:0:0:
10,114,48467,1,2,0:2:0:0:
91,155,48641,2,0,L|161:147,2,70,2|2|8,1:2|1:2|0:2,0:0:0:0:
13,203,49161,1,2,0:2:0:0:
80,263,49334,6,0,P|107:294|120:340,1,70,2|2,1:2|1:2,0:0:0:0:
187,378,49681,2,0,P|229:384|269:375,1,70,10|2,0:2|0:2,0:0:0:0:
333,331,50028,2,0,P|374:282|373:236,1,105,2|0,1:2|0:0,0:0:0:0:
350,204,50375,1,2,1:2:0:0:
236,99,50722,6,0,B|160:91|175:140|103:134,1,140,6|2,0:2|0:2,0:0:0:0:
28,119,51242,1,0,1:2:0:0:
28,119,51329,1,0,1:2:0:0:
28,119,51415,2,0,B|13:197|13:197|25:277,1,140,10|2,0:2|1:2,0:0:0:0:
145,350,52109,5,6,0:2:0:0:
145,350,52282,2,0,P|193:306|273:315,1,140,0|0,1:2|1:2,0:0:0:0:
329,352,52803,2,0,P|397:356|448:311,1,140,10|2,0:2|0:2,0:0:0:0:
455,234,53323,1,0,1:2:0:0:
413,169,53496,5,10,1:2:0:0:
413,169,53670,1,0,1:2:0:0:
297,119,54016,5,10,1:2:0:0:
297,119,54190,1,0,1:2:0:0:
175,154,54537,5,10,1:2:0:0:
175,154,54710,1,0,1:2:0:0:
56,109,55057,5,8,1:2:0:0:
45,192,55230,1,8,1:2:0:0:
238,340,56271,6,0,P|279:360|325:360,1,70,6|0,1:2|0:0,0:0:0:0:
400,351,56618,1,10,0:2:0:0:
481,296,56791,2,0,P|499:264|508:224,1,70,2|0,0:2|1:2,0:0:0:0:
489,135,57138,1,2,0:2:0:0:
402,89,57311,2,0,P|391:132|396:167,1,70,10|0,1:2|0:0,0:0:0:0:
379,254,57658,6,0,P|333:227|228:236,1,140,2|8,1:2|0:2,0:0:0:0:
64,296,58352,2,0,L|71:220,1,70,2|2,1:2|0:2,0:0:0:0:
164,196,58699,2,0,L|153:110,1,70,10|2,1:2|0:2,0:0:0:0:
102,44,59045,6,0,P|141:29|183:33,1,70,2|0,1:2|0:0,0:0:0:0:
241,96,59392,1,10,0:2:0:0:
320,154,59566,2,0,P|359:161|409:151,1,70,2|0,0:2|1:2,0:0:0:0:
471,105,59912,1,2,0:2:0:0:
431,14,60086,2,0,P|397:39|385:75,1,70,10|0,1:2|0:0,0:0:0:0:
388,157,60433,6,0,P|417:219|377:296,1,140,2|8,1:2|0:2,0:0:0:0:
311,337,60953,1,0,0:0:0:0:
219,302,61126,2,0,B|166:291|166:291|59:303,1,140,2|8,1:2|1:2,0:0:0:0:
5,118,61820,6,0,B|83:107|69:160|144:154,1,140,6|10,1:2|0:2,0:0:0:0:
222,107,62340,1,0,0:0:0:0:
310,150,62514,2,0,L|316:230,1,70,2|0,1:2|0:0,0:0:0:0:
384,289,62860,1,10,0:2:0:0:
473,249,63034,6,0,P|506:215|484:108,1,140,2|2,0:2|0:2,0:0:0:0:
419,74,63554,2,0,P|374:67|343:58,1,70,10|2,0:2|0:2,0:0:0:0:
268,6,63901,2,0,P|224:8|181:22,1,70,2|0,1:2|0:0,0:0:0:0:
133,87,64248,1,8,0:2:0:0:
35,223,64595,5,2,1:2:0:0:
91,302,64768,1,2,0:2:0:0:
178,346,64941,1,10,0:2:0:0:
276,342,65115,1,2,0:2:0:0:
359,291,65288,2,0,L|370:200,1,70,2|0,1:2|0:0,0:0:0:0:
292,157,65635,2,0,L|280:259,1,70,10|0,1:2|1:2,0:0:0:0:
191,261,65982,5,2,1:2:0:0:
191,261,66155,1,2,0:2:0:0:
115,198,66329,2,0,P|96:160|96:119,1,70,10|0,0:2|0:0,0:0:0:0:
147,51,66675,5,10,0:2:0:0:
238,15,66849,1,2,1:2:0:0:
335,25,67022,1,10,0:2:0:0:
406,91,67196,1,2,1:2:0:0:
453,176,67369,6,0,B|430:223|430:223|437:341,1,140,6|10,1:2|0:2,0:0:0:0:
357,371,67889,2,0,P|315:343|225:363,1,140,2|2,1:2|1:2,0:0:0:0:
140,317,68410,1,10,0:2:0:0:
39,182,68756,6,0,L|50:37,1,140,6|8,1:2|0:2,0:0:0:0:
139,1,69277,1,0,1:2:0:0:
188,85,69450,2,0,P|200:127|237:149,1,70,2|2,0:2|1:2,0:0:0:0:
317,143,69797,2,0,P|347:116|353:83,1,70,10|2,0:2|0:2,0:0:0:0:
269,37,70144,6,0,L|265:202,1,140,6|10,1:2|0:2,0:0:0:0:
192,242,70664,2,0,P|264:269|336:243,1,140,2|2,1:2|1:2,0:0:0:0:
401,193,71184,1,10,0:2:0:0:
492,334,71531,6,0,B|411:328|434:375|348:368,1,140,6|8,1:2|0:2,0:0:0:0:
272,323,72051,1,0,1:2:0:0:
232,232,72225,2,0,P|163:187|84:200,1,140,2|10,0:2|0:2,0:0:0:0:
12,328,72918,6,0,P|55:342|84:342,1,70,6|2,1:2|1:2,0:0:0:0:
150,273,73265,1,10,0:2:0:0:
150,273,73438,1,0,0:0:0:0:
80,203,73612,2,0,B|61:156|61:156|70:51,1,140,2|10,1:2|0:2,0:0:0:0:
153,17,74132,2,0,L|297:29,1,140,2|2,0:2|1:2,0:0:0:0:
372,85,74652,2,0,P|391:132|386:169,1,70,10|2,0:2|0:2,0:0:0:0:
332,229,74999,1,2,1:2:0:0:
388,309,75173,1,0,1:2:0:0:
485,302,75346,1,10,0:2:0:0:
466,134,75693,6,0,L|472:57,2,70,2|2|10,1:2|1:2|1:2,0:0:0:0:
427,224,76213,1,2,1:2:0:0:
290,125,76560,1,10,0:2:0:0:
290,125,76733,2,0,L|296:48,2,70,2|0|10,1:2|1:2|1:2,0:0:0:0:
251,215,77253,1,2,1:2:0:0:
84,192,77600,5,2,1:2:0:0:
165,136,77774,2,0,P|187:102|185:54,1,70,10|0,0:2|0:0,0:0:0:0:
123,0,78121,2,0,L|36:7,1,70,10|0,0:2|0:0,0:0:0:0:
9,93,78467,6,0,P|35:125|30:224,1,140,6|8,1:2|0:2,0:0:0:0:
44,310,78988,1,0,0:2:0:0:
119,259,79161,2,0,P|162:244|204:244,2,70,2|0|8,1:2|1:2|0:2,0:0:0:0:
128,349,79681,1,2,0:2:0:0:
216,371,79855,6,0,L|299:381,1,70,2|0,1:2|1:2,0:0:0:0:
357,324,80201,2,0,L|440:316,1,70,8|0,0:2|0:2,0:0:0:0:
480,243,80548,2,0,P|496:182|468:137,1,105,2|0,1:2|0:0,0:0:0:0:
439,122,80895,2,0,L|356:128,1,70,10|0,1:2|0:0,0:0:0:0:
289,82,81242,6,0,B|261:157|306:150|280:225,1,140,0|8,1:2|0:2,0:0:0:0:
203,266,81762,1,0,0:2:0:0:
121,308,81936,2,0,L|115:378,2,70,2|0|8,1:2|1:2|0:2,0:0:0:0:
60,239,82456,1,2,0:2:0:0:
20,157,82629,6,0,P|21:118|40:78,1,70,0|0,1:2|1:2,0:0:0:0:
99,28,82976,2,0,P|121:64|125:110,1,70,8|0,0:2|0:2,0:0:0:0:
160,175,83323,2,0,P|197:204|257:191,1,105,2|0,1:2|0:0,0:0:0:0:
282,161,83670,2,0,L|289:77,1,70,10|0,1:2|0:0,0:0:0:0:
365,20,84016,6,0,P|413:32|462:124,1,140,0|8,1:2|0:2,0:0:0:0:
410,179,84537,1,0,0:2:0:0:
442,263,84710,2,0,L|514:270,2,70,2|0|8,1:2|1:2|0:2,0:0:0:0:
358,299,85230,1,2,0:2:0:0:
282,350,85404,6,0,P|241:367|206:369,1,70,0|0,1:2|1:2,0:0:0:0:
166,292,85751,2,0,P|123:278|94:276,1,70,8|0,0:2|0:2,0:0:0:0:
32,213,86097,2,0,L|38:97,1,105,2|0,1:2|0:0,0:0:0:0:
41,62,86444,2,0,P|80:46|115:44,1,70,10|0,1:2|0:0,0:0:0:0:
176,103,86791,6,0,P|214:155|296:173,1,140,0|8,1:2|0:2,0:0:0:0:
370,144,87311,1,0,0:2:0:0:
432,77,87485,2,0,L|435:2,2,70,2|0|8,1:2|1:2|0:2,0:0:0:0:
480,154,88005,1,2,0:2:0:0:
503,241,88178,6,0,P|496:281|475:310,1,70,0|0,1:2|1:2,0:0:0:0:
402,352,88525,2,0,P|366:357|317:328,1,70,8|0,0:2|0:2,0:0:0:0:
272,278,88872,5,2,1:2:0:0:
269,187,89045,1,8,1:2:0:0:
221,108,89219,1,2,1:2:0:0:
133,82,89392,1,8,1:2:0:0:
