osu file format v14

[General]
AudioFilename: audio.mp3
AudioLeadIn: 0
PreviewTime: 46829
Countdown: 1
SampleSet: Soft
StackLeniency: 0.7
Mode: 0
LetterboxInBreaks: 0
WidescreenStoryboard: 0

[Editor]
DistanceSpacing: 1
BeatDivisor: 4
GridSize: 4
TimelineZoom: 1

[Metadata]
Title:STYX HELIX
TitleUnicode:STYX HELIX
Artist:MYTH & ROID
ArtistUnicode:MYTH & ROID
Creator:lkx_Shore
Version:Insane
Source:Re:ゼロから始める異世界生活
Tags:
BeatmapID:955288
BeatmapSetID:444666

[Difficulty]
HPDrainRate:7
CircleSize:5.5
OverallDifficulty:7
ApproachRate:8.2
SliderMultiplier:1.8
SliderTickRate:1

[Events]
//Background and Video events
0,0,"c86e4823af195c4a144776394b6d8189931b5f12.jpg",0,0
//Break Periods
//Storyboard Layer 0 (Background)
//Storyboard Layer 1 (Fail)
//Storyboard Layer 2 (Pass)
//Storyboard Layer 3 (Foreground)
//Storyboard Sound Samples

[TimingPoints]
0,487.80487804878,4,2,0,70,1,0
3902,-200,4,2,0,70,0,0
4024,-200,4,2,0,5,0,0
4878,-100,4,2,0,70,0,0
23414,-133.333333333333,4,2,0,70,0,0
24146,-133.333333333333,4,1,0,40,0,0
24390,-133.333333333333,4,2,0,70,0,0
24756,-133.333333333333,4,1,0,5,0,0
24878,-133.333333333333,4,1,0,40,0,0
25853,-133.333333333333,4,2,0,5,0,0
26097,-133.333333333333,4,2,0,70,0,0
26585,-133.333333333333,4,2,0,5,0,0
26829,-133.333333333333,4,1,0,40,0,0
27317,-133.333333333333,4,1,0,60,0,0
28048,-133.333333333333,4,1,0,40,0,0
30365,-133.333333333333,4,1,0,5,0,0
30487,-133.333333333333,4,1,0,40,0,0
30609,-133.333333333333,4,1,0,5,0,0
30731,-133.333333333333,4,1,0,40,0,0
32317,-133.333333333333,4,1,0,30,0,0
32682,-133.333333333333,4,1,0,40,0,0
34268,-133.333333333333,4,1,0,30,0,0
34634,-133.333333333333,4,1,0,40,0,0
42926,-100,4,1,0,60,0,0
44878,-100,4,2,0,70,0,0
45365,-100,4,1,0,40,0,0
45609,-200,4,2,0,70,0,0
45853,-100,4,1,0,60,0,0
46097,-100,4,1,0,40,0,0
48048,-100,4,2,0,60,0,0
48780,-83.3333333333333,4,2,0,70,0,1
64268,-83.3333333333333,4,2,0,70,0,0
64390,-83.3333333333333,4,2,0,70,0,1
79999,-83.3333333333333,4,2,0,70,0,0

[HitObjects]
128,64,1951,5,2,0:0:0:0:
276,164,2439,1,0,0:0:0:0:
108,232,2926,1,2,0:0:0:0:
172,156,3170,1,2,0:0:0:0:
172,156,3292,1,0,0:0:0:0:
120,320,3536,1,0,0:0:0:0:
120,320,3658,1,2,0:0:0:0:
120,320,3902,6,0,B|168:312|168:312|231:327|231:327|244:296|224:264,1,180,2|0,0:0|0:0,0:0:0:0:
224,264,5121,1,2,0:0:0:0:
160,324,5365,1,0,0:0:0:0:
232,376,5609,1,2,0:0:0:0:
428,164,5853,6,0,L|416:256,1,90,4|2,1:2|0:0,0:0:0:0:
312,120,6341,2,0,P|312:72|328:32,1,90,0|2,1:0|0:0,0:0:0:0:
400,24,6707,2,0,L|384:68,1,45,0|0,0:0|1:0,1:0:0:0:
256,256,7073,1,0,0:0:0:0:
240,214,7195,1,0,0:0:0:0:
200,192,7317,2,0,P|155:195|100:225,1,90,0|2,1:0|0:0,0:0:0:0:
320,332,7804,6,0,L|412:316,1,90,4|0,1:2|0:0,0:0:0:0:
156,292,8292,2,0,L|64:308,1,90,0|0,1:0|0:0,0:0:0:0:
232,192,8780,2,0,P|296:216|360:196,1,135,0|0,1:0|0:0,0:0:0:0:
368,144,9268,1,0,1:0:0:0:
468,224,9512,1,2,0:0:0:0:
288,72,9756,6,0,L|172:60,1,90,4|0,1:2|0:0,0:0:0:0:
304,92,10243,1,0,1:0:0:0:
88,64,10487,1,2,0:0:0:0:
204,204,10731,6,0,L|320:192,1,90,4|0,1:2|0:0,0:0:0:0:
188,224,11218,1,0,1:0:0:0:
404,196,11462,1,2,0:0:0:0:
100,332,11707,5,0,1:0:0:0:
184,360,11951,1,2,0:0:0:0:
428,268,12195,1,0,1:0:0:0:
344,232,12439,1,2,0:0:0:0:
92,164,12682,1,0,1:0:0:0:
112,156,12804,1,0,1:0:0:0:
264,40,13048,1,0,1:0:0:0:
272,60,13170,1,0,1:0:0:0:
184,296,13414,1,0,1:0:0:0:
184,296,13658,6,0,L|172:188,1,90,4|0,1:2|0:0,0:0:0:0:
168,160,14024,1,0,0:0:0:0:
168,160,14146,1,0,1:0:0:0:
300,196,14390,1,2,0:0:0:0:
84,352,14634,2,0,P|32:328|8:296,1,90,0|2,1:0|0:0,0:0:0:0:
76,80,15121,1,0,1:0:0:0:
128,252,15365,1,2,0:0:0:0:
80,64,15609,6,0,L|108:152,1,90,0|2,1:0|0:0,0:0:0:0:
248,292,16097,2,0,L|220:204,1,90,0|0,1:0|0:0,0:0:0:0:
244,168,16463,1,0,0:0:0:0:
268,132,16585,1,0,1:0:0:0:
400,256,16829,1,2,0:0:0:0:
248,352,17073,2,0,B|184:360|184:360|160:352,1,90,0|2,1:0|0:0,0:0:0:0:
92,180,17560,5,0,1:0:0:0:
240,60,17804,1,2,0:0:0:0:
232,104,17926,1,0,0:0:0:0:
224,148,18048,1,0,1:0:0:0:
296,280,18292,1,2,0:0:0:0:
60,192,18536,5,0,1:0:0:0:
256,56,18780,1,2,0:0:0:0:
244,112,18902,1,0,0:0:0:0:
232,168,19024,1,0,1:0:0:0:
312,336,19268,1,2,0:0:0:0:
32,204,19512,5,0,1:0:0:0:
256,56,19756,1,2,0:0:0:0:
240,120,19878,1,0,0:0:0:0:
224,184,20000,1,0,1:0:0:0:
380,352,20243,1,2,0:0:0:0:
396,288,20365,1,0,0:0:0:0:
412,224,20487,1,0,1:0:0:0:
320,48,20731,1,0,1:0:0:0:
200,204,20975,1,0,1:0:0:0:
316,160,21219,1,2,0:0:0:0:
56,60,21463,6,0,L|84:192,1,135,4|0,1:2|0:0,0:0:0:0:
100,260,21951,1,0,1:0:0:0:
20,336,22195,1,2,0:0:0:0:
228,320,22439,1,0,1:0:0:0:
228,320,22560,2,0,L|184:308,1,45,0|0,1:0|0:0,0:0:0:0:
320,284,22804,1,0,1:0:0:0:
320,284,22926,2,0,B|420:316|420:316|400:288,1,135,2|0,1:2|0:0,0:0:0:0:
402,291,23414,5,4,1:2:0:0:
96,64,24146,1,0,0:0:0:0:
96,64,24390,2,0,B|64:136|64:136|72:184,1,101.250003862381,2|0,0:0|0:0,0:0:0:0:
88,224,24878,1,0,0:0:0:0:
476,336,25365,6,0,L|340:328,1,135.000005149842,4|0,0:2|0:0,0:0:0:0:
244,304,26097,1,2,0:0:0:0:
244,304,26341,2,0,L|212:376,1,67.5000025749208,2|0,0:0|0:0,0:0:0:0:
176,232,26829,1,0,0:0:0:0:
44,284,27317,1,4,0:2:0:0:
152,152,28048,5,0,0:0:0:0:
136,160,28170,1,0,0:0:0:0:
120,168,28292,1,0,0:0:0:0:
200,296,29024,5,0,0:0:0:0:
208,312,29146,1,0,0:0:0:0:
216,328,29268,1,0,0:0:0:0:
308,308,29999,5,0,0:0:0:0:
328,312,30121,1,0,0:0:0:0:
348,316,30243,2,0,L|344:352,1,33.7500012874604
430,361,30487,2,0,L|424:328,1,33.7500012874604
499,304,30731,1,0,0:0:0:0:
499,304,31219,6,0,L|512:156,1,135.000005149842,4|0,0:2|0:0,0:0:0:0:
484,48,31951,1,0,0:0:0:0:
296,132,32195,1,0,0:0:0:0:
280,164,32317,1,0,3:0:0:0:
312,160,32439,1,0,3:0:0:0:
344,156,32560,1,0,3:0:0:0:
376,152,32682,1,0,0:0:0:0:
344,300,32926,1,2,2:0:0:0:
320,276,33048,1,0,2:0:0:0:
296,256,33170,5,4,0:2:0:0:
180,344,33414,1,0,0:0:0:0:
188,312,33536,1,0,0:0:0:0:
196,280,33658,1,0,0:0:0:0:
144,160,33902,1,0,0:0:0:0:
56,304,34146,1,0,0:0:0:0:
28,320,34268,1,0,3:0:0:0:
20,288,34390,1,0,3:0:0:0:
12,256,34512,1,0,3:0:0:0:
4,224,34634,2,0,L|20:112,1,101.250003862381,0|0,0:0|2:0,0:0:0:0:
32,52,35121,5,4,1:2:0:0:
132,36,35365,1,2,2:0:0:0:
224,76,35609,1,0,0:0:0:0:
324,64,35853,1,2,2:0:0:0:
132,36,36097,1,0,0:0:0:0:
164,48,36219,1,0,0:0:0:0:
196,64,36341,1,0,0:0:0:0:
228,80,36463,1,0,0:0:0:0:
260,76,36585,1,0,0:0:0:0:
420,120,36829,6,0,L|408:192,1,67.5000025749208,2|0,0:2|2:0,0:2:0:0:
444,268,37317,1,0,0:0:0:0:
388,336,37560,1,0,0:0:0:0:
300,328,37804,1,0,0:0:0:0:
268,248,38048,1,0,0:0:0:0:
236,256,38170,1,0,3:0:0:0:
204,244,38292,1,0,3:0:0:0:
172,228,38414,1,0,3:0:0:0:
140,240,38536,1,2,0:2:0:0:
160,148,38780,1,0,0:0:0:0:
192,344,39024,6,0,L|236:360,1,33.7500012874604,4|0,0:2|0:0,0:0:0:0:
292,340,39268,2,0,L|324:329,1,33.7500012874604
392,332,39512,2,0,B|416:324|416:324|436:324,3,33.7500012874604,2|0|0|0,2:0|2:0|2:0|2:0,2:0:0:0:
512,184,39999,6,0,L|468:200,1,33.7500012874604,4|0,0:2|0:0,0:0:0:0:
372,220,40243,2,0,L|339:209,1,33.7500012874604
240,156,40487,2,0,B|216:148|216:148|196:148,3,33.7500012874604,2|0|0|0,2:0|2:0|2:0|2:0,2:0:0:0:
35,245,40975,6,0,L|79:261,1,33.7500012874604,4|0,0:2|0:0,0:0:0:0:
175,281,41219,2,0,L|207:270,1,33.7500012874604
307,217,41463,2,0,B|331:209|331:209|351:209,3,33.7500012874604,2|0|0|0,1:2|2:0|2:0|2:0,2:0:0:0:
440,232,41951,2,0,L|416:316,1,67.5000025749208,0|0,0:0|2:0,0:0:0:0:
144,336,42439,1,2,0:2:0:0:
284,60,42804,1,0,0:0:0:0:
284,60,42926,5,4,0:2:0:0:
308,148,43170,1,0,0:0:0:0:
228,324,43414,1,0,0:0:0:0:
204,236,43658,1,0,0:0:0:0:
248,248,43780,1,0,0:0:0:0:
292,260,43902,1,0,0:0:0:0:
128,340,44146,1,0,0:0:0:0:
76,216,44390,1,0,0:0:0:0:
240,40,44634,1,0,0:0:0:0:
256,80,44756,1,0,0:0:0:0:
272,120,44878,5,0,1:0:0:0:
432,96,45121,1,2,0:2:0:0:
332,284,45365,1,0,1:0:0:0:
124,216,45609,1,2,0:0:0:0:
288,164,45853,1,0,0:0:0:0:
288,164,46097,1,0,0:0:0:0:
268,204,46219,1,0,0:0:0:0:
248,244,46341,2,0,L|256:104,1,135,2|0,2:0|2:0,0:0:0:0:
256,36,46829,5,4,2:2:0:0:
368,240,48048,1,2,0:0:0:0:
304,306,48292,1,0,0:0:0:0:
344,157,48536,1,0,0:0:0:0:
451,265,48780,5,4,1:2:0:0:
236,332,49024,1,2,2:0:0:0:
184,320,49146,1,0,2:0:0:0:
132,308,49268,2,0,L|16:336,1,107.999996704102,0|2,1:0|0:0,0:0:0:0:
36,256,49634,2,0,L|88:244,1,53.9999983520508,0|0,0:0|1:0,0:0:0:0:
312,196,49999,1,2,0:0:0:0:
456,268,50243,2,0,L|416:304,1,53.9999983520508,0|0,1:0|2:0,0:0:0:0:
344,340,50487,2,0,L|328:284,1,53.9999983520508,2|0,0:0|2:0,0:0:0:0:
312,196,50731,6,0,B|324:68|324:68|296:92,1,161.999995056153,4|0,0:2|0:0,0:0:0:0:
208,160,51219,2,0,P|124:172|4:108,2,215.999993408203,0|0|0,1:0|1:0|1:0,0:0:0:0:
84,56,52439,1,2,0:0:0:0:
68,108,52560,1,0,0:0:0:0:
52,160,52682,5,0,1:0:0:0:
172,284,52926,1,0,1:0:0:0:
332,220,53170,2,0,P|298:181|248:152,1,107.999996704102,4|2,0:2|0:0,0:0:0:0:
116,264,53658,5,0,1:0:0:0:
288,267,53902,1,0,1:0:0:0:
356,108,54146,2,0,P|305:104|248:119,1,107.999996704102,4|2,0:2|0:0,0:0:0:0:
216,160,54512,1,0,0:0:0:0:
216,160,54634,5,0,1:0:0:0:
404,224,54878,1,0,1:0:0:0:
488,80,55121,2,0,L|376:72,1,107.999996704102,0|0,1:0|1:0,0:0:0:0:
104,112,55487,1,0,1:0:0:0:
104,112,55609,2,0,B|240:100|240:100|224:120,1,161.999995056153,0|0,1:0|1:0,0:0:0:0:
284,156,56097,1,0,1:0:0:0:
44,224,56341,1,0,1:0:0:0:
96,236,56463,1,0,1:0:0:0:
148,252,56585,5,4,1:2:0:0:
204,344,56829,1,2,0:0:0:0:
288,276,57073,2,0,L|296:160,1,107.999996704102,0|0,1:0|0:0,0:0:0:0:
416,348,57560,1,0,1:0:0:0:
172,204,57804,2,0,L|164:88,1,107.999996704102,0|0,1:0|0:0,0:0:0:0:
424,260,58292,1,0,1:0:0:0:
372,276,58414,1,0,1:0:0:0:
320,292,58536,5,4,1:2:0:0:
128,252,58780,1,2,0:0:0:0:
320,164,59024,2,0,B|440:152|440:152|408:188,1,161.999995056153,0|0,1:0|0:0,0:0:0:0:
320,164,59512,2,0,L|332:272,1,107.999996704102,0|0,1:0|0:0,0:0:0:0:
240,324,59878,2,0,L|256:216,1,107.999996704102,0|0,1:0|0:0,0:0:0:0:
168,176,60243,2,0,L|180:228,1,53.9999983520508,0|0,1:0|2:0,0:0:0:0:
80,92,60487,6,0,B|40:128|40:128|200:104,2,215.999993408203,4|0|0,1:2|1:0|1:0,0:0:0:0:
296,176,61707,1,2,0:0:0:0:
224,24,61951,1,0,1:0:0:0:
156,248,62195,2,0,L|172:328,1,53.9999983520508,2|0,0:0|0:0,0:0:0:0:
256,344,62439,6,0,P|312:328|364:328,1,107.999996704102,4|0,1:2|0:0,0:0:0:0:
412,340,62804,1,0,0:0:0:0:
464,332,62926,1,0,1:0:0:0:
416,236,63170,1,2,0:0:0:0:
368,140,63414,1,0,1:0:0:0:
420,132,63536,1,0,1:0:0:0:
472,152,63658,1,0,1:0:0:0:
464,204,63780,1,0,1:0:0:0:
416,236,63902,1,0,1:0:0:0:
248,172,64146,1,0,1:0:0:0:
224,124,64268,1,0,1:0:0:0:
256,80,64390,6,0,L|248:192,1,107.999996704102,4|0,1:2|2:0,0:0:0:0:
296,292,64756,2,0,L|300:236,1,53.9999983520508,0|0,0:0|1:0,0:0:0:0:
144,328,65121,1,2,0:0:0:0:
296,292,65365,2,0,P|352:292|400:308,1,107.999996704102,0|2,1:0|0:0,0:0:0:0:
488,184,65853,2,0,L|424:196,1,53.9999983520508,0|0,1:0|0:0,0:0:0:0:
372,152,66097,2,0,L|308:164,1,53.9999983520508,0|0,1:0|0:0,0:0:0:0:
252,128,66341,6,0,B|112:148|112:148|144:160,1,161.999995056153,4|0,1:2|0:0,0:0:0:0:
204,236,66829,2,0,L|236:20,2,215.999993408203,0|0|0,1:0|1:0|1:0,0:0:0:0:
364,124,68048,1,2,0:0:0:0:
364,124,68292,5,0,1:0:0:0:
204,104,68536,1,2,0:0:0:0:
136,252,68780,2,0,L|152:400,1,107.999996704102,4|2,1:2|0:0,0:0:0:0:
324,300,69268,5,0,1:0:0:0:
344,140,69512,1,2,0:0:0:0:
196,72,69756,2,0,L|48:88,1,107.999996704102,4|2,1:2|0:0,0:0:0:0:
52,124,70121,1,0,0:0:0:0:
52,124,70243,5,0,1:0:0:0:
76,228,70487,1,0,1:0:0:0:
240,296,70731,1,0,1:0:0:0:
212,192,70975,1,0,1:0:0:0:
180,236,71097,1,0,1:0:0:0:
172,288,71219,2,0,P|244:268|336:276,1,161.999995056153,0|0,1:0|0:0,0:0:0:0:
488,312,71707,1,4,1:2:0:0:
488,312,72195,6,0,L|468:200,1,107.999996704102,0|0,1:0|0:0,0:0:0:0:
272,128,72560,1,0,0:0:0:0:
272,128,72682,2,0,B|408:120|408:120|392:100,1,161.999995056153,0|0,1:0|0:0,0:0:0:0:
336,32,73170,1,0,1:0:0:0:
216,188,73414,1,0,1:0:0:0:
404,232,73658,2,0,L|424:124,1,107.999996704102,0|0,1:0|0:0,0:0:0:0:
372,360,74146,5,4,1:2:0:0:
372,360,74634,2,0,P|288:328|196:340,1,161.999995056153,0|0,1:0|0:0,0:0:0:0:
124,364,75121,2,0,B|140:292|140:292|132:256,1,107.999996704102,0|0,1:0|0:0,0:0:0:0:
0,140,75487,2,0,B|54:189|54:189|89:200,1,107.999996704102,0|0,1:0|0:0,0:0:0:0:
216,160,75853,2,0,L|164:188,1,53.9999983520508,0|0,1:0|0:0,1:0:0:0:
276,216,76097,6,0,B|445:191|445:191|416:232,1,215.999993408203,4|0,1:2|1:0,0:0:0:0:
288,328,76829,1,0,1:0:0:0:
288,328,76951,1,0,1:0:0:0:
288,328,77073,2,0,B|272:252|272:252|280:184|280:184|260:116,1,215.999993408203,0|0,1:0|1:0,0:0:0:0:
260,116,77804,1,2,0:0:0:0:
192,264,78048,6,0,P|260:280|392:224,2,215.999993408203,4|0|0,1:2|1:0|1:0,0:0:0:0:
124,180,79268,1,2,0:0:0:0:
156,76,79512,2,0,P|191:115|208:168,1,107.999996704102,0|2,1:0|0:0,0:0:0:0:
192,220,79878,1,0,0:0:0:0:
176,272,79999,6,0,P|192:323|227:363,1,107.999996704102,4|2,1:2|0:0,0:0:0:0:
336,360,80487,1,0,1:0:0:0:
428,300,80731,1,2,0:0:0:0:
440,192,80975,1,0,1:0:0:0:
424,140,81097,1,0,1:0:0:0:
380,112,81219,1,0,1:0:0:0:
328,128,81341,1,0,1:0:0:0:
300,172,81463,1,0,1:0:0:0:
100,320,81707,1,2,0:0:0:0:
152,312,81829,1,0,0:0:0:0:
204,304,81951,5,4,1:2:0:0:
312,320,82195,1,2,0:0:0:0:
448,204,82439,1,0,1:0:0:0:
340,220,82683,1,2,0:0:0:0:
96,172,82926,1,0,1:0:0:0:
96,172,83048,2,0,P|156:184|220:168,1,107.999996704102,0|0,1:0|1:0,0:0:0:0:
272,128,83414,2,0,P|264:196|264:296,1,161.999995056153,0|0,1:0|0:0,0:0:0:0:
276,356,83902,5,4,1:2:0:0:
420,280,84146,1,2,0:0:0:0:
268,224,84390,2,0,P|216:220|152:228,1,107.999996704102,0|2,1:0|0:0,0:0:0:0:
72,288,84878,1,0,1:0:0:0:
272,348,85121,1,2,0:0:0:0:
304,304,85243,1,0,0:0:0:0:
336,260,85365,1,0,1:0:0:0:
176,140,85609,1,2,0:0:0:0:
348,280,85853,6,0,L|364:168,1,107.999996704102,0|2,1:0|0:0,0:0:0:0:
312,84,86219,2,0,L|304:144,1,53.9999983520508,0|0,0:0|1:0,0:0:0:0:
172,248,86585,1,2,0:0:0:0:
336,72,86829,1,0,1:0:0:0:
388,80,86951,1,0,1:0:0:0:
432,112,87073,1,0,1:0:0:0:
452,164,87195,1,0,1:0:0:0:
448,216,87317,2,0,L|440:276,1,53.9999983520508,0|0,1:0|0:0,0:0:0:0:
288,328,87560,2,0,L|295:274,1,53.9999983520508,0|0,1:0|0:0,0:0:0:0:
312,152,87804,6,0,L|124:176,1,161.999995056153,4|0,1:2|1:0,1:0:0:0:
100,148,88292,1,0,1:0:0:0:
240,56,88536,1,2,0:0:0:0:
280,228,88780,1,0,1:0:0:0:
280,228,88902,2,0,L|272:284,1,53.9999983520508,0|0,1:0|0:0,0:0:0:0:
384,236,89146,1,0,1:0:0:0:
384,236,89268,2,0,L|500:252,1,107.999996704102,0|2,1:0|0:0,0:0:0:0:
260,352,89756,5,4,1:2:0:0:
152,352,89999,1,2,0:0:0:0:
64,292,90243,2,0,P|48:236|52:184,1,107.999996704102,0|2,1:0|0:0,0:0:0:0:
92,148,90609,1,0,0:0:0:0:
92,148,90731,1,0,1:0:0:0:
164,228,90975,1,2,0:0:0:0:
192,88,91219,1,0,1:0:0:0:
100,272,91463,1,2,0:0:0:0:
240,192,91707,6,0,B|360:216|360:216|328:188,1,161.999995056153,0|0,1:0|0:0,0:0:0:0:
276,284,92195,2,0,L|384:304,1,107.999996704102,0|2,1:0|0:0,0:0:0:0:
436,316,92560,1,0,0:0:0:0:
436,316,92682,1,0,1:0:0:0:
404,120,92926,1,2,0:0:0:0:
284,240,93170,1,0,1:0:0:0:
384,220,93414,1,2,0:0:0:0:
