osu file format v14

[General]
AudioFilename: audio.mp3
AudioLeadIn: 0
PreviewTime: 139119
Countdown: 0
SampleSet: Soft
StackLeniency: 0.7
Mode: 0
LetterboxInBreaks: 0
WidescreenStoryboard: 0

[Editor]
Bookmarks: 3265,20826,38387,53997,57900,61802,63753,79363,94973,96924,112534,114485,122290,130095,133997,137900,139851,155461,171070,186680,202290,215948,217900,233509,280339
DistanceSpacing: 0.3
BeatDivisor: 4
GridSize: 4
TimelineZoom: 1

[Metadata]
Title:STYX HELIX
TitleUnicode:STYX HELIX
Artist:MYTH & ROID
ArtistUnicode:MYTH & ROID
Creator:WillCookie
Version:die
Source:Re:ゼロから始める異世界生活
Tags:
BeatmapID:2134778
BeatmapSetID:1020250

[Difficulty]
HPDrainRate:4
CircleSize:5
OverallDifficulty:8
ApproachRate:9.2
SliderMultiplier:3
SliderTickRate:1

[Events]
//Background and Video events
0,0,"subway.png",0,0
//Break Periods
2,54196,57330
2,114485,121720
2,186880,200988
//Storyboard Layer 0 (Background)
//Storyboard Layer 1 (Fail)
//Storyboard Layer 2 (Pass)
//Storyboard Layer 3 (Foreground)
//Storyboard Layer 4 (Overlay)
//Storyboard Sound Samples

[TimingPoints]
3266,487.80487804878,4,2,0,100,1,0
3266,-200,4,2,0,100,0,0
20826,-133.333333333333,4,2,0,100,0,0
38387,-200,4,2,0,100,0,0
46192,-166.666666666667,4,2,0,100,0,0
57900,-125,4,2,0,100,0,0
61802,-500,4,2,0,100,0,0
63753,-83.3333333333333,4,2,0,100,0,1
94973,-133.333333333333,4,2,0,100,0,0
122290,-111.111111111111,4,2,0,100,0,0
137900,-500,4,2,0,100,0,0
139851,-55.5555555555556,4,2,0,100,0,1
171070,-66.6666666666667,4,2,0,100,0,0
186680,-66.6666666666667,4,2,0,100,0,1
202290,-55.5555555555556,4,2,0,100,0,0
215948,-1000,4,2,0,100,0,0
217900,-33.3333333333333,4,2,0,100,0,1
233509,-50,4,2,0,100,0,0

[HitObjects]
65,276,3266,6,0,L|148:258,4,75
392,211,4973,5,0,0:0:0:0:
290,133,5217,6,0,L|224:189,4,75
161,342,6924,5,0,0:0:0:0:
242,309,7046,5,0,0:0:0:0:
296,205,7168,6,0,P|268:133|74:50,1,300
443,188,8631,5,0,0:0:0:0:
161,202,9119,6,0,P|228:253|312:275,2,150
415,36,11070,6,0,P|394:198|294:300,1,300
196,58,13022,5,0,0:0:0:0:
399,364,13997,5,0,0:0:0:0:
81,218,14973,5,0,0:0:0:0:
512,192,16924,6,0,L|356:192,1,150
434,28,20095,5,0,0:0:0:0:
379,127,20339,5,0,0:0:0:0:
240,182,20583,5,0,0:0:0:0:
67,185,20826,6,0,P|65:283|74:336,1,112.500004291535
205,149,21314,2,0,P|215:110|215:76,1,56.2500021457673
316,122,21558,2,0,P|326:146|331:180,1,56.2500021457673
437,78,21802,1,0,0:0:0:0:
386,266,22046,1,0,0:0:0:0:
315,13,22290,6,0,L|328:86,1,56.2500021457673
237,163,22534,2,0,L|226:242,1,56.2500021457673
347,344,22778,5,0,0:0:0:0:
368,135,23022,1,0,0:0:0:0:
270,286,23265,5,0,0:0:0:0:
252,93,23509,1,0,0:0:0:0:
400,215,23753,6,0,P|308:186|256:190,2,112.500004291535
309,68,24485,2,0,L|321:128,1,56.2500021457673
311,270,24729,6,0,P|248:295|192:299,1,112.500004291535
90,181,25217,6,0,L|78:146,4,28.1250010728837
223,313,25705,1,0,0:0:0:0:
125,269,25948,1,0,0:0:0:0:
243,155,26192,6,0,L|252:113,4,28.1250010728836
250,318,26680,1,0,0:0:0:0:
359,262,26924,1,0,0:0:0:0:
320,54,27168,6,0,P|337:85|402:138,1,112.500004291535
434,207,27656,6,0,L|487:217,12,28.1250010728836
337,262,28631,6,0,P|269:245|227:212,1,112.500004291535
345,105,29119,5,0,0:0:0:0:
237,91,29241,1,0,0:0:0:0:
148,42,29363,2,0,L|108:94,1,56.2500021457673
41,228,29607,2,0,P|13:167|6:115,1,112.500004291535
166,157,30095,5,0,0:0:0:0:
122,344,30339,1,0,0:0:0:0:
245,231,30583,6,0,P|273:171|274:115,1,112.500004291535
254,343,31070,2,0,P|317:315|351:274,1,112.500004291535
350,82,31558,5,0,0:0:0:0:
417,314,31802,1,0,0:0:0:0:
437,133,32046,1,0,0:0:0:0:
330,238,32290,1,0,0:0:0:0:
350,53,32534,6,0,P|290:41|225:54,1,112.500004291535
340,141,33022,1,0,0:0:0:0:
174,175,33265,1,0,0:0:0:0:
279,262,33509,6,0,P|212:272|154:271,1,112.500004291535
377,226,33997,1,0,0:0:0:0:
208,185,34241,1,0,0:0:0:0:
377,109,34485,5,0,0:0:0:0:
235,315,34729,1,0,0:0:0:0:
446,233,34973,5,0,0:0:0:0:
170,226,35217,1,0,0:0:0:0:
379,353,35461,5,0,0:0:0:0:
255,106,35705,1,0,0:0:0:0:
214,355,35948,5,0,0:0:0:0:
395,80,36192,1,0,0:0:0:0:
137,173,36436,6,0,P|174:190|228:192,1,56.2500021457673
387,171,36680,2,0,P|350:154|296:152,1,56.2500021457673
154,281,36924,6,0,P|196:260|239:214,1,56.2500021457673
339,56,37168,2,0,P|296:76|253:122,1,56.2500021457673
279,320,37412,6,0,L|286:251,1,56.2500021457673
349,297,37656,2,0,L|356:228,1,56.2500021457673
363,78,37900,6,0,L|378:154,1,56.2500021457673
447,146,38144,2,0,L|462:222,1,56.2500021457673
510,277,38387,5,0,0:0:0:0:
94,99,39363,6,0,L|85:124,8,18.75
321,29,40339,5,0,0:0:0:0:
90,331,41314,5,0,0:0:0:0:
182,307,41558,1,0,0:0:0:0:
268,224,41802,1,0,0:0:0:0:
417,359,42290,5,0,0:0:0:0:
360,117,43022,5,0,0:0:0:0:
343,150,43143,1,0,0:0:0:0:
327,184,43265,1,0,0:0:0:0:
129,243,43997,5,0,0:0:0:0:
129,243,44119,1,0,0:0:0:0:
129,243,44241,1,0,0:0:0:0:
217,124,44973,6,0,L|210:86,2,37.5
383,226,45705,5,0,0:0:0:0:
107,317,46192,5,0,0:0:0:0:
226,67,46680,6,0,L|193:164,1,89.9999972534181
324,197,47168,1,0,0:0:0:0:
316,175,47289,1,0,0:0:0:0:
308,154,47411,1,0,0:0:0:0:
414,243,47656,2,0,L|329:317,1,89.9999972534181
312,268,48022,1,0,0:0:0:0:
254,284,48144,6,0,P|204:245|166:233,1,89.9999972534181
299,191,48631,1,0,0:0:0:0:
154,145,48875,1,0,0:0:0:0:
153,122,48996,1,0,0:0:0:0:
162,102,49118,1,0,0:0:0:0:
199,107,49241,1,0,0:0:0:0:
243,93,49363,2,0,L|270:115,3,22.4999993133545
290,146,49607,6,0,L|268:244,1,89.9999972534181
359,227,49973,1,0,0:0:0:0:
279,308,50095,1,0,0:0:0:0:
279,308,50217,2,0,L|221:297,1,44.999998626709
213,189,50461,1,0,0:0:0:0:
150,338,50583,2,0,P|115:302|95:252,1,89.9999972534181
29,339,50948,1,0,0:0:0:0:
51,205,51070,2,0,P|60:151|84:111,1,89.9999972534181
164,215,51558,5,0,0:0:0:0:
140,31,51802,1,0,0:0:0:0:
273,168,52046,6,0,L|305:132,2,44.999998626709
392,255,52534,1,0,0:0:0:0:
308,36,52778,1,0,0:0:0:0:
239,302,53022,2,0,P|206:266|168:245,1,89.9999972534181
341,151,53509,2,0,P|337:206|319:249,2,89.9999972534181
410,160,57900,6,0,P|359:213|301:233,1,120
254,67,58387,5,0,0:0:0:0:
297,320,58631,5,0,0:0:0:0:
248,315,58753,1,0,0:0:0:0:
204,246,58875,5,0,0:0:0:0:
141,253,58997,1,0,0:0:0:0:
88,335,59119,6,0,L|52:283,1,60
143,175,59363,6,0,P|184:120|189:24,1,120
194,70,59729,1,0,0:0:0:0:
279,148,59851,6,0,P|348:124|408:128,1,120
288,227,60339,6,0,L|357:238,1,60
212,291,60583,2,0,L|130:305,1,60
361,349,60826,2,0,L|454:363,1,60
130,381,61070,5,0,0:0:0:0:
99,264,61192,1,0,0:0:0:0:
174,124,61314,2,0,P|197:55|196:4,1,120
374,193,61802,6,0,L|309:199,1,60
224,153,62534,6,0,L|207:154,1,15
312,320,63022,5,0,0:0:0:0:
326,98,63265,5,0,0:0:0:0:
123,355,63509,5,0,0:0:0:0:
95,8,63753,6,0,P|148:106|250:175,1,179.999994506836
439,122,64241,5,0,0:0:0:0:
395,285,64363,1,0,0:0:0:0:
316,192,64485,5,0,0:0:0:0:
346,368,64607,1,0,0:0:0:0:
246,272,64729,6,0,L|127:246,2,89.9999972534181
98,170,65095,1,0,0:0:0:0:
341,231,65217,2,0,P|403:202|475:94,1,179.999994506836
185,86,65705,6,0,L|203:195,1,89.9999972534181
335,305,65948,2,0,L|317:196,1,89.9999972534181
217,346,66192,1,0,0:0:0:0:
260,123,66314,1,0,0:0:0:0:
155,264,66436,6,0,P|95:233|66:207,1,89.9999972534181
307,223,66680,2,0,P|370:233|432:226,1,89.9999972534181
316,335,66924,5,0,0:0:0:0:
345,114,67046,1,0,0:0:0:0:
202,192,67168,2,0,L|173:90,1,89.9999972534181
302,246,67412,1,0,0:0:0:0:
94,311,67656,6,0,L|118:213,1,89.9999972534181
306,320,67900,1,0,0:0:0:0:
407,90,68144,2,0,L|412:115,4,22.4999993133545
218,105,68387,5,0,0:0:0:0:
90,254,68631,6,0,L|101:153,1,89.9999972534181
377,288,68875,1,0,0:0:0:0:
426,19,69119,2,0,L|432:47,4,22.4999993133545
267,139,69363,6,0,L|187:75,1,89.9999972534181
345,72,69607,6,0,P|350:191|319:254,2,179.999994506836
441,260,70339,5,0,0:0:0:0:
322,310,70461,1,0,0:0:0:0:
185,246,70583,2,0,B|127:253|127:253|277:192,1,179.999994506836
108,100,71070,2,0,L|330:142,1,179.999994506836
282,243,71558,5,0,0:0:0:0:
441,57,71802,1,0,0:0:0:0:
57,248,72046,1,0,0:0:0:0:
308,204,72290,5,0,0:0:0:0:
66,177,72534,1,0,0:0:0:0:
455,102,72778,1,0,0:0:0:0:
245,90,73022,5,0,0:0:0:0:
412,291,73265,1,0,0:0:0:0:
142,198,73509,2,0,L|254:209,1,89.9999972534181
462,173,73753,2,0,L|350:162,1,89.9999972534181
68,144,73997,5,0,0:0:0:0:
424,30,74241,1,0,0:0:0:0:
130,328,74485,6,0,P|188:246|273:197,1,179.999994506836
274,300,74851,2,0,P|353:250|412:168,1,179.999994506836
406,75,75217,1,0,0:0:0:0:
75,146,75461,5,0,0:0:0:0:
256,192,75522,12,0,76924,0:0:0:0:
140,29,77168,5,0,0:0:0:0:
205,132,77290,1,0,0:0:0:0:
223,275,77412,2,0,P|330:253|404:222,2,179.999994506836
363,42,78144,1,0,0:0:0:0:
199,363,78387,6,0,L|179:261,1,89.9999972534181
302,210,78631,2,0,L|322:312,1,89.9999972534181
136,323,78875,6,0,L|116:221,1,89.9999972534181
381,134,79119,2,0,L|401:236,1,89.9999972534181
41,257,79363,6,0,P|82:149|153:91,1,179.999994506836
358,26,79851,2,0,P|422:108|441:206,1,179.999994506836
265,235,80339,5,0,0:0:0:0:
212,26,80461,1,0,0:0:0:0:
149,280,80583,2,0,L|173:176,1,89.9999972534181
309,89,80826,2,0,P|210:101|113:94,1,179.999994506836
412,137,81314,6,0,L|310:160,1,89.9999972534181
294,270,81558,2,0,L|161:246,1,89.9999972534181
377,228,81802,5,0,0:0:0:0:
194,140,81924,1,0,0:0:0:0:
361,102,82046,5,0,0:0:0:0:
146,218,82168,1,0,0:0:0:0:
285,304,82290,6,0,P|270:239|254:211,1,89.9999972534181
203,360,82534,1,0,0:0:0:0:
336,71,82778,2,0,P|246:115|149:128,1,179.999994506836
450,198,83265,5,0,0:0:0:0:
332,15,83509,1,0,0:0:0:0:
223,351,83753,2,0,L|247:348,4,22.4999993133545
151,249,83997,1,0,0:0:0:0:
388,69,84241,5,0,0:0:0:0:
157,17,84485,1,0,0:0:0:0:
365,311,84729,2,0,L|328:322,4,22.4999993133545
201,264,84973,1,0,0:0:0:0:
426,211,85217,6,0,P|356:136|254:114,1,179.999994506836
157,322,85705,1,0,0:0:0:0:
88,32,85948,6,0,L|136:124,1,89.9999972534181
259,252,86192,5,0,0:0:0:0:
307,28,86436,1,0,0:0:0:0:
335,329,86680,5,0,0:0:0:0:
259,73,86924,1,0,0:0:0:0:
218,373,87168,6,0,L|167:178,1,179.999994506836
401,265,87656,6,0,P|392:72|203:42,2,359.999989013672
152,71,89119,5,0,0:0:0:0:
188,262,89241,1,0,0:0:0:0:
219,94,89363,5,0,0:0:0:0:
321,251,89485,1,0,0:0:0:0:
285,129,89607,6,0,L|317:38,1,89.9999972534181
435,299,89851,1,0,0:0:0:0:
121,289,90095,6,0,P|217:269|355:156,2,269.999991760254
224,18,91070,6,0,L|150:213,1,179.999994506836
376,77,91558,2,0,L|402:174,1,89.9999972534181
274,220,91802,1,0,0:0:0:0:
310,18,91924,1,0,0:0:0:0:
352,261,92046,2,0,P|259:347|162:358,2,179.999994506836
167,242,92778,5,0,0:0:0:0:
346,1,93022,2,0,P|405:88|419:172,1,179.999994506836
209,149,93509,2,0,P|221:264|204:340,1,179.999994506836
448,186,93997,5,0,0:0:0:0:
148,133,94241,1,0,0:0:0:0:
318,296,94485,5,0,0:0:0:0:
18,243,94729,1,0,0:0:0:0:
18,243,94851,1,0,0:0:0:0:
18,243,94973,1,0,0:0:0:0:
230,38,96924,6,0,P|221:168|248:278,1,225.000008583069
389,229,97656,2,0,P|407:302|401:348,1,112.500004291535
143,322,98387,6,0,L|159:146,1,168.750006437302
267,229,98875,2,0,L|277:111,1,112.500004291535
414,257,99851,6,0,B|376:298|376:298|320:302,1,112.500004291535
337,138,100339,5,0,0:0:0:0:
228,209,100583,1,0,0:0:0:0:
208,204,100705,1,0,0:0:0:0:
186,188,100826,6,0,P|196:118|96:13,2,225.000008583069
383,18,102290,1,0,0:0:0:0:
356,286,102778,6,0,P|394:317|463:327,2,112.500004291535
408,175,103509,1,0,0:0:0:0:
226,231,103753,2,0,P|202:295|206:346,2,112.500004291535
379,143,104485,1,0,0:0:0:0:
213,55,104729,6,0,P|165:111|106:142,2,112.500004291535
214,210,105461,2,0,L|324:175,1,112.500004291535
133,295,106192,6,0,L|316:329,1,168.750006437302
254,227,106680,2,0,L|381:209,1,112.500004291535
37,48,107656,5,0,0:0:0:0:
155,66,107900,5,0,0:0:0:0:
362,106,108144,6,0,L|327:237,1,112.500004291535
136,351,108631,6,0,P|119:286|150:128,1,225.000008583069
362,301,109607,5,0,0:0:0:0:
282,18,110095,5,0,0:0:0:0:
240,355,110583,6,0,L|228:235,1,112.500004291535
366,262,111070,1,0,0:0:0:0:
134,306,111314,1,0,0:0:0:0:
308,169,111558,6,0,L|296:49,1,112.500004291535
425,153,112046,2,0,L|403:291,1,112.500004291535
203,85,112534,5,0,0:0:0:0:
82,71,122290,5,0,0:0:0:0:
125,95,122411,1,0,0:0:0:0:
158,134,122533,1,0,0:0:0:0:
174,181,122655,1,0,0:0:0:0:
173,232,122778,6,0,L|253:202,1,67.4999979400635
457,165,123022,2,0,L|377:195,1,67.4999979400635
197,171,123265,5,0,0:0:0:0:
210,215,123387,1,0,0:0:0:0:
278,261,123509,5,0,0:0:0:0:
293,204,123631,1,0,0:0:0:0:
381,160,123753,6,0,L|372:238,1,67.4999979400635
277,91,123997,2,0,L|288:18,1,67.4999979400635
175,139,124241,5,0,0:0:0:0:
178,189,124362,1,0,0:0:0:0:
167,238,124484,1,0,0:0:0:0:
142,282,124606,1,0,0:0:0:0:
106,317,124729,5,0,0:0:0:0:
173,311,124850,1,0,0:0:0:0:
240,305,124972,1,0,0:0:0:0:
307,299,125094,1,0,0:0:0:0:
366,249,125217,6,0,P|390:208|400:179,1,67.4999979400635
349,31,125461,2,0,P|325:72|315:101,1,67.4999979400635
307,299,125705,5,0,0:0:0:0:
246,241,125826,1,0,0:0:0:0:
204,169,125948,1,0,0:0:0:0:
183,87,126070,1,0,0:0:0:0:
185,3,126192,6,0,L|254:33,1,67.4999979400635
294,207,126436,2,0,L|400:188,1,67.4999979400635
386,96,126680,2,0,L|457:104,1,67.4999979400635
450,240,126924,5,0,0:0:0:0:
415,291,127046,1,0,0:0:0:0:
356,266,127168,5,0,0:0:0:0:
305,270,127289,1,0,0:0:0:0:
255,274,127411,1,0,0:0:0:0:
204,278,127533,1,0,0:0:0:0:
154,282,127656,5,0,0:0:0:0:
137,219,127778,1,0,0:0:0:0:
220,220,127900,5,0,0:0:0:0:
233,132,128022,1,0,0:0:0:0:
334,59,128144,6,0,L|319:140,1,67.4999979400635
143,164,128387,2,0,L|165:73,1,67.4999979400635
381,205,128631,2,0,L|363:298,1,67.4999979400635
39,286,128875,2,0,L|60:215,1,67.4999979400635
412,356,129119,5,0,0:0:0:0:
314,299,129240,1,0,0:0:0:0:
217,242,129362,1,0,0:0:0:0:
120,185,129484,1,0,0:0:0:0:
43,78,129607,5,0,0:0:0:0:
43,78,129851,1,0,0:0:0:0:
223,39,130095,6,0,L|211:116,4,67.4999979400635
410,266,131070,6,0,L|397:184,4,67.4999979400635
126,245,132046,6,0,L|117:326,4,67.4999979400635
332,33,133997,6,0,P|326:117|283:161,1,134.999995880127
387,276,134485,6,0,L|314:255,1,67.4999979400635
231,307,134729,1,0,0:0:0:0:
181,281,134851,1,0,0:0:0:0:
132,252,134973,6,0,L|132:176,1,67.4999979400635
296,153,135217,2,0,L|281:72,1,67.4999979400635
137,45,135461,5,0,0:0:0:0:
137,45,135583,1,0,0:0:0:0:
137,45,135705,2,0,P|180:136|188:140,2,67.4999979400635
292,93,136192,6,0,L|265:172,1,67.4999979400635
156,233,136436,1,0,0:0:0:0:
156,233,136558,2,0,L|234:224,1,67.4999979400635
195,304,136802,1,0,0:0:0:0:
332,293,136924,6,0,L|315:218,1,67.4999979400635
369,74,137168,2,0,L|386:149,1,67.4999979400635
272,353,137412,6,0,L|255:278,1,67.4999979400635
423,5,137656,2,0,L|440:80,1,67.4999979400635
132,314,137900,6,0,L|137:251,1,60
323,155,138631,6,0,L|321:139,1,15
74,94,139119,5,0,0:0:0:0:
196,302,139363,5,0,0:0:0:0:
416,14,139607,5,0,0:0:0:0:
301,337,139851,6,0,P|383:346|485:328,2,134.999995880127
418,225,140217,1,0,0:0:0:0:
184,306,140339,2,0,P|163:214|166:146,1,134.999995880127
406,88,140583,2,0,P|351:24|289:-3,1,134.999995880127
301,220,140826,5,0,0:0:0:0:
164,22,140948,1,0,0:0:0:0:
317,111,141070,2,0,P|221:119|126:109,1,134.999995880127
236,258,141314,5,0,0:0:0:0:
74,155,141436,1,0,0:0:0:0:
308,166,141558,5,0,0:0:0:0:
116,230,141680,1,0,0:0:0:0:
352,305,141802,6,0,L|197:188,1,134.999995880127
408,157,142046,1,0,0:0:0:0:
172,166,142168,1,0,0:0:0:0:
329,30,142290,6,0,L|344:174,1,134.999995880127
103,211,142534,2,0,L|118:355,1,134.999995880127
392,311,142778,6,0,P|301:272|245:233,3,134.999995880127
386,153,143265,6,0,P|306:124|229:122,1,134.999995880127
57,237,143509,2,0,P|13:179|-5:105,1,134.999995880127
198,23,143753,5,0,0:0:0:0:
114,320,143997,1,0,0:0:0:0:
354,176,144241,2,0,L|381:200,4,33.7499989700318
475,277,144485,1,0,0:0:0:0:
73,10,144729,5,0,0:0:0:0:
60,377,144973,1,0,0:0:0:0:
227,113,145217,2,0,L|266:122,4,33.7499989700318
413,153,145461,1,0,0:0:0:0:
230,357,145705,6,0,P|206:280|201:198,1,134.999995880127
317,60,145948,2,0,P|341:137|346:219,1,134.999995880127
297,357,146192,5,0,0:0:0:0:
131,223,146314,1,0,0:0:0:0:
261,269,146436,5,0,0:0:0:0:
212,75,146558,1,0,0:0:0:0:
390,215,146680,2,0,P|370:309|334:351,2,134.999995880127
179,255,147046,1,0,0:0:0:0:
370,78,147168,6,0,L|229:35,1,134.999995880127
254,301,147412,2,0,L|78:324,1,134.999995880127
12,148,147656,5,0,0:0:0:0:
252,248,147900,1,0,0:0:0:0:
501,197,148144,1,0,0:0:0:0:
208,311,148387,1,0,0:0:0:0:
498,93,148631,5,0,0:0:0:0:
283,240,148875,1,0,0:0:0:0:
21,225,149119,1,0,0:0:0:0:
334,297,149363,1,0,0:0:0:0:
97,171,149607,6,0,L|187:51,1,134.999995880127
196,296,149851,2,0,L|409:331,1,134.999995880127
407,91,150095,5,0,0:0:0:0:
46,364,150339,1,0,0:0:0:0:
327,206,150583,6,0,L|71:51,1,269.999991760254
154,159,150948,2,0,L|421:66,1,269.999991760254
390,260,151314,1,0,0:0:0:0:
137,275,151558,5,0,0:0:0:0:
256,192,151619,12,0,153022,0:0:0:0:
240,24,153265,5,0,0:0:0:0:
279,187,153387,1,0,0:0:0:0:
194,349,153509,2,0,P|332:297|479:293,2,269.999991760254
439,113,154241,1,0,0:0:0:0:
78,261,154485,6,0,L|221:292,1,134.999995880127
428,259,154729,2,0,L|285:228,1,134.999995880127
17,118,154973,6,0,L|160:149,1,134.999995880127
498,141,155217,2,0,L|355:110,1,134.999995880127
128,48,155461,5,0,0:0:0:0:
279,247,155583,1,0,0:0:0:0:
212,99,155705,5,0,0:0:0:0:
232,317,155826,1,0,0:0:0:0:
311,176,155948,6,0,L|356:317,1,134.999995880127
421,37,156192,2,0,L|403:208,1,134.999995880127
265,66,156436,5,0,0:0:0:0:
419,224,156558,1,0,0:0:0:0:
287,192,156680,5,0,0:0:0:0:
441,350,156802,1,0,0:0:0:0:
308,308,156924,6,0,P|161:303|143:300,1,134.999995880127
316,97,157168,2,0,P|242:187|210:215,1,134.999995880127
140,2,157412,6,0,P|128:117|121:150,3,134.999995880127
65,256,157900,5,0,0:0:0:0:
283,335,158022,1,0,0:0:0:0:
203,223,158144,2,0,P|281:197|360:189,1,134.999995880127
373,316,158387,5,0,0:0:0:0:
444,91,158509,1,0,0:0:0:0:
319,128,158631,2,0,P|218:93|183:68,1,134.999995880127
227,205,158875,6,0,P|219:308|207:351,2,134.999995880127
347,337,159241,1,0,0:0:0:0:
463,170,159363,5,0,0:0:0:0:
107,322,159607,1,0,0:0:0:0:
285,114,159851,2,0,L|241:108,4,33.7499989700318
115,91,160095,1,0,0:0:0:0:
497,241,160339,5,0,0:0:0:0:
36,292,160583,1,0,0:0:0:0:
336,197,160826,2,0,L|289:172,4,33.7499989700318
128,76,161070,1,0,0:0:0:0:
226,258,161314,6,0,P|189:314|132:356,2,134.999995880127
314,380,161680,1,0,0:0:0:0:
340,174,161802,2,0,P|403:215|457:272,3,134.999995880127
496,61,162290,6,0,L|488:219,1,134.999995880127
290,15,162534,2,0,L|301:172,1,134.999995880127
78,75,162778,6,0,L|65:258,1,134.999995880127
415,130,163022,2,0,L|400:343,1,134.999995880127
83,292,163265,5,0,0:0:0:0:
184,274,163387,1,0,0:0:0:0:
267,162,163509,1,0,0:0:0:0:
311,334,163631,1,0,0:0:0:0:
388,98,163753,6,0,P|278:266|-45:321,2,539.999983520508
93,66,164973,5,0,0:0:0:0:
323,318,165217,6,0,L|479:268,2,134.999995880127
435,148,165583,1,0,0:0:0:0:
233,131,165705,2,0,L|75:193,2,134.999995880127
354,3,166070,1,0,0:0:0:0:
349,196,166192,6,0,P|230:299|108:332,1,269.999991760254
198,186,166558,2,0,P|303:86|344:-39,1,269.999991760254
102,35,166924,1,0,0:0:0:0:
462,253,167168,5,0,0:0:0:0:
118,329,167412,1,0,0:0:0:0:
258,9,167656,1,0,0:0:0:0:
395,338,167900,6,0,L|346:193,1,134.999995880127
206,270,168144,2,0,P|265:126|358:35,2,269.999991760254
444,143,168875,1,0,0:0:0:0:
65,188,169119,6,0,P|175:298|329:337,1,269.999991760254
125,45,169607,2,0,L|263:88,1,134.999995880127
498,207,169851,2,0,L|360:164,1,134.999995880127
97,328,170095,6,0,P|239:309|363:241,1,269.999991760254
26,180,170583,2,0,L|181:145,1,134.999995880127
454,30,170826,2,0,L|322:59,1,134.999995880127
134,218,171070,6,0,L|276:258,3,112.500004291535
351,144,171558,2,0,L|206:166,3,112.500004291535
332,258,172046,2,0,L|471:233,3,112.500004291535
498,103,172534,2,0,L|363:80,3,112.500004291535
314,168,173022,6,0,P|310:235|319:313,2,112.500004291535
254,57,173387,1,0,0:0:0:0:
157,177,173509,2,0,P|132:246|120:313,2,112.500004291535
182,31,173875,1,0,0:0:0:0:
255,142,173997,6,0,L|372:244,1,112.500004291535
350,121,174241,2,0,L|465:177,1,112.500004291535
263,234,174485,2,0,L|322:345,1,112.500004291535
431,82,174729,2,0,L|570:128,1,112.500004291535
425,224,174973,5,0,0:0:0:0:
408,225,175094,1,0,0:0:0:0:
392,226,175216,1,0,0:0:0:0:
376,227,175338,1,0,0:0:0:0:
360,228,175460,1,0,0:0:0:0:
344,229,175582,1,0,0:0:0:0:
328,230,175704,1,0,0:0:0:0:
312,231,175826,1,0,0:0:0:0:
290,202,175948,5,0,0:0:0:0:
261,201,176069,1,0,0:0:0:0:
233,200,176191,1,0,0:0:0:0:
205,199,176313,1,0,0:0:0:0:
178,169,176435,5,0,0:0:0:0:
157,209,176557,1,0,0:0:0:0:
144,252,176679,1,0,0:0:0:0:
136,296,176801,1,0,0:0:0:0:
135,341,176924,6,0,L|261:289,1,112.500004291535
192,239,177168,2,0,L|317:186,1,112.500004291535
212,36,177412,6,0,L|233:164,1,112.500004291535
345,66,177656,2,0,L|366:194,1,112.500004291535
464,240,177900,6,0,P|231:328|58:204,1,450.000017166138
135,187,178509,1,0,0:0:0:0:
103,109,178631,1,0,0:0:0:0:
201,138,178753,1,0,0:0:0:0:
270,68,178875,6,0,P|292:137|294:193,3,112.500004291535
360,106,179363,2,0,P|363:178|350:232,3,112.500004291535
443,162,179851,2,0,P|427:232|401:282,3,112.500004291535
501,239,180339,2,0,P|467:303|429:344,3,112.500004291535
333,322,180826,6,0,L|182:286,1,112.500004291535
197,222,181070,1,0,0:0:0:0:
112,231,181192,1,0,0:0:0:0:
76,152,181314,2,0,L|176:35,1,112.500004291535
203,137,181558,2,0,L|343:88,1,112.500004291535
306,200,181802,6,0,P|293:270|291:353,1,112.500004291535
407,251,182046,2,0,P|414:174|410:118,1,112.500004291535
253,244,182290,6,0,P|252:315|264:397,1,112.500004291535
463,216,182534,2,0,P|456:138|442:84,1,112.500004291535
287,154,182778,6,0,L|146:180,7,112.500004291535
239,45,183753,2,0,L|378:67,7,112.500004291535
201,149,184729,6,0,P|233:298|500:309,2,450.000017166138
368,187,185948,1,0,0:0:0:0:
98,286,186192,5,0,0:0:0:0:
83,237,186314,1,0,0:0:0:0:
90,186,186436,1,0,0:0:0:0:
75,137,186558,1,0,0:0:0:0:
87,86,186680,1,0,0:0:0:0:
71,204,201558,5,0,0:0:0:0:
343,31,201802,5,0,0:0:0:0:
423,349,202046,5,0,0:0:0:0:
90,20,202290,6,0,B|181:366|181:366|219:161,2,539.999983520508
426,348,203753,5,0,0:0:0:0:
434,245,203997,1,0,0:0:0:0:
432,106,204241,2,0,P|227:264|-67:289,1,539.999983520508
417,344,205217,2,0,P|219:184|-67:168,1,539.999983520508
65,15,205948,1,0,0:0:0:0:
257,55,206192,6,0,B|178:105|178:105|223:185|192:279,1,269.999991760254
309,157,206680,1,0,0:0:0:0:
282,338,206924,1,0,0:0:0:0:
454,252,207168,2,0,B|462:151|462:151|383:102|341:23,1,269.999991760254
252,210,207656,1,0,0:0:0:0:
170,60,207900,6,0,P|60:148|4:300,1,269.999991760254
284,301,208387,1,0,0:0:0:0:
219,213,208509,1,0,0:0:0:0:
376,269,208631,2,0,P|386:137|294:2,1,269.999991760254
266,148,208997,1,0,0:0:0:0:
196,22,209119,2,0,L|126:317,1,269.999991760254
483,68,209607,2,0,L|525:384,1,269.999991760254
297,282,210095,5,0,0:0:0:0:
235,163,210339,2,0,P|100:192|-44:273,1,269.999991760254
252,338,210826,5,0,0:0:0:0:
350,121,211070,2,0,P|188:68|15:72,1,269.999991760254
192,278,211558,5,0,0:0:0:0:
301,96,211802,2,0,B|316:171|316:171|340:-43,1,269.999991760254
411,89,212290,2,0,L|381:372,1,269.999991760254
244,250,212778,1,0,0:0:0:0:
77,280,213022,2,0,P|99:124|247:51,1,269.999991760254
174,186,213387,2,0,P|306:214|436:128,1,269.999991760254
303,100,213753,2,0,L|263:398,1,269.999991760254
256,192,214119,12,0,215461,0:0:0:0:
101,47,215705,5,0,0:0:0:0:
122,84,215826,1,0,0:0:0:0:
137,154,215948,6,0,L|201:154,1,60
316,33,217168,5,0,0:0:0:0:
380,167,217412,5,0,0:0:0:0:
281,330,217656,5,0,0:0:0:0:
55,357,217900,6,0,L|101:130,1,225.000008583069
236,236,218144,2,0,L|199:-39,1,225.000008583069
368,66,218387,5,0,0:0:0:0:
489,262,218509,1,0,0:0:0:0:
309,151,218631,5,0,0:0:0:0:
330,376,218753,1,0,0:0:0:0:
215,246,218875,6,0,P|127:190|43:71,1,225.000008583069
297,337,219119,2,0,P|408:282|510:152,1,225.000008583069
263,255,219363,5,0,0:0:0:0:
352,10,219485,1,0,0:0:0:0:
157,92,219607,2,0,P|264:143|374:140,1,225.000008583069
214,206,219851,6,0,L|51:388,1,225.000008583069
442,310,220095,2,0,L|175:345,1,225.000008583069
406,190,220339,5,0,0:0:0:0:
108,237,220461,1,0,0:0:0:0:
339,235,220583,5,0,0:0:0:0:
67,152,220705,1,0,0:0:0:0:
337,98,220826,6,0,B|445:149|445:149|4:210,1,450.000017166138
315,328,221314,6,0,P|169:113|134:88,1,225.000008583069
410,78,221558,2,0,P|274:30|129:30,1,225.000008583069
395,197,221802,5,0,0:0:0:0:
118,370,222046,1,0,0:0:0:0:
279,10,222290,2,0,L|249:80,4,56.2500021457673
196,216,222534,1,0,0:0:0:0:
460,195,222778,5,0,0:0:0:0:
45,324,223022,1,0,0:0:0:0:
444,5,223265,2,0,L|394:47,4,56.2500021457673
226,180,223509,1,0,0:0:0:0:
433,241,223753,6,0,L|193:325,1,225.000008583069
339,90,223997,1,0,0:0:0:0:
105,340,224119,1,0,0:0:0:0:
101,16,224241,2,0,P|226:246|537:378,1,450.000017166138
445,149,224607,1,0,0:0:0:0:
161,321,224729,2,0,P|257:86|477:-6,1,450.000017166138
10,375,225217,2,0,P|136:44|494:297,1,900.000034332277
9,8,226192,6,0,B|57:346|57:346|467:283|467:283|335:201|133:200|133:200|276:78|494:36|494:36|370:155|370:155|610:243,1,1800.00006866455
15,339,227656,6,0,B|160:5|160:5|238:213|562:356,1,900.000034332277
50,24,228631,5,0,0:0:0:0:
84,301,228753,1,0,0:0:0:0:
144,137,228875,1,0,0:0:0:0:
196,337,228997,5,0,0:0:0:0:
246,70,229119,1,0,0:0:0:0:
282,282,229241,1,0,0:0:0:0:
323,5,229363,2,0,L|408:260,1,225.000008583069
459,17,229607,5,0,0:0:0:0:
423,360,229729,1,0,0:0:0:0:
349,26,229851,5,0,0:0:0:0:
313,369,229973,1,0,0:0:0:0:
219,27,230095,5,0,0:0:0:0:
183,370,230217,1,0,0:0:0:0:
73,28,230339,5,0,0:0:0:0:
250,372,230461,1,0,0:0:0:0:
313,73,230583,2,0,L|581:256,3,225.000008583069
392,262,231070,2,0,L|1:-29,1,450.000017166138
52,224,231558,5,0,0:0:0:0:
397,130,231680,1,0,0:0:0:0:
101,142,231802,5,0,0:0:0:0:
435,212,231924,1,0,0:0:0:0:
20,255,232046,5,0,0:0:0:0:
453,115,232168,1,0,0:0:0:0:
18,110,232290,5,0,0:0:0:0:
480,273,232412,1,0,0:0:0:0:
18,326,232534,5,0,0:0:0:0:
148,52,232656,1,0,0:0:0:0:
18,326,232778,5,0,0:0:0:0:
296,63,232900,1,0,0:0:0:0:
18,326,233022,5,0,0:0:0:0:
417,139,233144,1,0,0:0:0:0:
18,326,233265,5,0,0:0:0:0:
507,284,233387,1,0,0:0:0:0:
196,173,233509,6,0,P|137:226|106:320,2,150
388,280,233875,1,0,0:0:0:0:
335,90,233997,2,0,P|447:83|515:102,3,150
422,185,234485,6,0,P|344:219|234:220,1,150
172,100,234729,2,0,P|92:138|27:201,1,150
144,289,234973,1,0,0:0:0:0:
243,127,235095,1,0,0:0:0:0:
310,354,235217,1,0,0:0:0:0:
351,162,235339,1,0,0:0:0:0:
205,19,235461,6,0,L|177:222,1,150
336,266,235705,2,0,L|363:81,1,150
196,264,235948,1,0,0:0:0:0:
264,46,236070,1,0,0:0:0:0:
277,348,236192,2,0,P|217:346|97:315,1,150
43,194,236436,6,0,L|273:223,1,150
450,29,236680,2,0,L|243:75,1,150
107,358,236924,2,0,L|286:252,1,150
246,6,237168,2,0,L|427:45,1,150
497,130,237412,5,0,0:0:0:0:
429,333,237534,1,0,0:0:0:0:
315,137,237656,1,0,0:0:0:0:
319,362,237778,1,0,0:0:0:0:
245,238,237900,6,0,P|175:229|70:200,1,150
295,74,238144,2,0,P|380:61|480:24,1,150
246,13,238387,5,0,0:0:0:0:
434,144,238509,1,0,0:0:0:0:
261,126,238631,2,0,P|198:160|135:255,1,150
294,354,238875,2,0,P|357:298|400:226,3,150
453,71,239363,6,0,P|342:80|250:117,1,150
151,234,239607,1,0,0:0:0:0:
191,111,239729,1,0,0:0:0:0:
234,343,239851,2,0,P|154:352|49:332,1,150
221,181,240095,2,0,P|316:193|412:187,1,150
312,106,240339,1,0,0:0:0:0:
375,315,240461,1,0,0:0:0:0:
477,36,240583,2,0,L|447:256,1,150
203,318,240826,2,0,L|237:145,1,150
97,39,241070,5,0,0:0:0:0:
380,137,241436,5,0,0:0:0:0:
55,202,241802,5,0,0:0:0:0:
471,263,242168,5,0,0:0:0:0:
250,363,242534,6,0,L|81:322,1,150
271,215,242778,1,0,0:0:0:0:
145,269,242900,1,0,0:0:0:0:
198,86,243022,2,0,L|374:142,1,150
474,233,243265,6,0,P|415:280|327:294,1,150
167,224,243509,2,0,P|245:198|356:198,1,150
270,348,243753,2,0,P|205:346|105:328,1,150
14,232,243997,2,0,P|5:151|15:44,1,150
148,5,244241,5,0,0:0:0:0:
388,51,244363,1,0,0:0:0:0:
496,224,244485,1,0,0:0:0:0:
350,367,244607,1,0,0:0:0:0:
206,228,244729,5,0,0:0:0:0:
276,69,244851,1,0,0:0:0:0:
297,334,244973,1,0,0:0:0:0:
253,174,245095,1,0,0:0:0:0:
435,199,245217,6,0,P|420:284|364:351,1,150
160,235,245461,2,0,P|130:319|125:397,2,150
303,340,245826,1,0,0:0:0:0:
321,138,245948,2,0,P|279:80|185:28,1,150
61,163,246192,6,0,L|235:133,1,150
353,288,246436,2,0,L|158:249,1,150
319,67,246680,2,0,L|514:110,1,150
239,360,246924,2,0,L|41:317,1,150
142,178,247168,5,0,0:0:0:0:
282,30,247290,1,0,0:0:0:0:
435,272,247412,1,0,0:0:0:0:
263,156,247534,1,0,0:0:0:0:
185,324,247656,2,0,P|101:343|-11:337,2,150
355,220,248022,1,0,0:0:0:0:
144,214,248144,2,0,P|204:120|252:64,1,150
470,345,248387,6,0,P|483:220|482:175,1,150
235,243,248631,2,0,L|265:44,1,150
0,336,248875,2,0,P|-1:222|3:168,1,150
123,15,249119,6,0,L|174:196,3,150
237,370,249607,2,0,L|283:192,3,150
339,18,250095,1,0,0:0:0:0:
417,266,250217,1,0,0:0:0:0:
401,73,250339,1,0,0:0:0:0:
350,318,250461,1,0,0:0:0:0:
325,101,250583,6,0,L|131:159,1,150
37,355,250826,2,0,L|214:298,1,150
91,58,251070,6,0,L|246:13,1,150
317,360,251314,2,0,L|475:311,1,150
482,32,251558,2,0,L|291:94,1,150
77,289,251802,2,0,L|279:214,1,150
425,137,252046,6,0,P|378:244|312:297,3,150
201,325,252534,2,0,P|100:306|3:251,3,150
23,140,253022,6,0,L|205:104,1,150
494,240,253265,2,0,L|317:191,1,150
159,15,253509,6,0,L|234:364,1,300
484,38,253997,6,0,L|322:83,1,150
23,318,254241,2,0,L|239:257,1,150
366,9,254485,6,0,L|330:358,1,300
60,175,254973,5,0,0:0:0:0:
242,31,255095,1,0,0:0:0:0:
419,239,255217,1,0,0:0:0:0:
188,122,255339,1,0,0:0:0:0:
30,369,255461,2,0,L|265:304,1,150
116,15,255705,2,0,L|301:15,1,150
486,373,255948,2,0,L|316:331,1,150
439,13,256192,2,0,L|220:22,1,150
33,311,256436,5,0,0:0:0:0:
197,78,256558,1,0,0:0:0:0:
466,262,256680,2,0,P|408:270|287:261,1,150
5,60,256924,6,0,B|226:9|454:74|454:74|57:317,1,900
506,352,257900,2,0,B|414:24|414:24|75:68|75:68|355:198,1,900
159,358,258875,6,0,B|246:228|52:206|52:206|174:141|278:268|278:268|213:35|530:35,1,900
448,224,259851,6,0,B|528:132|293:44|9:380,1,600
446,333,260583,1,0,0:0:0:0:
30,40,260826,6,0,B|206:-61|547:0|350:332|22:136|22:136|39:293|39:293|471:261|471:261|547:1|547:1|185:102|185:102|-111:65|-111:65|-53:167|-53:167|-28:364|-28:364|402:376,1,3000
110,22,263753,5,0,0:0:0:0:
472,97,263916,1,0,0:0:0:0:
152,344,264079,1,0,0:0:0:0:
482,220,264241,5,0,0:0:0:0:
65,71,264404,1,0,0:0:0:0:
286,302,264566,1,0,0:0:0:0:
252,9,264729,6,0,L|90:341,1,300
474,35,265217,2,0,L|488:389,1,300
313,346,265705,5,0,0:0:0:0:
348,177,265826,1,0,0:0:0:0:
139,334,265948,1,0,0:0:0:0:
330,101,266070,1,0,0:0:0:0:
162,250,266192,6,0,P|13:167|-8:40,1,300
470,82,266680,6,0,P|482:166|465:258,1,150
206,138,266924,1,0,0:0:0:0:
410,165,267046,1,0,0:0:0:0:
178,255,267168,2,0,L|368:234,1,150
220,73,267412,1,0,0:0:0:0:
451,317,267534,1,0,0:0:0:0:
175,350,267656,2,0,P|88:318|20:273,1,150
202,98,267900,2,0,P|359:113|387:106,1,150
491,208,268144,1,0,0:0:0:0:
313,344,268265,1,0,0:0:0:0:
78,116,268387,1,0,0:0:0:0:
328,185,268509,1,0,0:0:0:0:
45,306,268631,6,0,L|232:253,1,150
189,10,268875,2,0,L|417:69,1,150
482,364,269119,6,0,L|243:382,1,150
277,137,269363,2,0,L|65:71,1,150
12,337,269607,6,0,L|261:321,1,150
477,44,269851,2,0,L|322:15,1,150
24,70,270095,6,0,L|208:108,1,150
469,367,270339,2,0,L|300:334,1,150
68,231,270583,5,0,0:0:0:0:
312,74,270705,1,0,0:0:0:0:
161,354,270826,1,0,0:0:0:0:
194,58,270948,1,0,0:0:0:0:
392,242,271070,6,0,P|485:318|552:335,2,150
185,149,271436,1,0,0:0:0:0:
414,64,271558,5,0,0:0:0:0:
163,277,271680,1,0,0:0:0:0:
432,210,271802,5,0,0:0:0:0:
120,92,271924,1,0,0:0:0:0:
381,0,272046,5,0,0:0:0:0:
247,340,272168,1,0,0:0:0:0:
446,300,272290,5,0,0:0:0:0:
178,14,272412,1,0,0:0:0:0:
430,86,272534,6,0,L|591:165,1,150
270,222,272778,2,0,L|132:118,1,150
430,86,273022,6,0,L|591:165,1,150
226,229,273265,2,0,L|88:125,1,150
430,86,273509,6,0,L|591:165,1,150
185,236,273753,2,0,L|47:132,1,150
430,86,273997,6,0,L|591:165,1,150
141,243,274241,2,0,L|3:139,1,150
410,282,274485,5,0,0:0:0:0:
208,57,274607,1,0,0:0:0:0:
410,282,274729,5,0,0:0:0:0:
208,57,274851,1,0,0:0:0:0:
410,282,274973,5,0,0:0:0:0:
208,57,275095,1,0,0:0:0:0:
410,282,275217,5,0,0:0:0:0:
208,57,275339,1,0,0:0:0:0:
235,330,275461,5,0,0:0:0:0:
316,40,275583,1,0,0:0:0:0:
235,330,275705,5,0,0:0:0:0:
316,40,275827,1,0,0:0:0:0:
235,330,275948,5,0,0:0:0:0:
316,40,276070,1,0,0:0:0:0:
235,330,276192,5,0,0:0:0:0:
316,40,276314,1,0,0:0:0:0:
24,119,276436,6,0,L|236:159,15,150
428,161,278387,6,0,L|253:241,1,150
32,335,278631,2,0,L|190:276,1,150
110,178,278875,1,0,0:0:0:0:
361,364,278997,1,0,0:0:0:0:
202,18,279119,2,0,P|288:14|354:25,1,150
155,365,279363,1,0,0:0:0:0:
433,149,279485,1,0,0:0:0:0:
54,48,279607,2,0,P|66:137|126:220,1,150
411,40,279851,1,0,0:0:0:0:
214,354,279973,1,0,0:0:0:0:
59,20,280095,1,0,0:0:0:0:
498,164,280217,1,0,0:0:0:0:
12,363,280339,1,0,0:0:0:0:
