osu file format v14

[General]
AudioFilename: audio.mp3
AudioLeadIn: 0
PreviewTime: 51914
Countdown: 0
SampleSet: None
StackLeniency: 0.7
Mode: 0
LetterboxInBreaks: 0
WidescreenStoryboard: 0

[Editor]
DistanceSpacing: 0.7
BeatDivisor: 4
GridSize: 4
TimelineZoom: 1.2

[Metadata]
Title:STYX HELIX
TitleUnicode:STYX HELIX
Artist:MYTH & ROID
ArtistUnicode:MYTH & ROID
Creator:Tsukuyomi
Version:Easy
Source:Re:ゼロから始める異世界生活
Tags:STRAIGHT BET TV Size Ending Re: Zero kara Hajimeru Isekai Seikatsu Life in a different world from zero KADOKAWA White Fox short baldrace Charlotte victorica_db enjoy -_e_n_j_u_- Rizia Kawaiwkyik Dynamix -Tochi [Emiria]
BeatmapID:955216
BeatmapSetID:444632

[Difficulty]
HPDrainRate:2
CircleSize:3
OverallDifficulty:2
ApproachRate:3
SliderMultiplier:0.999999999999999
SliderTickRate:1

[Events]
//Background and Video events
0,0,"BG.jpg",0,0
Video,0,"VIDEO.flv"
//Break Periods
//Storyboard Layer 0 (Background)
//Storyboard Layer 1 (Fail)
//Storyboard Layer 2 (Pass)
//Storyboard Layer 3 (Foreground)
//Storyboard Sound Samples

[TimingPoints]
-1866,487.80487804878,4,2,1,20,1,0
7646,-100,4,2,1,30,0,0
9841,-100,4,2,3,50,0,0
13743,-100,4,2,3,30,0,0
13865,-100,4,2,3,50,0,0
17646,-100,4,2,3,40,0,0
17890,-100,4,2,3,50,0,0
21548,-100,4,2,3,30,0,0
21670,-100,4,2,3,50,0,0
27402,-100,4,2,1,30,0,0
31304,-100,4,2,1,20,0,0
31792,-100,4,2,1,30,0,0
34231,-100,4,2,1,30,0,0
35207,-100,4,3,1,25,0,0
42524,-100,4,2,1,20,0,0
46914,-100,4,3,1,25,0,0
50816,-100,4,2,1,20,0,0
52768,-100,4,2,3,50,0,1
56670,-100,4,2,3,30,0,1
56792,-100,4,2,3,50,0,1
60573,-100,4,2,3,40,0,1
60816,-100,4,2,3,50,0,1
64475,-100,4,2,3,30,0,1
64963,-100,4,2,3,50,0,1
72280,-100,4,2,3,30,0,1
72402,-100,4,2,3,50,0,1
76182,-100,4,2,3,40,0,1
76426,-100,4,2,3,50,0,1
83987,-100,4,2,3,40,0,0

[Colours]
Combo1 : 255,157,60
Combo2 : 192,192,192
Combo3 : 133,234,248

[HitObjects]
76,192,85,6,0,L|104:312,1,99.9999999999999,4|2,0:3|0:0,0:0:0:0:
388,340,2036,2,0,L|416:232,1,99.9999999999999,4|2,0:3|0:0,0:0:0:0:
172,68,3987,6,0,L|136:180,1,99.9999999999999,4|2,0:3|0:0,0:0:0:0:
376,344,5938,2,0,L|404:240,1,99.9999999999999,4|2,0:3|0:0,0:0:0:0:
140,88,7890,5,4,0:3:0:0:
140,88,9841,6,0,P|88:104|56:136,2,99.9999999999999,6|8|2,0:0|0:0|0:0,0:0:0:0:
216,152,11304,1,8,0:0:0:0:
296,212,11792,2,0,P|352:208|404:176,2,99.9999999999999,2|8|2,0:0|0:0|0:0,0:0:0:0:
216,152,13255,1,8,0:0:0:0:
132,204,13743,6,0,P|124:260|132:304,1,99.9999999999999,4|8,0:3|0:0,0:0:0:0:
216,360,14719,2,0,L|328:344,1,99.9999999999999,8|8,0:3|0:0,0:0:0:0:
404,304,15694,2,0,L|416:204,2,99.9999999999999,2|8|2,0:0|0:0|0:0,0:0:0:0:
314,345,17158,1,8,0:0:0:0:
240,280,17646,6,0,P|184:284|144:312,2,99.9999999999999,4|8|2,0:2|0:0|0:0,0:0:0:0:
314,345,19109,1,8,0:0:0:0:
412,316,19597,2,0,P|424:276|420:216,1,99.9999999999999,2|8,0:0|0:0,0:0:0:0:
324,188,20573,2,0,P|316:132|332:68,1,99.9999999999999,2|8,0:0|0:0,0:0:0:0:
408,40,21548,5,4,0:3:0:0:
488,100,22036,2,0,P|496:156|480:220,2,99.9999999999999,8|8|8,0:0|0:3|0:0,0:0:0:0:
256,192,23499,12,4,27402,0:3:0:0:
252,296,29353,6,0,P|200:308|48:264,1,200,4|0,0:3|0:0,0:0:0:0:
232,164,31304,2,0,P|284:152|436:196,1,200,8|0,0:3|0:0,0:0:0:0:
264,64,33255,5,0,0:0:0:0:
88,164,34231,1,0,0:0:0:0:
240,300,35207,6,0,P|316:296|344:280,2,99.9999999999999,4|2|0,0:3|0:0|0:0,0:0:0:0:
160,240,36670,1,0,0:0:0:0:
216,160,37158,2,0,P|272:148|332:164,1,99.9999999999999,4|2,0:3|0:0,0:0:0:0:
408,192,38133,2,0,L|396:304,1,99.9999999999999,0|2,0:0|0:0,0:0:0:0:
300,316,39109,6,0,B|220:396|161:305|161:305|206:205|137:173,1,300,6|0,0:0|0:0,0:0:0:0:
72,132,41060,2,0,P|112:96|216:108,2,150,2|0|8,0:0|0:0|0:3,0:0:0:0:
60,232,43012,5,4,0:3:0:0:
224,344,43987,1,4,0:3:0:0:
400,252,44963,1,4,0:3:0:0:
400,252,46914,6,0,P|304:276|280:184,2,200,4|0|0,0:0|0:0|0:0,0:0:0:0:
464,176,49353,1,2,0:0:0:0:
408,92,49841,2,0,P|356:84|304:96,1,99.9999999999999,0|2,0:0|0:0,0:0:0:0:
216,128,50816,5,0,0:0:0:0:
216,128,52768,6,0,P|148:120|112:88,2,99.9999999999999,6|8|2,0:0|0:0|0:0,0:0:0:0:
308,88,54231,1,8,0:0:0:0:
408,80,54719,2,0,P|444:104|464:168,2,99.9999999999999,2|8|2,0:0|0:0|0:0,0:0:0:0:
308,88,56182,1,8,0:0:0:0:
296,188,56670,6,0,P|248:220|200:224,1,99.9999999999999,4|8,0:3|0:0,0:0:0:0:
168,316,57646,2,0,P|104:304|64:272,1,99.9999999999999,8|8,0:3|0:0,0:0:0:0:
36,192,58621,2,0,L|48:88,2,99.9999999999999,2|8|2,0:0|0:0|0:0,0:0:0:0:
132,224,60085,1,8,0:2:0:0:
232,240,60573,6,0,P|288:232|328:200,1,99.9999999999999,6|8,0:0|0:0,0:0:0:0:
360,116,61548,2,0,P|325:71|277:52,1,99.9999999999999,2|8,0:0|0:0,0:0:0:0:
188,64,62524,2,0,P|166:116|174:167,1,99.9999999999999,2|8,0:0|0:0,0:0:0:0:
232,240,63499,2,0,P|288:232|328:200,1,99.9999999999999,2|8,0:0|0:0,0:0:0:0:
392,136,64475,5,4,0:3:0:0:
316,72,64963,2,0,P|272:68|216:80,1,99.9999999999999,8|0,0:0|0:0,0:0:0:0:
128,124,65938,1,8,0:0:0:0:
56,192,66426,2,0,P|44:244|48:300,2,99.9999999999999,8|10|2,0:3|0:0|0:0,0:0:0:0:
128,124,67890,1,10,0:0:0:0:
208,180,68377,6,0,P|248:192|312:184,2,99.9999999999999,6|8|2,0:0|0:0|0:0,0:0:0:0:
124,124,69841,1,8,0:0:0:0:
64,204,70329,2,0,P|56:252|72:308,1,99.9999999999999,2|8,0:0|0:0,0:0:0:0:
152,356,71304,2,0,L|264:348,1,99.9999999999999,2|8,0:0|0:0,0:0:0:0:
352,340,72280,6,0,P|364:284|352:236,1,99.9999999999999,4|8,0:3|0:0,0:0:0:0:
404,156,73255,2,0,P|372:132|296:124,1,99.9999999999999,8|8,0:3|0:0,0:0:0:0:
212,128,74231,2,0,P|196:84|200:32,2,99.9999999999999,2|8|2,0:0|0:0|0:0,0:0:0:0:
272,208,75694,1,8,0:0:0:0:
313,121,76182,5,6,0:0:0:0:
212,128,76670,2,0,P|184:180|216:312,1,200,8|8,0:0|0:0,0:0:0:0:
308,348,78133,2,0,P|352:348|416:324,2,99.9999999999999,2|8|2,0:0|0:0|0:0,0:0:0:0:
214,310,79597,1,8,0:0:0:0:
136,244,80085,6,0,P|120:208|132:136,1,99.9999999999999,2|8,0:0|0:0,0:0:0:0:
224,160,81060,2,0,P|272:152|316:120,1,99.9999999999999,2|8,0:0|0:0,0:0:0:0:
408,92,82036,2,0,L|436:192,1,99.9999999999999,2|8,0:0|0:0,0:0:0:0:
400,284,83012,2,0,P|360:300|296:296,1,99.9999999999999,2|8,0:0|0:0,0:0:0:0:
208,280,83987,6,0,P|117:209|252:184,1,300,6|8,0:0|0:0,0:0:0:0:
340,184,85938,2,0,P|368:156|384:96,1,99.9999999999999,2|8,0:0|0:0,0:0:0:0:
312,32,86914,1,2,0:0:0:0:
216,64,87402,1,8,0:0:0:0:
144,136,87890,6,0,P|116:184|116:240,2,99.9999999999999,2|8|2,0:0|0:0|0:0,0:0:0:0:
232,184,89353,1,8,0:0:0:0:
324,224,89841,2,0,P|380:224|428:200,1,99.9999999999999,2|8,0:0|0:0,0:0:0:0:
468,116,90816,1,2,0:0:0:0:
384,60,91304,2,0,P|328:56|276:76,1,99.9999999999999,8|2,0:0|0:0,0:0:0:0:
212,136,92280,6,0,P|160:144|112:124,2,99.9999999999999,8|2|8,0:0|0:0|0:0,0:0:0:0:
312,148,93743,2,0,P|328:188|328:252,1,99.9999999999999,2|8,0:0|0:0,0:0:0:0:
252,308,94719,2,0,P|208:316|144:304,1,99.9999999999999,2|8,0:0|0:0,0:0:0:0:
80,240,95694,5,2,0:0:0:0:
96,140,96182,2,0,P|128:104|176:88,1,99.9999999999999,8|2,0:0|0:0,0:0:0:0:
264,136,97158,2,0,L|332:124,1,50,8|0,0:0|0:0,0:0:0:0:
