osu file format v14

[General]
AudioFilename: audio.mp3
AudioLeadIn: 0
PreviewTime: 30054
Countdown: 0
SampleSet: Soft
StackLeniency: 0.5
Mode: 0
LetterboxInBreaks: 0
WidescreenStoryboard: 1

[Editor]
DistanceSpacing: 1
BeatDivisor: 4
GridSize: 32
TimelineZoom: 1

[Metadata]
Title:STYX HELIX (TV Size)
TitleUnicode:STYX HELIX (TV Size)
Artist:MYTH & ROID
ArtistUnicode:MYTH & ROID
Creator:fieryrage
Version:fizz's hard
Source:Re:ゼロから始める異世界生活
Tags:re:zero kara hajimeru isekai seikatsu rezero starting life in another world different from zero directors director's cut remix japanese english anime ed ending and noffy h-3110 n1doking ney fizz mayflower
BeatmapID:2318789
BeatmapSetID:1103179

[Difficulty]
HPDrainRate:4.5
CircleSize:4
OverallDifficulty:6
ApproachRate:7
SliderMultiplier:1.9
SliderTickRate:1

[Events]
//Background and Video events
0,0,"emilia sucks and if you like emilia you should feel bad.jpg",0,0
//Break Periods
2,30129,31629
//Storyboard Layer 0 (Background)
//Storyboard Layer 1 (Fail)
//Storyboard Layer 2 (Pass)
//Storyboard Layer 3 (Foreground)
//Storyboard Layer 4 (Overlay)
//Storyboard Sound Samples

[TimingPoints]
729,600,4,2,1,30,1,0
729,-200,4,2,1,30,0,0
1329,600,4,2,1,35,1,0
1329,-142.857142857143,4,2,1,35,0,0
10329,-200,4,2,1,35,0,0
10929,-142.857142857143,4,2,1,40,0,0
20529,-142.857142857143,4,2,1,45,0,0
21429,-142.857142857143,4,2,1,35,0,0
21729,-200,4,2,1,45,0,0
22629,-200,4,2,1,25,0,0
22929,545.454545454546,4,2,1,45,1,0
22929,-142.857142857143,4,2,1,45,0,0
23201,-142.857142857143,4,2,1,40,0,0
23474,705.882352941176,4,2,1,40,1,0
23474,-142.857142857143,4,2,1,40,0,0
23826,652.173913043478,4,2,1,45,1,0
23826,-142.857142857143,4,2,1,45,0,0
24152,631.578947368421,4,2,1,50,1,0
24152,-142.857142857143,4,2,1,50,0,0
24573,-142.857142857143,4,2,1,40,0,0
24783,546.697038724374,4,2,1,40,1,0
24783,-142.857142857143,4,2,1,40,0,0
25329,600,4,2,1,50,1,0
25329,-125,4,2,1,50,0,0
25629,-125,4,2,1,35,0,0
26529,-142.857142857143,4,2,1,50,0,0
26829,-125,4,2,1,35,0,0
27729,-166.666666666667,4,2,1,50,0,0
28029,-166.666666666667,4,2,1,35,0,0
28929,-166.666666666667,4,2,1,50,0,0
29229,-166.666666666667,4,2,1,35,0,0
30129,-500,4,2,1,20,0,0
31629,-500,4,2,1,40,0,0
32529,-100,4,2,2,65,0,1
47529,-100,4,2,99,65,0,1
47679,-100,4,2,2,65,0,1
49929,-100,4,2,99,65,0,1
50079,-100,4,2,2,65,0,1
70929,-111.111111111111,4,2,3,65,0,0
71829,-111.111111111111,4,2,3,60,0,0
72879,-111.111111111111,4,2,3,55,0,0
73329,-111.111111111111,4,2,3,50,0,0
74229,-111.111111111111,4,2,3,45,0,0
78129,-111.111111111111,4,2,3,50,0,0
78729,-111.111111111111,4,2,3,55,0,0
79329,-111.111111111111,4,2,3,60,0,0
79929,-111.111111111111,4,2,3,65,0,0
80529,-125,4,2,4,40,0,0
82329,-125,4,2,4,45,0,0
82529,-125,4,2,4,40,0,0
82729,-125,4,2,4,35,0,0
82929,-125,4,2,4,45,0,0
83129,-125,4,2,4,35,0,0
83329,-125,4,2,4,45,0,0
83529,-166.666666666667,4,2,4,35,0,0
85329,-166.666666666667,4,2,4,30,0,0
85929,-166.666666666667,4,2,4,25,0,0
86529,-166.666666666667,4,2,4,20,0,0
87129,-166.666666666667,4,2,4,15,0,0
87729,-166.666666666667,4,2,4,10,0,0
88329,-166.666666666667,4,2,1,5,0,0

[Colours]
Combo1 : 226,213,137
Combo2 : 109,164,192
Combo3 : 211,67,78
Combo4 : 204,165,136
Combo5 : 115,109,108
Combo6 : 173,207,122

[HitObjects]
187,338,729,5,2,0:0:0:0:
180,351,1329,6,0,P|187:248|195:199,1,132.999995941162,6|0,0:0|0:0,0:0:0:0:
201,211,2229,1,2,0:0:0:0:
271,273,2529,2,0,P|308:285|352:289,1,66.4999979705811,2|0,0:0|0:0,0:0:0:0:
403,354,3129,2,0,P|440:342|484:338,1,66.4999979705811,2|0,0:0|0:0,0:0:0:0:
496,223,3729,6,0,P|495:178|415:147,1,132.999995941162,6|0,0:0|0:0,0:0:0:0:
417,155,4629,1,2,0:0:0:0:
323,203,4929,1,2,0:0:0:0:
321,216,5529,2,0,P|268:206|199:221,1,99.7499969558717,2|0,0:0|0:0,0:0:0:0:
219,221,6129,6,0,P|170:234|119:170,1,132.999995941162,6|0,0:0|0:0,0:0:0:0:
108,169,7029,2,0,P|116:140|123:127,1,33.2499989852906,2|2,0:0|0:0,0:0:0:0:
128,47,7329,2,0,P|183:51|261:58,1,132.999995941162,2|0,0:0|0:0,0:0:0:0:
260,70,8229,2,0,L|308:70,1,33.2499989852906,2|2,0:0|0:0,0:0:0:0:
374,100,8529,6,0,P|390:132|376:182,1,66.4999979705811,2|0,0:0|0:0,0:0:0:0:
297,222,9129,2,0,P|281:254|295:304,1,66.4999979705811,0|2,0:0|0:0,0:0:0:0:
367,268,9579,1,2,0:0:0:0:
367,268,9729,2,0,L|448:269,1,66.4999979705811,2|0,0:0|0:0,0:0:0:0:
453,285,10329,6,0,P|410:286|366:293,1,71.25,2|0,0:0|0:0,0:0:0:0:
283,345,10929,6,0,P|222:347|178:278,1,132.999995941162,6|0,0:0|0:0,0:0:0:0:
189,281,11829,1,2,0:0:0:0:
138,193,12129,2,0,P|194:198|228:207,1,66.4999979705811,2|0,0:0|0:0,0:0:0:0:
277,251,12729,2,0,P|333:246|367:237,1,66.4999979705811,2|0,0:0|0:0,0:0:0:0:
354,347,13329,6,0,P|408:330|488:345,1,132.999995941162,6|0,0:0|0:0,0:0:0:0:
479,355,14229,1,2,0:0:0:0:
392,286,14529,1,2,0:0:0:0:
371,265,15129,2,0,P|430:260|495:265,1,99.7499969558717,2|0,0:0|0:0,0:0:0:0:
481,272,15729,6,0,P|484:241|492:194,2,66.4999979705811,6|0|0,0:0|0:0|0:0,0:0:0:0:
499,176,16629,1,0,0:0:0:0:
402,205,16929,6,0,P|399:174|391:127,2,66.4999979705811,0|0|0,0:0|0:0|0:0,0:0:0:0:
384,109,17829,1,2,0:0:0:0:
299,177,18129,6,0,P|249:188|212:184,1,66.4999979705811,2|2,0:0|0:0,0:0:0:0:
243,104,18729,2,0,P|194:88|164:66,1,66.4999979705811,2|2,0:0|0:0,0:0:0:0:
231,12,19329,1,2,0:0:0:0:
224,27,19929,5,2,0:0:0:0:
131,35,20229,1,2,0:0:0:0:
143,54,20529,6,0,L|-9:61,1,132.999995941162,12|0,0:0|0:0,0:0:0:0:
24,74,21429,1,2,0:0:0:0:
75,196,21729,6,0,P|95:148|180:136,1,142.5,8|2,0:0|0:0,0:0:0:0:
163,155,22929,6,0,L|306:151,1,132.999995941162,8|2,0:0|0:0,0:0:0:0:
300,159,23826,1,0,0:0:0:0:
298,53,24152,5,2,0:0:0:0:
299,65,24783,1,2,0:0:0:0:
394,35,25329,6,0,B|381:95|381:95|395:178|395:178|382:272,1,228,14|2,0:0|0:0,0:0:0:0:
464,290,26529,6,0,B|327:258|413:353|253:321,1,199.499993911743,14|2,0:0|0:0,0:0:0:0:
188,285,27729,5,14,0:0:0:0:
191,365,28029,1,0,0:0:0:0:
112,350,28329,5,2,0:0:0:0:
115,329,28629,1,2,0:0:0:0:
14,342,28929,5,6,0:0:0:0:
385,207,32529,6,0,L|230:206,1,142.5,6|0,3:0|0:0,0:0:0:0:
250,214,33129,2,0,P|238:155|267:121,1,95,2|0,1:0|0:0,0:0:0:0:
309,54,33729,6,0,L|185:58,1,95,2|0,3:0|3:0,0:0:0:0:
134,39,34179,1,0,0:0:0:0:
134,39,34329,2,0,L|10:35,1,95,2|2,1:0|0:0,0:0:0:0:
132,119,34929,6,0,B|121:178|121:178|133:207|133:207|127:293,1,142.5,2|0,3:0|0:0,0:0:0:0:
109,283,35529,2,0,P|165:262|242:272,1,95,2|0,1:0|0:0,0:0:0:0:
281,324,36129,6,0,P|288:249|292:222,1,95,2|0,3:0|3:0,0:0:0:0:
366,267,36579,1,0,0:0:0:0:
366,267,36729,2,0,P|414:280|475:285,1,95,0|2,1:0|0:0,0:0:0:0:
435,179,37329,6,0,P|433:134|429:74,1,95,2|2,3:0|0:0,0:0:0:0:
419,9,37929,1,4,1:0:0:0:
348,143,38229,5,2,0:0:0:0:
253,133,38529,1,2,3:0:0:0:
292,220,38829,1,0,3:0:0:0:
348,143,39129,2,0,P|346:98|342:38,1,95,4|2,1:0|0:0,0:0:0:0:
251,74,39729,6,0,P|185:94|145:62,1,95,2|2,3:0|0:0,0:0:0:0:
106,31,40329,1,4,1:0:0:0:
134,156,40629,1,2,0:0:0:0:
134,156,40779,1,2,3:2:0:0:
134,156,40929,2,0,P|144:212|145:262,1,95,2|0,3:0|3:0,0:0:0:0:
25,349,41529,2,0,P|27:301|36:254,1,95,6|0,1:0|0:0,0:0:0:0:
146,274,42129,5,6,3:0:0:0:
146,274,42429,1,2,0:0:0:0:
225,333,42729,2,0,P|287:293|375:337,1,142.5,2|0,1:0|3:0,0:0:0:0:
340,321,43329,2,0,P|340:250|344:222,1,95,2|2,3:0|3:2,0:0:0:0:
387,146,43929,2,0,P|343:116|298:126,1,95,0|2,1:0|0:0,0:0:0:0:
227,168,44529,5,2,3:0:0:0:
114,158,44829,1,2,0:0:0:0:
225,146,45129,1,2,1:0:0:0:
194,275,45579,1,0,3:0:0:0:
194,275,45729,6,0,P|186:347|186:370,1,95,2|0,3:0|3:0,0:0:0:0:
272,248,46179,6,0,P|234:200|173:197,1,95,0|0,0:0|0:0,0:0:0:0:
120,212,46629,6,0,L|124:155,1,47.5,2|0,0:0|0:0,0:0:0:0:
202,106,46929,6,0,B|311:70|286:158|387:134,1,190,2|0,3:0|1:0,0:0:0:0:
458,271,47979,1,0,3:0:0:0:
458,271,48129,2,0,P|411:270|366:283,1,95,2|0,3:0|3:0,0:0:0:0:
275,357,48729,1,0,1:0:0:0:
275,357,48879,2,0,P|204:355|149:337,1,95,0|0,0:0|0:0,0:0:0:0:
190,336,49329,6,0,B|92:249|135:124|264:140|261:247|178:269,1,332.5,2|0,3:0|3:2,0:0:0:0:
185,282,50529,5,2,3:0:0:0:
261,311,50829,1,2,3:2:0:0:
323,260,51129,1,2,1:0:0:0:
311,180,51429,1,2,0:0:0:0:
337,277,51729,6,0,P|394:314|479:312,1,142.5,6|0,3:0|0:0,0:0:0:0:
481,328,52329,2,0,P|481:260|475:235,1,95,2|0,1:0|0:0,0:0:0:0:
369,205,52779,1,0,3:0:0:0:
369,205,52929,6,0,L|264:207,1,95,2|0,3:0|3:0,0:0:0:0:
195,198,53379,1,0,0:0:0:0:
195,198,53529,2,0,P|205:170|224:147,1,47.5,2|0,1:0|0:0,0:0:0:0:
167,91,53829,2,0,P|193:78|223:75,1,47.5,2|0,0:0|0:0,0:0:0:0:
249,9,54129,6,0,L|260:190,1,142.5,2|0,3:0|0:0,0:0:0:0:
270,140,54729,2,0,P|213:115|177:132,1,95,2|0,1:0|0:0,0:0:0:0:
121,196,55329,5,2,3:0:0:0:
35,134,55629,1,0,3:0:0:0:
35,134,55779,1,0,0:0:0:0:
35,134,55929,1,0,1:0:0:0:
9,237,56229,1,2,0:0:0:0:
1,225,56529,6,0,P|53:225|127:229,1,95,2|2,3:0|0:0,0:0:0:0:
55,304,57129,1,4,1:0:0:0:
168,277,57429,5,2,0:0:0:0:
145,355,57729,1,2,3:0:0:0:
249,306,58029,1,2,3:2:0:0:
309,365,58329,2,0,L|411:359,1,95,4|2,1:0|0:0,0:0:0:0:
485,347,58929,6,0,P|496:279|418:243,1,142.5,2|0,3:0|0:0,0:0:0:0:
445,249,59529,1,4,1:0:0:0:
329,265,59829,1,2,0:0:0:0:
329,265,59979,1,2,3:2:0:0:
329,265,60129,6,0,P|330:228|373:183,1,95,2|0,3:0|3:0,0:0:0:0:
432,97,60729,2,0,P|431:60|388:15,1,95,6|0,1:0|0:0,0:0:0:0:
314,68,61329,6,0,L|107:62,1,190,6|2,3:0|1:0,0:0:0:0:
284,160,62379,1,0,3:0:0:0:
284,160,62529,2,0,L|168:163,1,95,2|0,3:0|3:0,0:0:0:0:
83,198,63129,2,0,P|162:197|207:266,1,142.5,2|0,1:0|0:0,0:0:0:0:
200,253,63729,5,2,3:0:0:0:
115,357,64029,1,0,0:0:0:0:
115,357,64179,1,0,0:0:0:0:
115,357,64329,2,0,P|118:310|129:264,1,95,0|0,1:0|0:0,0:0:0:0:
186,143,64929,6,0,P|241:181|325:184,1,142.5,2|0,3:0|0:0,0:0:0:0:
301,206,65529,2,0,P|364:194|422:207,1,95,2|2,1:0|0:0,0:0:0:0:
395,323,66129,6,0,B|448:296|495:327|495:327|471:282|488:226,1,190,2|0,3:0|1:0,0:0:0:0:
428,152,67029,2,0,P|435:119|442:103,1,47.5,2|2,0:0|3:2,0:0:0:0:
512,63,67329,2,0,B|390:52|462:139|296:102,1,190,2|0,3:0|1:0,0:0:0:0:
200,44,68229,1,2,0:0:0:0:
200,44,68529,6,0,B|227:196|79:135|134:293|134:293|120:234|181:163,2,380,2|2|6,3:0|3:0|3:0,0:0:0:0:
105,90,71229,5,2,0:1:0:0:
105,90,71379,1,0,0:0:0:0:
105,90,71529,1,2,1:3:0:0:
221,143,71979,1,0,3:0:0:0:
221,143,72129,6,0,P|263:139|312:177,1,85.4999973907472,2|2,3:3|3:1,0:0:0:0:
355,237,72729,1,2,1:3:0:0:
355,237,72879,2,0,P|397:241|446:203,1,85.4999973907472,0|2,0:0|0:3,0:0:0:0:
475,306,73329,6,0,B|470:281|470:281|475:267|475:267|469:250|469:250|491:205|491:205|481:123,1,170.999994781494,2|0,3:3|1:0,0:0:0:0:
401,38,74379,1,0,3:0:0:0:
401,38,74529,2,0,L|397:132,1,85.4999973907472,2|2,3:3|3:1,0:0:0:0:
320,140,75129,1,0,1:0:0:0:
320,140,75279,2,0,L|323:192,2,42.7499986953736,0|10|2,0:0|0:1|0:3,0:0:0:0:
276,62,75729,6,0,P|224:40|127:110,1,170.999994781494,2|2,3:3|1:3,0:0:0:0:
229,202,76779,1,0,3:0:0:0:
229,202,76929,2,0,P|223:159|214:118,1,85.4999973907472,2|2,3:3|3:1,0:0:0:0:
137,174,77529,1,2,1:3:0:0:
137,174,77679,2,0,L|86:176,2,42.7499986953736,0|2|0,0:0|0:1|0:0,0:0:0:0:
224,112,78129,6,0,L|370:116,1,128.249996086121,6|0,3:2|0:0,0:0:0:0:
362,109,78729,2,0,P|378:158|370:199,1,85.4999973907472,6|2,1:2|0:1,0:0:0:0:
309,241,79179,1,0,3:0:0:0:
309,241,79329,5,6,3:2:0:0:
222,237,79629,1,2,3:1:0:0:
135,233,79929,1,6,1:2:0:0:
135,233,80079,2,0,L|139:147,1,85.4999973907472,0|0,0:0|0:0,0:0:0:0:
98,73,80529,6,0,P|135:99|215:100,1,114,6|2,1:2|1:0,0:0:0:0:
220,86,81129,2,0,P|227:56|239:40,1,38,10|2,0:0|0:0,0:0:0:0:
297,83,81429,2,0,P|319:61|337:54,1,38,2|10,0:0|0:0,0:0:0:0:
366,120,81729,6,0,P|396:114|419:120,2,50.6666666666667,2|2|2,1:0|0:0|0:0,0:0:0:0:
306,170,82329,2,0,P|281:174|256:168,2,50.6666666666667,10|2|2,0:0|0:0|0:0,0:0:0:0:
380,194,82929,6,0,P|386:228|388:254,1,50.6666666666667,2|2,1:0|0:0,0:0:0:0:
394,254,83329,6,0,B|362:292|287:329|198:259|213:204|262:98|95:56|29:140|76:280|238:217,1,506.666666666667,2|0,0:0|1:0,0:0:0:0:
