osu file format v14

[General]
AudioFilename: audio.mp3
AudioLeadIn: 0
PreviewTime: 30054
Countdown: 0
SampleSet: Soft
StackLeniency: 0.9
Mode: 0
LetterboxInBreaks: 0
WidescreenStoryboard: 1

[Editor]
Bookmarks: 32529
DistanceSpacing: 1
BeatDivisor: 4
GridSize: 16
TimelineZoom: 1

[Metadata]
Title:STYX HELIX (TV Size)
TitleUnicode:STYX HELIX (TV Size)
Artist:MYTH & ROID
ArtistUnicode:MYTH & ROID
Creator:fieryrage
Version:fiery & ney's easy
Source:Re:ゼロから始める異世界生活
Tags:re:zero kara hajimeru isekai seikatsu rezero starting life in another world different from zero directors director's cut remix japanese english anime ed ending and noffy h-3110 n1doking ney fizz mayflower
BeatmapID:2304791
BeatmapSetID:1103179

[Difficulty]
HPDrainRate:2.5
CircleSize:2
OverallDifficulty:3
ApproachRate:3.5
SliderMultiplier:1.2
SliderTickRate:1

[Events]
//Background and Video events
0,0,"emilia sucks and if you like emilia you should feel bad.jpg",0,0
//Break Periods
//Storyboard Layer 0 (Background)
//Storyboard Layer 1 (Fail)
//Storyboard Layer 2 (Pass)
//Storyboard Layer 3 (Foreground)
//Storyboard Layer 4 (Overlay)
//Storyboard Sound Samples

[TimingPoints]
729,600,4,2,1,30,1,0
729,-100,4,2,1,30,0,0
1329,600,4,2,1,35,1,0
1329,-100,4,2,1,35,0,0
10329,-100,4,2,1,35,0,0
10929,-100,4,2,1,40,0,0
20529,-100,4,2,1,45,0,0
21429,-100,4,2,1,35,0,0
21729,-100,4,2,1,45,0,0
22629,-100,4,2,1,25,0,0
22929,545.454545454546,4,2,1,45,1,0
22929,-100,4,2,1,45,0,0
23201,-100,4,2,1,40,0,0
23474,705.882352941176,4,2,1,40,1,0
23474,-96.1538461538461,4,2,1,40,0,0
23826,652.173913043478,4,2,1,45,1,0
23826,-100,4,2,1,45,0,0
24152,631.578947368421,4,2,1,50,1,0
24152,-100,4,2,1,50,0,0
24467,-100,4,2,1,40,0,0
24783,546.697038724374,4,2,1,40,1,0
25329,600,4,2,1,50,1,0
25329,-100,4,2,1,50,0,0
25629,-100,4,2,1,35,0,0
26529,-100,4,2,1,50,0,0
26829,-100,4,2,1,35,0,0
27729,-100,4,2,1,50,0,0
28029,-100,4,2,1,35,0,0
28929,-100,4,2,1,50,0,0
29229,-100,4,2,1,35,0,0
30129,-100,4,2,1,20,0,0
31629,-100,4,2,1,40,0,0
32529,-100,4,2,2,65,0,1
47529,-100,4,2,99,65,0,1
47679,-100,4,2,2,65,0,1
49929,-100,4,2,99,65,0,1
50079,-100,4,2,2,65,0,1
69129,-100,4,2,99,65,0,1
69429,-100,4,2,2,65,0,1
70929,-100,4,2,3,65,0,0
71829,-100,4,2,3,60,0,0
72879,-100,4,2,3,55,0,0
73329,-100,4,2,3,50,0,0
74229,-100,4,2,3,45,0,0
78129,-100,4,2,3,50,0,0
78729,-100,4,2,3,55,0,0
79329,-100,4,2,3,60,0,0
79929,-100,4,2,3,65,0,0
80529,-100,4,2,4,40,0,0
82329,-100,4,2,4,45,0,0
82529,-100,4,2,4,40,0,0
82729,-100,4,2,4,35,0,0
82929,-100,4,2,4,45,0,0
83129,-100,4,2,4,35,0,0
83329,-100,4,2,4,45,0,0
83529,-100,4,2,4,35,0,0
85329,-100,4,2,4,30,0,0
85929,-100,4,2,4,25,0,0
86529,-100,4,2,4,20,0,0
87129,-100,4,2,4,15,0,0
87729,-100,4,2,4,10,0,0
88329,-100,4,2,1,5,0,0

[Colours]
Combo1 : 226,213,137
Combo2 : 109,164,192
Combo3 : 211,67,78
Combo4 : 204,165,136
Combo5 : 115,109,108
Combo6 : 173,207,122

[HitObjects]
16,240,1329,6,0,P|160:272|256:240,1,240,6|2,0:0|0:0,0:0:0:0:
352,192,3129,1,2,0:0:0:0:
243,139,3729,2,0,P|131:139|3:75,1,240,6|2,0:0|0:0,0:0:0:0:
122,30,5529,1,2,0:0:0:0:
241,28,6129,6,0,P|336:78|316:211,2,240,6|2|2,0:0|0:0|0:0,0:0:0:0:
70,196,9729,1,2,0:0:0:0:
89,314,10329,1,2,0:0:0:0:
187,244,10929,6,0,P|331:212|427:244,1,240,6|2,0:0|0:0,0:0:0:0:
509,161,12729,1,2,0:0:0:0:
407,96,13329,2,0,P|263:64|167:96,1,240,6|2,0:0|0:0,0:0:0:0:
60,64,15129,1,2,0:0:0:0:
32,180,15729,6,0,P|114:348|256:269,1,360,6|0,0:0|0:0,0:0:0:0:
144,227,18129,2,0,P|181:181|232:145,1,120,2|2,0:0|0:0,0:0:0:0:
350,149,19329,2,0,P|398:184|435:230,1,120,2|2,0:0|0:0,0:0:0:0:
472,345,20529,5,12,0:0:0:0:
235,306,21729,1,8,0:0:0:0:
384,118,22929,1,8,0:0:0:0:
300,62,23474,6,0,P|247:51|175:65,1,120,2|2,0:0|0:0,0:0:0:0:
69,141,24783,1,2,0:0:0:0:
126,234,25329,2,0,P|196:278|280:163,2,240,14|14|14,0:0|0:0|0:0,0:0:0:0:
256,192,28029,12,0,30129,1:2:0:0:
285,178,32529,6,0,P|304:236|298:303,1,120,6|2,3:0|1:0,0:0:0:0:
199,359,33729,1,2,3:0:0:0:
123,265,34329,2,0,L|86:204,1,60,2|2,1:0|0:0,0:0:0:0:
58,163,34929,2,0,L|52:27,2,120,2|2|2,3:0|1:0|3:0,0:0:0:0:
6,271,36729,1,0,1:0:0:0:
109,332,37329,6,0,P|170:335|224:306,1,120,2|4,3:0|1:0,0:0:0:0:
258,261,38229,1,2,0:0:0:0:
301,219,38529,2,0,P|353:192|413:195,1,120,2|4,3:0|1:0,0:0:0:0:
485,291,39729,1,2,3:0:0:0:
381,352,40329,2,0,L|325:322,1,60,4|2,1:0|0:0,0:0:0:0:
278,289,40929,2,0,P|266:229|281:165,1,120,2|6,3:0|1:0,0:0:0:0:
369,94,42129,5,6,3:0:0:0:
258,48,42729,2,0,P|197:40|136:55,1,120,2|2,1:0|3:0,0:0:0:0:
49,131,43929,1,0,1:0:0:0:
104,237,44529,2,0,L|106:361,1,120,2|2,3:0|1:0,0:0:0:0:
226,352,45729,2,0,L|224:232,1,120,2|2,3:0|1:0,0:0:0:0:
252,179,46629,1,2,0:0:0:0:
289,131,46929,6,0,B|323:97|365:89|405:87|443:95|466:114|482:144|482:144|441:172|422:232|441:272,1,360,2|0,3:0|1:0,0:0:0:0:
392,304,49029,1,2,0:0:0:0:
343,339,49329,2,0,B|287:356|226:334|226:334|167:313|101:336,1,240,2|2,3:0|3:0,0:0:0:0:
13,259,51129,1,2,1:0:0:0:
68,152,51729,6,0,P|77:80|62:22,2,120,6|2|2,3:0|1:0|3:0,0:0:0:0:
13,259,53529,2,0,L|68:288,1,60,2|2,1:0|0:0,0:0:0:0:
117,318,54129,2,0,L|251:312,1,120,2|2,3:0|1:0,0:0:0:0:
334,243,55329,2,0,L|453:248,1,120,2|0,3:0|1:0,0:0:0:0:
463,188,56229,1,2,0:0:0:0:
457,128,56529,6,0,P|445:56|463:0,1,120,2|4,3:0|1:0,0:0:0:0:
343,51,57729,2,0,P|271:63|215:45,1,120,2|4,3:0|1:0,0:0:0:0:
114,6,58929,1,2,3:0:0:0:
64,115,59529,2,0,L|103:180,1,60,4|2,1:0|0:0,0:0:0:0:
127,216,60129,2,0,P|140:277|128:341,1,120,2|6,3:0|1:0,0:0:0:0:
25,277,61329,5,6,3:0:0:0:
127,216,61929,2,0,B|224:210|224:210|266:228|266:228|374:224,1,240,2|2,1:0|1:0,0:0:0:0:
469,279,63729,2,0,P|480:215|463:160,1,120,2|0,3:0|1:0,0:0:0:0:
382,75,64929,1,2,3:0:0:0:
267,110,65529,1,2,1:0:0:0:
266,229,66129,6,0,L|263:371,1,120,2|0,3:0|1:0,0:0:0:0:
203,347,67029,1,2,0:0:0:0:
143,345,67329,2,0,L|1:342,1,120,2|0,3:0|1:0,0:0:0:0:
26,224,68529,2,0,L|294:229,1,240,2|2,3:0|3:0,0:0:0:0:
385,230,70329,1,2,1:0:0:0:
410,175,70629,1,2,0:0:0:0:
437,121,70929,6,0,B|497:202|497:202|485:360,1,240,6|2,3:0|3:3,0:0:0:0:
249,377,73329,2,0,P|191:327|305:315,1,240,2|2,3:3|3:3,0:0:0:0:
399,227,75129,1,0,1:0:0:0:
295,166,75729,6,0,P|211:165|88:283,1,240,2|2,3:3|3:3,0:0:0:0:
11,176,77529,1,2,1:3:0:0:
53,63,78129,2,0,L|200:58,1,120,6|6,3:2|1:2,0:0:0:0:
262,138,79329,2,0,L|381:142,1,120,6|6,3:2|1:2,0:0:0:0:
468,58,80529,5,6,1:2:0:0:
256,192,80829,12,4,88329,0:0:0:0:
