osu file format v14

[General]
AudioFilename: audio.mp3
AudioLeadIn: 0
PreviewTime: 30054
Countdown: 0
SampleSet: Soft
StackLeniency: 0.5
Mode: 0
LetterboxInBreaks: 0
WidescreenStoryboard: 0

[Editor]
DistanceSpacing: 1
BeatDivisor: 4
GridSize: 16
TimelineZoom: 1

[Metadata]
Title:STYX HELIX (TV Size)
TitleUnicode:STYX HELIX (TV Size)
Artist:MYTH & ROID
ArtistUnicode:MYTH & ROID
Creator:fieryrage
Version:fading away into the dark
Source:Re:ゼロから始める異世界生活
Tags:re:zero kara hajimeru isekai seikatsu rezero starting life in another world different from zero directors director's cut remix japanese english anime ed ending and noffy h-3110 n1doking ney fizz mayflower
BeatmapID:2304460
BeatmapSetID:1103179

[Difficulty]
HPDrainRate:5
CircleSize:4.2
OverallDifficulty:7.2
ApproachRate:8
SliderMultiplier:2.1
SliderTickRate:1

[Events]
//Background and Video events
0,0,"emilia sucks and if you like emilia you should feel bad.jpg",0,0
//Break Periods
//Storyboard Layer 0 (Background)
//Storyboard Layer 1 (Fail)
//Storyboard Layer 2 (Pass)
//Storyboard Layer 3 (Foreground)
//Storyboard Layer 4 (Overlay)
//Storyboard Sound Samples

[TimingPoints]
729,600,4,2,1,30,1,0
729,-200,4,2,1,30,0,0
1329,600,4,2,1,35,1,0
1329,-142.857142857143,4,2,1,35,0,0
10329,-200,4,2,1,35,0,0
10929,-142.857142857143,4,2,1,40,0,0
20529,-117.647058823529,4,2,1,45,0,0
21429,-117.647058823529,4,2,1,35,0,0
21729,-117.647058823529,4,2,1,45,0,0
22629,-117.647058823529,4,2,1,25,0,0
22929,545.454545454546,4,2,1,45,1,0
22929,-117.647058823529,4,2,1,45,0,0
23201,-117.647058823529,4,2,1,40,0,0
23474,705.882352941176,4,2,1,40,1,0
23474,-117.647058823529,4,2,1,40,0,0
23826,652.173913043478,4,2,1,45,1,0
23826,-117.647058823529,4,2,1,45,0,0
24152,631.578947368421,4,2,1,50,1,0
24152,-117.647058823529,4,2,1,50,0,0
24467,-117.647058823529,4,2,1,40,0,0
24783,546.697038724374,4,2,1,40,1,0
24783,-117.647058823529,4,2,1,40,0,0
25329,600,4,2,1,50,1,0
25329,-100,4,2,1,50,0,0
25629,-100,4,2,1,35,0,0
26529,-125,4,2,1,50,0,0
26829,-125,4,2,1,35,0,0
27729,-166.666666666667,4,2,1,50,0,0
28029,-166.666666666667,4,2,1,35,0,0
28929,-166.666666666667,4,2,1,50,0,0
29229,-166.666666666667,4,2,1,35,0,0
30129,-500,4,2,1,20,0,0
31629,-500,4,2,1,40,0,0
32529,-83.3333333333333,4,2,2,65,0,1
47529,-83.3333333333333,4,2,99,65,0,1
47679,-83.3333333333333,4,2,2,65,0,1
49929,-83.3333333333333,4,2,99,65,0,1
50079,-83.3333333333333,4,2,2,65,0,1
69129,-83.3333333333333,4,2,99,65,0,1
69279,-83.3333333333333,4,2,2,65,0,1
70929,-100,4,2,3,65,0,0
71829,-100,4,2,3,60,0,0
72879,-100,4,2,3,55,0,0
73329,-100,4,2,3,50,0,0
74229,-100,4,2,3,45,0,0
78129,-100,4,2,3,50,0,0
78729,-100,4,2,3,55,0,0
79329,-100,4,2,3,60,0,0
79929,-100,4,2,3,65,0,0
80529,-125,4,2,4,40,0,0
82329,-125,4,2,4,45,0,0
82529,-125,4,2,4,40,0,0
82729,-125,4,2,4,35,0,0
82929,-125,4,2,4,45,0,0
83129,-125,4,2,4,35,0,0
83329,-125,4,2,4,45,0,0
83529,-166.666666666667,4,2,4,35,0,0
85329,-166.666666666667,4,2,4,30,0,0
85929,-166.666666666667,4,2,4,25,0,0
86529,-166.666666666667,4,2,4,20,0,0
87129,-166.666666666667,4,2,4,15,0,0
87729,-166.666666666667,4,2,4,10,0,0
88329,-166.666666666667,4,2,1,5,0,0

[Colours]
Combo1 : 226,213,137
Combo2 : 109,164,192
Combo3 : 211,67,78
Combo4 : 204,165,136
Combo5 : 115,109,108
Combo6 : 173,207,122

[HitObjects]
145,81,729,5,2,0:0:0:0:
138,88,804,2,0,P|131:119|138:155,1,65.625,0|0,0:0|0:0,0:0:0:0:
222,253,1329,6,0,P|166:282|81:272,1,146.999995513916,6|0,0:0|0:0,0:0:0:0:
34,191,2229,1,2,0:0:0:0:
264,173,2529,2,0,P|292:200|308:244,1,73.4999977569581,2|0,0:0|0:0,0:0:0:0:
253,78,3129,2,0,P|291:84|329:110,1,73.4999977569581,2|0,0:0|0:0,0:0:0:0:
486,247,3729,6,0,B|430:263|382:242|382:242|399:257|405:283,1,146.999995513916,6|0,0:0|0:0,0:0:0:0:
300,315,4629,1,2,0:0:0:0:
420,160,4929,2,0,P|385:150|349:155,1,73.4999977569581,2|0,0:0|0:0,0:0:0:0:
260,224,5529,2,0,P|223:228|188:218,1,73.4999977569581,2|0,0:0|0:0,0:0:0:0:
206,2,6129,6,0,B|233:54|233:54|228:165,1,146.999995513916,6|0,0:0|0:0,0:0:0:0:
153,268,7029,1,2,0:0:0:0:
153,268,7179,1,2,0:0:0:0:
153,268,7329,2,0,P|219:252|298:285,1,146.999995513916,2|0,0:0|0:0,0:0:0:0:
418,382,8229,1,2,0:0:0:0:
418,382,8379,1,2,0:0:0:0:
418,382,8529,6,0,B|446:330|446:330|440:219,1,146.999995513916,2|0,0:0|0:0,0:0:0:0:
441,119,9429,1,2,0:0:0:0:
441,119,9579,1,2,0:0:0:0:
441,119,9729,1,2,0:0:0:0:
291,278,10404,6,0,P|253:283|217:274,1,65.625,2|0,0:0|0:0,0:0:0:0:
170,194,10929,6,0,P|137:245|139:330,1,146.999995513916,6|0,0:0|0:0,0:0:0:0:
37,220,11829,1,2,0:0:0:0:
198,114,12129,2,0,P|208:79|205:34,1,73.4999977569581,2|0,0:0|0:0,0:0:0:0:
263,181,12729,2,0,P|291:158|314:119,1,73.4999977569581,2|0,0:0|0:0,0:0:0:0:
450,324,13329,6,0,B|386:319|386:319|369:334|369:334|305:329,1,146.999995513916,6|0,0:0|0:0,0:0:0:0:
195,324,14229,1,2,0:0:0:0:
409,163,14529,2,0,B|422:197|422:197|420:239,1,73.4999977569581,2|0,0:0|0:0,0:0:0:0:
311,127,15129,2,0,B|298:93|298:93|300:51,1,73.4999977569581,2|0,0:0|0:0,0:0:0:0:
107,132,15729,6,0,B|83:97|36:98|8:116|-13:145|-19:189|4:231|55:239|91:228|91:228|62:260|58:303|93:332|93:332|101:299|89:272,1,440.999986541749,6|0,0:0|0:0,0:0:0:0:
195,324,17829,1,2,0:0:0:0:
311,127,18129,5,2,0:0:0:0:
346,213,18429,1,2,0:0:0:0:
218,124,18729,1,2,0:0:0:0:
361,62,19029,1,2,0:0:0:0:
247,206,19329,2,0,P|211:210|168:196,1,73.4999977569581,2|0,0:0|0:0,0:0:0:0:
131,120,19929,1,2,0:0:0:0:
346,213,20229,1,2,0:0:0:0:
93,331,20529,5,12,0:0:0:0:
87,336,21429,1,2,0:0:0:0:
250,163,21729,5,8,0:0:0:0:
256,168,22629,1,2,0:0:0:0:
25,115,22929,5,8,0:0:0:0:
17,120,23474,2,0,L|15:220,1,89.2500017023087,2|0,0:0|0:0,0:0:0:0:
93,331,24152,2,0,B|134:347|181:329|181:329|228:314|270:329,1,178.500003404617,2|2,0:0|0:0,0:0:0:0:
411,150,25329,6,0,P|437:84|321:139,1,315,14|2,0:0|0:0,0:0:0:0:
201,217,26529,2,0,B|15:209|15:209|74:165,1,252,14|2,0:0|0:0,0:0:0:0:
290,26,27729,6,0,B|306:58|322:90|322:106|322:122|322:138|306:170|290:202|290:218|290:234|290:250|306:282|322:314|338:314|354:314|370:314|386:314|402:314|418:282|434:250|434:234|434:194|408:142|408:142,1,503.999984619141,14|0,0:0|1:2,0:0:0:0:
411,150,31629,6,0,L|410:175,2,21,2|2|2,0:0|0:0|0:0,0:0:0:0:
405,24,32529,6,0,L|411:168,1,125.999996154785,6|0,3:0|0:0,0:0:0:0:
474,280,33129,2,0,P|423:296|344:282,1,125.999996154785,2|0,1:0|0:0,0:0:0:0:
282,207,33579,1,0,3:0:0:0:
282,207,33729,6,0,B|136:201|136:201|189:242,1,188.999994232178,2|0,3:0|0:0,0:0:0:0:
238,317,34329,2,0,P|247:351|245:388,1,62.9999980773926,2|0,1:0|0:0,0:0:0:0:
135,329,34629,2,0,P|122:362|100:391,1,62.9999980773926,2|0,0:0|0:0,0:0:0:0:
49,129,34929,6,0,P|99:94|173:99,1,125.999996154785,2|0,3:0|0:0,0:0:0:0:
247,45,35379,1,0,0:0:0:0:
247,45,35529,2,0,P|257:109|233:163,1,125.999996154785,2|0,1:0|0:0,0:0:0:0:
124,304,36129,6,0,L|262:299,1,125.999996154785,2|0,3:0|3:0,0:0:0:0:
340,297,36579,1,0,0:0:0:0:
340,297,36729,1,0,1:0:0:0:
187,176,37029,1,2,0:0:0:0:
470,106,37329,5,2,3:0:0:0:
306,195,37629,2,0,P|252:203|185:174,1,125.999996154785,2|4,0:0|1:0,0:0:0:0:
68,35,38229,2,0,L|66:110,1,62.9999980773926,2|0,0:0|3:0,0:0:0:0:
61,255,38529,5,2,3:0:0:0:
152,89,38829,1,0,3:0:0:0:
171,312,39129,2,0,L|177:381,1,62.9999980773926,4|0,1:0|0:0,0:0:0:0:
239,260,39429,6,0,P|298:241|366:254,1,125.999996154785,2|2,0:0|3:0,0:0:0:0:
499,352,40029,1,2,0:0:0:0:
512,181,40329,2,0,L|519:45,1,125.999996154785,4|2,1:0|0:0,0:0:0:0:
440,3,40779,1,2,3:2:0:0:
440,3,40929,6,0,B|360:37|259:18|259:18|292:37|308:69,1,251.999992309571,2|6,3:0|1:0,0:0:0:0:
243,197,41829,2,0,P|237:225|241:268,1,62.9999980773926,0|0,0:0|0:0,0:0:0:0:
260,340,42129,5,6,3:0:0:0:
95,263,42429,1,2,0:0:0:0:
193,119,42729,2,0,P|252:109|320:135,1,125.999996154785,2|0,1:0|0:0,0:0:0:0:
88,257,43329,5,2,3:0:0:0:
200,110,43629,2,0,P|259:110|322:147,1,125.999996154785,2|0,3:2|1:0,0:0:0:0:
415,344,44229,2,0,L|416:265,1,62.9999980773926,2|0,0:0|0:0,0:0:0:0:
417,127,44529,5,2,3:0:0:0:
320,281,44829,1,2,0:0:0:0:
497,174,45129,2,0,P|503:111|475:49,1,125.999996154785,2|0,1:0|0:0,0:0:0:0:
389,16,45579,1,0,3:0:0:0:
389,16,45729,6,0,L|237:14,1,125.999996154785,2|0,3:0|3:0,0:0:0:0:
172,90,46179,2,0,L|234:90,1,62.9999980773926,0|2,0:0|1:0,0:0:0:0:
303,182,46479,1,0,0:0:0:0:
303,182,46629,2,0,L|240:181,1,62.9999980773926,2|0,0:0|0:0,0:0:0:0:
15,53,46929,6,0,B|36:14|92:5|131:20|161:60|158:119|129:157|80:172|33:146|33:146|67:187|49:256|49:256|32:313|55:378|113:377|113:377|183:369|185:291|168:229,1,755.999976928712,2|0,3:0|1:0,0:0:0:0:
71,89,49029,5,2,0:0:0:0:
274,209,49329,2,0,B|321:225|375:215|412:186|437:159|421:112|390:90|367:85|324:92|307:119|304:163|328:185|357:207|366:263|348:313,1,440.999986541748,2|0,3:0|3:2,0:0:0:0:
318,375,50529,5,2,3:0:0:0:
451,252,50829,1,2,3:2:0:0:
265,292,51129,2,0,L|121:294,1,125.999996154785,2|2,1:0|0:0,0:0:0:0:
10,86,51729,6,0,P|67:64|138:79,1,125.999996154785,6|0,3:0|0:0,0:0:0:0:
278,166,52329,2,0,P|339:176|397:154,1,125.999996154785,2|0,1:0|0:0,0:0:0:0:
463,78,52779,1,0,3:0:0:0:
463,78,52929,5,2,3:0:0:0:
202,123,53229,1,0,3:0:0:0:
410,255,53529,2,0,P|419:279|418:318,1,62.9999980773926,2|0,1:0|0:0,0:0:0:0:
323,296,53829,2,0,P|325:321|314:358,1,62.9999980773926,2|0,0:0|0:0,0:0:0:0:
233,261,54129,6,0,P|175:245|107:256,1,125.999996154785,2|0,3:0|0:0,0:0:0:0:
33,316,54579,1,0,0:0:0:0:
33,316,54729,2,0,P|16:248|36:189,1,125.999996154785,2|0,1:0|0:0,0:0:0:0:
225,43,55329,6,0,L|228:182,1,125.999996154785,2|0,3:0|3:0,0:0:0:0:
233,261,55779,1,0,0:0:0:0:
233,261,55929,1,0,1:0:0:0:
331,56,56229,1,2,0:0:0:0:
129,146,56529,5,2,3:0:0:0:
342,200,56829,2,0,P|356:254|344:326,1,125.999996154785,2|4,0:0|1:0,0:0:0:0:
137,362,57429,2,0,L|135:287,1,62.9999980773926,2|0,0:0|3:0,0:0:0:0:
129,146,57729,5,2,3:0:0:0:
35,311,58029,1,2,3:2:0:0:
283,223,58329,2,0,L|354:195,1,62.9999980773926,4|0,1:0|0:0,0:0:0:0:
415,260,58629,6,0,P|428:187|411:134,1,125.999996154785,2|2,0:0|3:0,0:0:0:0:
260,13,59229,1,2,0:0:0:0:
431,27,59529,1,4,1:0:0:0:
252,141,59829,1,2,0:0:0:0:
252,141,59979,1,2,3:2:0:0:
252,141,60129,6,0,B|194:163|129:141|129:141|63:116|5:140,1,251.999992309571,2|6,3:0|1:0,0:0:0:0:
184,326,61029,2,0,L|185:246,1,62.9999980773926,0|0,0:0|0:0,0:0:0:0:
186,74,61329,6,0,L|184:263,1,188.999994232178,6|0,3:0|0:0,0:0:0:0:
278,341,61929,2,0,B|302:331|327:325|354:327|385:337|405:355|431:366|455:353|455:353|439:327|431:308|429:278|434:257|442:239|450:218|451:191|440:158,1,377.999988464356,2|0,1:0|3:0,0:0:0:0:
358,32,63129,2,0,P|419:8|494:19,1,125.999996154785,2|0,1:0|0:0,0:0:0:0:
361,201,63729,6,0,B|307:219|250:199|250:199|226:213|226:213|170:195|115:211,1,251.999992309571,2|0,3:0|1:0,0:0:0:0:
0,258,64629,1,0,0:0:0:0:
209,0,64929,6,0,L|212:126,1,125.999996154785,2|0,3:0|3:0,0:0:0:0:
318,191,65379,2,0,L|316:128,1,62.9999980773926,0|2,0:0|1:0,0:0:0:0:
414,55,65679,1,0,0:0:0:0:
414,55,65829,2,0,L|415:117,1,62.9999980773926,2|0,0:0|0:0,0:0:0:0:
344,264,66129,6,0,P|273:289|327:196,1,251.999992309571,2|0,3:0|1:0,0:0:0:0:
443,355,67029,1,2,0:0:0:0:
443,355,67179,1,2,3:2:0:0:
443,355,67329,6,0,B|463:298|444:240|444:240|426:183|447:107,1,251.999992309571,2|0,3:0|1:0,0:0:0:0:
296,18,68229,1,2,0:0:0:0:
166,135,68529,6,0,B|109:156|45:149|10:100|10:100|51:157|53:239|9:315,1,377.999988464356,2|0,3:0|0:0,0:0:0:0:
95,366,69579,1,0,3:2:0:0:
95,366,69729,6,0,B|165:395|213:357|213:357|284:386|332:349,1,251.999992309571,2|2,3:0|1:0,0:0:0:0:
512,308,70629,2,0,P|484:304|451:310,1,62.9999980773926,2|2,0:0|0:0,0:0:0:0:
398,224,70929,6,0,P|386:138|410:63,1,157.5,6|0,3:0|0:0,0:0:0:0:
441,33,71529,1,2,1:3:0:0:
237,83,71979,1,0,3:0:0:0:
237,83,72129,2,0,L|129:85,1,105,2|2,3:3|3:1,0:0:0:0:
0,90,72729,2,0,L|71:88,1,52.5,2|0,1:3|0:0,0:0:0:0:
174,232,73179,1,2,0:3:0:0:
174,232,73329,6,0,P|191:296|109:244,1,210,2|0,3:3|1:0,0:0:0:0:
307,336,74379,1,0,3:0:0:0:
307,336,74529,2,0,P|318:268|305:219,1,105,2|2,3:3|3:1,0:0:0:0:
237,83,75129,2,0,L|293:80,1,52.5,0|0,1:0|0:0,0:0:0:0:
414,150,75429,2,0,L|358:147,1,52.5,10|2,0:1|0:3,0:0:0:0:
196,207,75729,6,0,B|117:224|43:188|43:188|63:216|67:243,1,210,2|2,3:3|1:3,0:0:0:0:
202,337,76779,1,0,3:0:0:0:
202,337,76929,2,0,L|328:335,1,105,2|2,3:3|3:1,0:0:0:0:
453,333,77529,1,2,1:3:0:0:
237,83,78129,5,6,3:2:0:0:
451,240,78729,1,6,1:2:0:0:
196,207,79179,1,0,3:0:0:0:
196,207,79329,2,0,L|91:208,1,105,6|2,3:2|3:1,0:0:0:0:
202,337,79929,1,6,1:2:0:0:
353,41,80529,6,0,P|364:86|358:138,1,84,6|0,1:2|0:0,0:0:0:0:
348,163,80979,1,2,1:0:0:0:
348,163,81129,2,0,L|350:217,1,42,10|2,0:0|0:0,0:0:0:0:
426,195,81429,2,0,L|427:236,1,42,2|10,0:0|0:0,0:0:0:0:
322,297,81729,6,0,L|320:358,2,56,2|2|2,1:0|0:0|0:0,0:0:0:0:
244,267,82329,2,0,L|242:328,2,56,10|2|2,0:0|0:0|0:0,0:0:0:0:
166,238,82929,2,0,L|164:299,2,56,2|2|2,1:0|0:0|0:0,0:0:0:0:
87,211,83529,6,0,P|81:163|92:114,1,94.499997116089,10|8,0:0|0:0,0:0:0:0:
104,89,84129,2,0,L|105:54,2,31.4999990386963,0|8|0,1:0|0:0|1:0,0:0:0:0:
233,125,84729,1,8,0:0:0:0:
360,80,85029,2,0,L|399:78,1,31.4999990386963,0|8,0:0|0:0,0:0:0:0:
469,73,85329,5,0,1:0:0:0:
256,192,85479,12,4,88329,0:0:0:0:
