osu file format v14

[General]
AudioFilename: audio.mp3
AudioLeadIn: 0
PreviewTime: 30054
Countdown: 0
SampleSet: Soft
StackLeniency: 0.5
Mode: 0
LetterboxInBreaks: 0
WidescreenStoryboard: 1

[Editor]
Bookmarks: 729,15729,32529,51729,70929
DistanceSpacing: 1
BeatDivisor: 2
GridSize: 16
TimelineZoom: 0.8

[Metadata]
Title:STYX HELIX (TV Size)
TitleUnicode:STYX HELIX (TV Size)
Artist:MYTH & ROID
ArtistUnicode:MYTH & ROID
Creator:fieryrage
Version:H311-ffy's normal
Source:Re:ゼロから始める異世界生活
Tags:re:zero kara hajimeru isekai seikatsu rezero starting life in another world different from zero directors director's cut remix japanese english anime ed ending and noffy h-3110 n1doking ney fizz mayflower
BeatmapID:2316253
BeatmapSetID:1103179

[Difficulty]
HPDrainRate:3
CircleSize:3.5
OverallDifficulty:4
ApproachRate:5
SliderMultiplier:1.7
SliderTickRate:1

[Events]
//Background and Video events
0,0,"emilia sucks and if you like emilia you should feel bad.jpg",0,0
//Break Periods
2,30129,31329
//Storyboard Layer 0 (Background)
//Storyboard Layer 1 (Fail)
//Storyboard Layer 2 (Pass)
//Storyboard Layer 3 (Foreground)
//Storyboard Layer 4 (Overlay)
//Storyboard Sound Samples

[TimingPoints]
729,600,4,2,1,30,1,0
729,-133.333333333333,4,2,1,30,0,0
1329,600,4,2,1,35,1,0
1329,-133.333333333333,4,2,1,35,0,0
10929,-133.333333333333,4,2,1,40,0,0
20529,-133.333333333333,4,2,1,45,0,0
21429,-133.333333333333,4,2,1,35,0,0
21729,-133.333333333333,4,2,1,45,0,0
22629,-133.333333333333,4,2,1,25,0,0
22929,545.454545454546,4,2,1,45,1,0
22929,-133.333333333333,4,2,1,45,0,0
23229,-133.333333333333,4,2,1,40,0,0
23474,705.882352941176,4,2,1,40,1,0
23474,-128.205128205128,4,2,1,40,0,0
23826,652.173913043478,4,2,1,45,1,0
23826,-133.333333333333,4,2,1,45,0,0
23829,-133.333333333333,4,2,1,45,0,0
24152,631.578947368421,4,2,1,50,1,0
24152,-133.333333333333,4,2,1,50,0,0
24429,-133.333333333333,4,2,1,40,0,0
24783,546.697038724374,4,2,1,40,1,0
24783,-133.333333333333,4,2,1,40,0,0
25329,600,4,2,1,50,1,0
25329,-133.333333333333,4,2,1,50,0,0
25629,-133.333333333333,4,2,1,35,0,0
26529,-133.333333333333,4,2,1,50,0,0
26829,-133.333333333333,4,2,1,35,0,0
27729,-133.333333333333,4,2,1,50,0,0
28029,-133.333333333333,4,2,1,35,0,0
28929,-133.333333333333,4,2,1,50,0,0
29229,-133.333333333333,4,2,1,35,0,0
30129,-133.333333333333,4,2,1,20,0,0
31629,-133.333333333333,4,2,1,40,0,0
32529,-100,4,2,2,65,0,1
47529,-100,4,2,99,65,0,1
47679,-100,4,2,2,65,0,1
49929,-100,4,2,99,65,0,1
50079,-100,4,2,2,65,0,1
66729,-100,4,2,99,65,0,1
66879,-100,4,2,2,65,0,1
69129,-100,4,2,99,65,0,1
69279,-100,4,2,2,65,0,1
70929,-133.333333333333,4,2,3,65,0,0
71829,-133.333333333333,4,2,3,60,0,0
72879,-133.333333333333,4,2,3,55,0,0
73329,-133.333333333333,4,2,3,50,0,0
74229,-133.333333333333,4,2,3,45,0,0
78129,-133.333333333333,4,2,3,50,0,0
78729,-133.333333333333,4,2,3,55,0,0
79329,-133.333333333333,4,2,3,60,0,0
79929,-133.333333333333,4,2,3,65,0,0
80529,-133.333333333333,4,2,4,40,0,0
82329,-133.333333333333,4,2,4,45,0,0
82529,-133.333333333333,4,2,4,40,0,0
82729,-133.333333333333,4,2,4,35,0,0
82929,-133.333333333333,4,2,4,45,0,0
83129,-133.333333333333,4,2,4,35,0,0
83329,-133.333333333333,4,2,4,45,0,0
83529,-133.333333333333,4,2,4,35,0,0
85329,-133.333333333333,4,2,4,30,0,0
85929,-133.333333333333,4,2,4,25,0,0
86529,-133.333333333333,4,2,4,20,0,0
87129,-133.333333333333,4,2,4,15,0,0
87729,-133.333333333333,4,2,4,10,0,0
88329,-133.333333333333,4,2,1,5,0,0

[Colours]
Combo1 : 226,213,137
Combo2 : 109,164,192
Combo3 : 211,67,78
Combo4 : 204,165,136
Combo5 : 115,109,108
Combo6 : 173,207,122

[HitObjects]
142,275,729,5,2,0:0:0:0:
142,275,1329,6,0,P|201:256|259:280,1,127.500004863739,6|0,0:0|0:0,0:0:0:0:
324,321,2229,1,2,0:0:0:0:
338,245,2529,1,2,0:0:0:0:
464,159,3129,2,0,L|475:243,1,63.7500024318696,2|0,0:0|0:0,0:0:0:0:
476,298,3729,6,0,P|420:317|356:290,1,127.500004863739,6|0,0:0|0:0,0:0:0:0:
300,242,4629,1,2,0:0:0:0:
286,166,4929,1,2,0:0:0:0:
160,80,5529,2,0,L|149:164,1,63.7500024318696,2|0,0:0|0:0,0:0:0:0:
103,202,6129,6,0,B|116:260|67:269|87:325,1,127.500004863739,6|0,0:0|0:0,0:0:0:0:
157,355,7029,1,2,0:0:0:0:
233,348,7329,2,0,B|253:292|204:283|219:215,1,127.500004863739,2|0,0:0|0:0,0:0:0:0:
248,154,8229,1,2,0:0:0:0:
322,135,8529,2,0,B|335:193|286:202|306:258,1,127.500004863739,2|0,0:0|0:0,0:0:0:0:
365,305,9429,1,2,0:0:0:0:
425,257,9729,1,2,0:0:0:0:
444,105,10329,1,2,0:0:0:0:
444,105,10929,6,0,P|388:86|324:113,1,127.500004863739,6|0,0:0|0:0,0:0:0:0:
272,163,11829,1,2,0:0:0:0:
263,239,12129,1,2,0:0:0:0:
154,347,12729,2,0,L|141:279,1,63.7500024318696,2|0,0:0|0:0,0:0:0:0:
67,269,13329,6,0,P|42:211|61:151,1,127.500004863739,6|0,0:0|0:0,0:0:0:0:
111,94,14229,1,2,0:0:0:0:
175,53,14529,1,2,0:0:0:0:
287,156,15129,2,0,P|257:179|213:190,1,63.7500024318696,2|0,0:0|0:0,0:0:0:0:
187,248,15729,2,0,P|78:209|90:88,1,255.000009727478,6|0,0:0|0:0,0:0:0:0:
319,79,17829,6,0,L|343:17,2,63.7500024318696,2|2|2,0:0|0:0|0:0,0:0:0:0:
303,153,18729,1,2,0:0:0:0:
372,187,19029,1,2,0:0:0:0:
365,262,19329,1,2,0:0:0:0:
482,360,19929,2,0,B|516:292|516:292|503:216,1,127.500004863739,2|12,0:0|0:0,0:0:0:0:
360,64,21429,5,2,0:0:0:0:
310,122,21729,1,8,0:0:0:0:
80,122,22629,1,2,0:0:0:0:
114,191,22929,1,8,0:0:0:0:
255,248,23474,2,0,P|274:311|348:324,1,127.500004863739,2|2,0:0|0:0,0:0:0:0:
424,235,24783,1,2,0:0:0:0:
348,124,25329,2,0,P|274:150|148:130,1,191.250007295609,14|2,0:0|0:0,0:0:0:0:
158,60,26529,2,0,P|235:35|343:46,1,191.250007295609,14|2,0:0|0:0,0:0:0:0:
390,108,27729,2,0,B|425:186|410:252|300:317,1,255.000009727478,14|6,0:0|0:0,0:0:0:0:
381,316,32529,6,0,P|361:273|364:224,1,85,6|0,3:0|0:0,0:0:0:0:
419,173,33129,2,0,P|439:209|442:252,1,85,2|0,1:0|0:0,0:0:0:0:
381,316,33729,2,0,B|312:325|312:325|200:301,1,170,2|2,3:0|1:0,0:0:0:0:
129,291,34629,1,2,0:0:0:0:
47,266,34929,6,0,P|42:219|15:178,1,85,2|0,3:0|0:0,0:0:0:0:
96,142,35529,2,0,P|96:99|115:62,1,85,2|0,1:0|0:0,0:0:0:0:
179,117,36129,2,0,P|253:94|354:125,1,170,2|0,3:0|1:0,0:0:0:0:
413,159,37029,5,2,0:0:0:0:
394,241,37329,1,2,3:0:0:0:
418,321,37629,1,2,0:0:0:0:
495,178,38229,5,2,0:0:0:0:
413,159,38529,1,2,3:0:0:0:
333,183,38829,1,0,3:0:0:0:
167,223,39429,6,0,P|229:127|207:73,1,170,2|2,0:0|0:0,0:0:0:0:
147,29,40329,1,4,1:0:0:0:
62,29,40629,1,2,0:0:0:0:
15,100,40929,2,0,P|18:142|38:179,1,85,2|0,3:0|3:0,0:0:0:0:
98,118,41529,2,0,B|167:109|167:109|279:133,1,170,6|6,1:0|3:0,0:0:0:0:
310,202,42429,5,2,0:0:0:0:
351,276,42729,1,2,1:0:0:0:
194,346,43329,1,2,3:0:0:0:
235,272,43629,1,2,3:2:0:0:
318,125,44229,1,2,0:0:0:0:
359,199,44529,2,0,P|316:206|264:188,2,85,2|2|2,3:0|0:0|1:0,0:0:0:0:
467,67,45729,5,2,3:0:0:0:
506,188,46179,1,0,0:0:0:0:
465,308,46629,1,2,0:0:0:0:
389,269,46929,2,0,B|267:217|265:316|128:256,1,255,2|0,3:0|0:0,0:0:0:0:
65,221,48129,2,0,P|50:272|21:306,2,85,2|0|0,3:0|3:0|1:0,0:0:0:0:
41,139,49029,5,2,0:0:0:0:
98,76,49329,2,0,B|222:21|224:120|345:68,1,255,2|0,3:0|0:0,0:0:0:0:
469,9,50829,1,2,3:2:0:0:
501,87,51129,1,2,1:0:0:0:
475,168,51429,1,2,0:0:0:0:
394,195,51729,6,0,P|352:200|311:187,1,85,6|0,3:0|0:0,0:0:0:0:
321,102,52329,2,0,P|281:87|239:90,1,85,2|0,1:0|0:0,0:0:0:0:
154,95,52929,2,0,B|118:173|118:173|159:276,1,170,2|2,3:0|1:0,0:0:0:0:
233,253,53829,1,2,0:0:0:0:
317,252,54129,6,0,P|364:248|410:235,1,85,2|0,3:0|0:0,0:0:0:0:
462,180,54729,2,0,P|473:126|468:69,1,85,2|0,1:0|0:0,0:0:0:0:
405,43,55329,2,0,B|297:43|297:43|233:99,1,170,2|0,3:0|1:0,0:0:0:0:
268,166,56229,5,2,0:0:0:0:
233,243,56529,1,2,3:0:0:0:
159,286,56829,1,2,0:0:0:0:
21,186,57429,5,2,0:0:0:0:
56,109,57729,1,2,3:0:0:0:
130,68,58029,1,2,3:2:0:0:
267,168,58629,6,0,B|308:208|308:208|353:324,1,170,2|2,0:0|0:0,0:0:0:0:
434,306,59529,1,4,1:0:0:0:
490,242,59829,1,2,0:0:0:0:
491,157,60129,2,0,P|456:127|419:110,1,85,2|0,3:0|3:0,0:0:0:0:
338,88,60729,2,0,B|255:70|173:131,1,170,6|6,1:0|3:0,0:0:0:0:
89,272,61929,6,0,P|142:328|266:360,1,170,2|2,1:0|3:0,0:0:0:0:
239,189,63129,1,2,1:0:0:0:
247,19,63729,2,0,P|326:46|385:106,1,170,2|0,3:0|1:0,0:0:0:0:
506,226,64929,5,2,3:0:0:0:
426,325,65379,1,0,0:0:0:0:
315,261,65829,1,2,0:0:0:0:
345,181,66129,2,0,B|223:129|221:228|84:168,1,255,2|2,3:0|0:0,0:0:0:0:
42,107,67329,1,2,3:0:0:0:
83,358,68229,5,2,0:0:0:0:
148,303,68529,2,0,B|272:248|274:347|395:295,1,255,2|0,3:0|0:0,0:0:0:0:
452,232,69729,1,2,3:0:0:0:
256,192,70929,12,2,72729,1:3:0:0:
441,112,73329,6,0,B|411:111|387:140|387:140|355:121|313:136,1,127.500004863739,2|0,3:3|1:0,0:0:0:0:
310,285,74529,2,0,P|345:297|380:293,2,63.7500024318696,2|2|0,3:3|3:1|1:0,0:0:0:0:
250,236,75429,1,10,0:1:0:0:
179,206,75729,6,0,B|148:194|116:213|116:213|92:184|62:185,1,127.500004863739,2|2,3:3|1:3,0:0:0:0:
15,331,76929,1,2,3:3:0:0:
82,366,77229,1,2,3:1:0:0:
158,364,77529,2,0,P|188:353|212:333,1,63.7500024318696,2|2,1:3|0:1,0:0:0:0:
249,266,78129,6,0,P|309:249|381:273,1,127.500004863739,6|6,3:2|1:2,0:0:0:0:
470,150,79329,2,0,P|409:166|348:149,1,127.500004863739,6|6,3:2|1:2,0:0:0:0:
214,77,80529,6,0,B|239:168|170:179|208:266,1,191.250007295609,6|2,1:2|0:0,0:0:0:0:
279,212,81729,2,0,B|167:250|164:175|63:209,1,212.500008106232,2|2,1:0|0:0,0:0:0:0:
30,236,82929,2,0,P|21:290|54:338,1,85.0000032424928,2|2,1:0|0:0,0:0:0:0:
