osu file format v14

[General]
AudioFilename: audio.ogg
AudioLeadIn: 0
PreviewTime: 52957
Countdown: 0
SampleSet: Normal
StackLeniency: 0.7
Mode: 3
LetterboxInBreaks: 0
SpecialStyle: 0
WidescreenStoryboard: 1

[Editor]
DistanceSpacing: 0.8
BeatDivisor: 16
GridSize: 8
TimelineZoom: 1.6

[Metadata]
Title:STYX HELIX (TV Size)
TitleUnicode:STYX HELIX (TV Size)
Artist:MYTH & ROID
ArtistUnicode:MYTH & ROID
Creator:Sm7sh
Version:Wint's Insane
Source:Re:ゼロから始める異世界生活
Tags:re:zero kara hajimeru isekai seikatsu life in a different world from zero KADOKAWA White Fox WintMin Ending ED ZMCZ-10605 anime japanese
BeatmapID:3996992
BeatmapSetID:1933843

[Difficulty]
HPDrainRate:7.4
CircleSize:4
OverallDifficulty:6.9
ApproachRate:5
SliderMultiplier:1.4
SliderTickRate:1

[Events]
//Background and Video events
0,0,"bg.jpg",0,0
//Break Periods
//Storyboard Layer 0 (Background)
//Storyboard Layer 1 (Fail)
//Storyboard Layer 2 (Pass)
//Storyboard Layer 3 (Foreground)
//Storyboard Layer 4 (Overlay)
//Storyboard Sound Samples

[TimingPoints]
1122,487.80487804878,4,1,1,20,1,0
53804,-100,4,1,1,20,0,1
85024,-100,4,1,1,20,0,0

[HitObjects]
320,192,1122,5,0,0:0:0:0:
448,192,1122,1,0,0:0:0:0:
192,192,1365,1,0,0:0:0:0:
320,192,1487,1,0,0:0:0:0:
448,192,1609,1,0,0:0:0:0:
64,192,1609,1,0,0:0:0:0:
192,192,1731,1,0,0:0:0:0:
320,192,1853,1,0,0:0:0:0:
192,192,1975,1,0,0:0:0:0:
64,192,1975,1,0,0:0:0:0:
192,192,2097,1,0,0:0:0:0:
448,192,2219,1,0,0:0:0:0:
320,192,2219,1,0,0:0:0:0:
320,192,2341,1,0,0:0:0:0:
64,192,2463,1,0,0:0:0:0:
448,192,2463,1,0,0:0:0:0:
192,192,2585,1,0,0:0:0:0:
320,192,2707,1,0,0:0:0:0:
448,192,2707,1,0,0:0:0:0:
64,192,2829,1,0,0:0:0:0:
320,192,2951,1,0,0:0:0:0:
64,192,3073,1,0,0:0:0:0:
192,192,3073,1,0,0:0:0:0:
320,192,3317,1,0,0:0:0:0:
192,192,3439,1,0,0:0:0:0:
448,192,3561,1,0,0:0:0:0:
64,192,3561,1,0,0:0:0:0:
320,192,3682,1,0,0:0:0:0:
192,192,3804,1,0,0:0:0:0:
448,192,3926,1,0,0:0:0:0:
320,192,3926,1,0,0:0:0:0:
320,192,4048,1,0,0:0:0:0:
64,192,4170,1,0,0:0:0:0:
192,192,4170,1,0,0:0:0:0:
192,192,4292,1,0,0:0:0:0:
64,192,4414,1,0,0:0:0:0:
448,192,4414,1,0,0:0:0:0:
320,192,4536,1,0,0:0:0:0:
192,192,4658,1,0,0:0:0:0:
64,192,4658,1,0,0:0:0:0:
448,192,4780,1,0,0:0:0:0:
192,192,4902,1,0,0:0:0:0:
448,192,5024,1,0,0:0:0:0:
320,192,5024,1,0,0:0:0:0:
64,192,5146,1,0,0:0:0:0:
320,192,5268,1,0,0:0:0:0:
192,192,5390,1,0,0:0:0:0:
448,192,5512,1,0,0:0:0:0:
64,192,5512,1,0,0:0:0:0:
320,192,5634,1,0,0:0:0:0:
192,192,5756,1,0,0:0:0:0:
448,192,5878,1,0,0:0:0:0:
320,192,5878,1,0,0:0:0:0:
320,192,6000,1,0,0:0:0:0:
192,192,6121,1,0,0:0:0:0:
64,192,6121,1,0,0:0:0:0:
192,192,6243,1,0,0:0:0:0:
448,192,6365,1,0,0:0:0:0:
64,192,6365,1,0,0:0:0:0:
320,192,6487,1,0,0:0:0:0:
192,192,6609,1,0,0:0:0:0:
64,192,6609,1,0,0:0:0:0:
448,192,6731,1,0,0:0:0:0:
192,192,6853,1,0,0:0:0:0:
448,192,6975,1,0,0:0:0:0:
64,192,6975,1,0,0:0:0:0:
448,192,7219,1,0,0:0:0:0:
320,192,7341,1,0,0:0:0:0:
192,192,7463,1,0,0:0:0:0:
64,192,7463,1,0,0:0:0:0:
320,192,7585,1,0,0:0:0:0:
192,192,7707,1,0,0:0:0:0:
448,192,7829,1,0,0:0:0:0:
64,192,7829,1,0,0:0:0:0:
320,192,7951,1,0,0:0:0:0:
64,192,8073,1,0,0:0:0:0:
320,192,8195,1,0,0:0:0:0:
448,192,8317,1,0,0:0:0:0:
192,192,8317,1,0,0:0:0:0:
64,192,8439,1,0,0:0:0:0:
448,192,8561,1,0,0:0:0:0:
320,192,8561,1,0,0:0:0:0:
192,192,8682,1,0,0:0:0:0:
64,192,8682,1,0,0:0:0:0:
320,192,8926,128,0,10065:0:0:0:0:
192,192,8926,128,0,10065:0:0:0:0:
64,192,10065,128,0,10227:0:0:0:0:
320,192,10349,1,0,0:0:0:0:
448,192,10390,128,0,10552:0:0:0:0:
192,192,10634,128,0,10796:0:0:0:0:
64,192,10715,128,0,10878:0:0:0:0:
192,192,10878,128,0,11121:0:0:0:0:
320,192,10878,128,0,11000:0:0:0:0:
448,192,10878,1,0,0:0:0:0:
320,192,11121,128,0,11284:0:0:0:0:
192,192,11365,1,0,0:0:0:0:
64,192,11365,128,0,11487:0:0:0:0:
192,192,11487,128,0,11609:0:0:0:0:
448,192,11609,1,0,0:0:0:0:
320,192,11731,1,0,0:0:0:0:
192,192,11853,128,0,12036:0:0:0:0:
64,192,11853,1,0,0:0:0:0:
320,192,11975,128,0,12097:0:0:0:0:
448,192,12097,1,0,0:0:0:0:
64,192,12219,1,0,0:0:0:0:
192,192,12341,128,0,12463:0:0:0:0:
320,192,12402,128,0,12524:0:0:0:0:
448,192,12463,128,0,12585:0:0:0:0:
192,192,12585,1,0,0:0:0:0:
64,192,12585,128,0,12707:0:0:0:0:
448,192,12707,1,0,0:0:0:0:
320,192,12829,128,0,13073:0:0:0:0:
192,192,12829,1,0,0:0:0:0:
192,192,12951,128,0,13195:0:0:0:0:
448,192,13073,1,0,0:0:0:0:
64,192,13317,128,0,13479:0:0:0:0:
192,192,13317,128,0,13398:0:0:0:0:
192,192,13479,128,0,13682:0:0:0:0:
448,192,13561,1,0,0:0:0:0:
448,192,13804,1,0,0:0:0:0:
320,192,13804,128,0,13987:0:0:0:0:
192,192,13926,128,0,14048:0:0:0:0:
64,192,14048,1,0,0:0:0:0:
448,192,14130,128,0,14292:0:0:0:0:
320,192,14292,1,0,0:0:0:0:
192,192,14292,128,0,14414:0:0:0:0:
64,192,14414,128,0,14536:0:0:0:0:
448,192,14536,1,0,0:0:0:0:
320,192,14536,128,0,14658:0:0:0:0:
192,192,14658,128,0,14780:0:0:0:0:
320,192,14780,1,0,0:0:0:0:
448,192,14780,1,0,0:0:0:0:
320,192,14902,1,0,0:0:0:0:
192,192,15024,1,0,0:0:0:0:
64,192,15024,1,0,0:0:0:0:
192,192,15146,1,0,0:0:0:0:
64,192,15268,128,0,15430:0:0:0:0:
320,192,15268,128,0,15573:0:0:0:0:
192,192,15512,128,0,15634:0:0:0:0:
448,192,15512,1,0,0:0:0:0:
64,192,15634,1,0,0:0:0:0:
448,192,15756,1,0,0:0:0:0:
320,192,15756,1,0,0:0:0:0:
320,192,15878,1,0,0:0:0:0:
192,192,16000,1,0,0:0:0:0:
64,192,16000,1,0,0:0:0:0:
192,192,16121,1,0,0:0:0:0:
448,192,16243,128,0,16487:0:0:0:0:
320,192,16243,128,0,16406:0:0:0:0:
192,192,16487,1,0,0:0:0:0:
320,192,16609,1,0,0:0:0:0:
64,192,16731,1,0,0:0:0:0:
192,192,16731,1,0,0:0:0:0:
192,192,16853,1,0,0:0:0:0:
320,192,16975,1,0,0:0:0:0:
448,192,16975,1,0,0:0:0:0:
320,192,17097,1,0,0:0:0:0:
448,192,17219,128,0,17585:0:0:0:0:
64,192,17219,128,0,17463:0:0:0:0:
320,192,17463,128,0,17707:0:0:0:0:
192,192,17585,128,0,17707:0:0:0:0:
64,192,17707,1,0,0:0:0:0:
448,192,17707,1,0,0:0:0:0:
64,192,17829,1,0,0:0:0:0:
192,192,17951,128,0,18195:0:0:0:0:
320,192,17951,128,0,18073:0:0:0:0:
320,192,18195,128,0,18317:0:0:0:0:
64,192,18195,1,0,0:0:0:0:
448,192,18276,128,0,18439:0:0:0:0:
64,192,18439,128,0,18682:0:0:0:0:
192,192,18439,128,0,18561:0:0:0:0:
192,192,18682,1,0,0:0:0:0:
320,192,18682,128,0,18804:0:0:0:0:
448,192,18682,128,0,18926:0:0:0:0:
192,192,18926,1,0,0:0:0:0:
64,192,19048,1,0,0:0:0:0:
192,192,19170,128,0,19333:0:0:0:0:
320,192,19170,128,0,19252:0:0:0:0:
320,192,19333,128,0,19495:0:0:0:0:
64,192,19414,1,0,0:0:0:0:
192,192,19536,1,0,0:0:0:0:
320,192,19658,128,0,19841:0:0:0:0:
448,192,19658,1,0,0:0:0:0:
192,192,19780,128,0,19902:0:0:0:0:
64,192,19902,1,0,0:0:0:0:
320,192,20024,1,0,0:0:0:0:
192,192,20146,128,0,20329:0:0:0:0:
448,192,20146,1,0,0:0:0:0:
320,192,20268,128,0,20390:0:0:0:0:
448,192,20390,128,0,20573:0:0:0:0:
64,192,20390,1,0,0:0:0:0:
320,192,20512,128,0,20634:0:0:0:0:
64,192,20634,128,0,20878:0:0:0:0:
192,192,20634,128,0,20756:0:0:0:0:
192,192,20878,128,0,21000:0:0:0:0:
448,192,20878,1,0,0:0:0:0:
320,192,21121,128,0,21243:0:0:0:0:
448,192,21121,1,0,0:0:0:0:
192,192,21203,128,0,21325:0:0:0:0:
64,192,21284,128,0,21609:0:0:0:0:
320,192,21365,1,0,0:0:0:0:
320,192,21609,128,0,22097:0:0:0:0:
448,192,21609,1,0,0:0:0:0:
448,192,21731,1,0,0:0:0:0:
192,192,21853,1,0,0:0:0:0:
192,192,21975,128,0,22097:0:0:0:0:
448,192,22097,1,0,0:0:0:0:
64,192,22097,1,0,0:0:0:0:
448,192,22219,1,0,0:0:0:0:
320,192,22341,1,0,0:0:0:0:
192,192,22341,1,0,0:0:0:0:
320,192,22463,1,0,0:0:0:0:
192,192,22585,5,0,0:0:0:0:
64,192,22585,128,0,22951:0:0:0:0:
192,192,22707,1,0,0:0:0:0:
448,192,22829,1,0,0:0:0:0:
320,192,22951,1,0,0:0:0:0:
448,192,23073,1,0,0:0:0:0:
192,192,23073,1,0,0:0:0:0:
64,192,23073,128,0,23439:0:0:0:0:
192,192,23195,1,0,0:0:0:0:
448,192,23317,1,0,0:0:0:0:
192,192,23439,1,0,0:0:0:0:
320,192,23561,1,0,0:0:0:0:
448,192,23561,128,0,23926:0:0:0:0:
320,192,23682,1,0,0:0:0:0:
64,192,23804,1,0,0:0:0:0:
192,192,23926,1,0,0:0:0:0:
64,192,24048,1,0,0:0:0:0:
320,192,24048,1,0,0:0:0:0:
448,192,24048,128,0,24414:0:0:0:0:
320,192,24170,1,0,0:0:0:0:
64,192,24292,1,0,0:0:0:0:
320,192,24414,5,0,0:0:0:0:
192,192,24536,5,0,0:0:0:0:
64,192,24536,128,0,24902:0:0:0:0:
192,192,24658,1,0,0:0:0:0:
448,192,24780,1,0,0:0:0:0:
320,192,24902,1,0,0:0:0:0:
448,192,25024,1,0,0:0:0:0:
192,192,25024,1,0,0:0:0:0:
64,192,25024,128,0,25390:0:0:0:0:
192,192,25146,1,0,0:0:0:0:
448,192,25268,1,0,0:0:0:0:
192,192,25390,1,0,0:0:0:0:
448,192,25512,128,0,25634:0:0:0:0:
320,192,25512,1,0,0:0:0:0:
64,192,25634,1,0,0:0:0:0:
448,192,25756,128,0,25878:0:0:0:0:
192,192,25756,1,0,0:0:0:0:
320,192,25878,1,0,0:0:0:0:
64,192,26000,128,0,26121:0:0:0:0:
192,192,26000,1,0,0:0:0:0:
448,192,26121,1,0,0:0:0:0:
64,192,26243,128,0,26365:0:0:0:0:
320,192,26243,1,0,0:0:0:0:
192,192,26365,1,0,0:0:0:0:
448,192,26487,128,0,26609:0:0:0:0:
320,192,26487,1,0,0:0:0:0:
64,192,26609,1,0,0:0:0:0:
448,192,26731,128,0,26853:0:0:0:0:
192,192,26731,1,0,0:0:0:0:
320,192,26853,1,0,0:0:0:0:
64,192,26975,128,0,27097:0:0:0:0:
192,192,26975,1,0,0:0:0:0:
448,192,27097,1,0,0:0:0:0:
320,192,27219,1,0,0:0:0:0:
64,192,27219,128,0,27341:0:0:0:0:
192,192,27341,1,0,0:0:0:0:
448,192,27463,128,0,27585:0:0:0:0:
320,192,27463,1,0,0:0:0:0:
64,192,27585,1,0,0:0:0:0:
192,192,27707,1,0,0:0:0:0:
448,192,27707,128,0,27829:0:0:0:0:
320,192,27829,1,0,0:0:0:0:
192,192,27890,128,0,28012:0:0:0:0:
64,192,27951,128,0,28073:0:0:0:0:
448,192,27951,1,0,0:0:0:0:
320,192,28073,1,0,0:0:0:0:
64,192,28195,128,0,28317:0:0:0:0:
448,192,28195,1,0,0:0:0:0:
192,192,28317,1,0,0:0:0:0:
448,192,28439,128,0,28682:0:0:0:0:
64,192,28439,128,0,28561:0:0:0:0:
320,192,29170,128,0,29292:0:0:0:0:
448,192,29414,128,0,29536:0:0:0:0:
192,192,29414,128,0,29658:0:0:0:0:
448,192,29658,128,0,29739:0:0:0:0:
64,192,29902,128,0,30207:0:0:0:0:
320,192,30390,128,0,30634:0:0:0:0:
192,192,30390,128,0,30552:0:0:0:0:
192,192,30634,128,0,30878:0:0:0:0:
320,192,31081,128,0,31243:0:0:0:0:
192,192,31365,128,0,31548:0:0:0:0:
448,192,31609,1,0,0:0:0:0:
320,192,31813,128,0,32016:0:0:0:0:
64,192,31853,128,0,32016:0:0:0:0:
448,192,32138,1,0,0:0:0:0:
192,192,32300,128,0,32504:0:0:0:0:
64,192,32341,128,0,32829:0:0:0:0:
320,192,32585,1,0,0:0:0:0:
448,192,32829,1,0,0:0:0:0:
448,192,33046,128,0,33154:0:0:0:0:
192,192,33195,128,0,33276:0:0:0:0:
320,192,33317,128,0,33520:0:0:0:0:
192,192,34008,128,0,34130:0:0:0:0:
64,192,34109,128,0,34231:0:0:0:0:
192,192,34292,128,0,34536:0:0:0:0:
448,192,34333,1,0,0:0:0:0:
320,192,35024,128,0,35105:0:0:0:0:
192,192,35146,128,0,35268:0:0:0:0:
64,192,35268,128,0,35430:0:0:0:0:
448,192,35268,128,0,35430:0:0:0:0:
448,192,35512,128,0,35593:0:0:0:0:
448,192,35674,1,0,0:0:0:0:
192,192,35756,128,0,36000:0:0:0:0:
320,192,36243,128,0,36365:0:0:0:0:
448,192,36243,128,0,36487:0:0:0:0:
192,192,36731,1,0,0:0:0:0:
64,192,36975,128,0,37097:0:0:0:0:
320,192,36975,128,0,37097:0:0:0:0:
192,192,37219,128,0,37463:0:0:0:0:
320,192,37341,128,0,37463:0:0:0:0:
448,192,37341,1,0,0:0:0:0:
64,192,37463,1,0,0:0:0:0:
320,192,37585,1,0,0:0:0:0:
192,192,37707,128,0,38012:0:0:0:0:
448,192,37951,1,0,0:0:0:0:
64,192,37951,128,0,38073:0:0:0:0:
320,192,38073,1,0,0:0:0:0:
320,192,38195,128,0,38357:0:0:0:0:
192,192,38195,128,0,38439:0:0:0:0:
320,192,38439,128,0,38642:0:0:0:0:
192,192,38682,1,0,0:0:0:0:
64,192,38926,128,0,39130:0:0:0:0:
448,192,39170,1,0,0:0:0:0:
192,192,39292,1,0,0:0:0:0:
64,192,39292,1,0,0:0:0:0:
320,192,39414,1,0,0:0:0:0:
64,192,39536,1,0,0:0:0:0:
448,192,39658,128,0,39902:0:0:0:0:
192,192,39902,1,0,0:0:0:0:
448,192,40024,128,0,40146:0:0:0:0:
192,192,40146,128,0,40634:0:0:0:0:
64,192,40146,128,0,40308:0:0:0:0:
320,192,40308,128,0,41000:0:0:0:0:
64,192,40634,1,0,0:0:0:0:
448,192,40878,1,0,0:0:0:0:
192,192,41000,128,0,41203:0:0:0:0:
320,192,41243,1,0,0:0:0:0:
64,192,41365,128,0,41609:0:0:0:0:
192,192,41487,128,0,41609:0:0:0:0:
448,192,41609,1,0,0:0:0:0:
448,192,41853,128,0,42097:0:0:0:0:
320,192,42097,128,0,42422:0:0:0:0:
64,192,42219,1,0,0:0:0:0:
192,192,42341,128,0,42504:0:0:0:0:
448,192,42585,128,0,42829:0:0:0:0:
320,192,42585,1,0,0:0:0:0:
64,192,42829,1,0,0:0:0:0:
192,192,42829,128,0,43073:0:0:0:0:
64,192,43073,128,0,43235:0:0:0:0:
448,192,43195,1,0,0:0:0:0:
192,192,43317,1,0,0:0:0:0:
320,192,43439,1,0,0:0:0:0:
192,192,43561,128,0,43723:0:0:0:0:
64,192,43561,1,0,0:0:0:0:
64,192,43804,128,0,43967:0:0:0:0:
320,192,44048,5,0,0:0:0:0:
320,192,44170,1,0,0:0:0:0:
192,192,44292,1,0,0:0:0:0:
192,192,44414,1,0,0:0:0:0:
448,192,44536,1,0,0:0:0:0:
64,192,44536,1,0,0:0:0:0:
64,192,44658,1,0,0:0:0:0:
448,192,44780,1,0,0:0:0:0:
448,192,44902,1,0,0:0:0:0:
192,192,45024,1,0,0:0:0:0:
192,192,45146,1,0,0:0:0:0:
320,192,45268,1,0,0:0:0:0:
320,192,45390,1,0,0:0:0:0:
64,192,45512,1,0,0:0:0:0:
448,192,45512,1,0,0:0:0:0:
64,192,45634,1,0,0:0:0:0:
448,192,45756,1,0,0:0:0:0:
448,192,45878,1,0,0:0:0:0:
192,192,46000,128,0,46243:0:0:0:0:
320,192,46000,1,0,0:0:0:0:
64,192,46487,1,0,0:0:0:0:
320,192,46487,128,0,46975:0:0:0:0:
448,192,46609,128,0,46975:0:0:0:0:
192,192,46975,128,0,47341:0:0:0:0:
64,192,47463,128,0,47788:0:0:0:0:
192,192,47585,128,0,47788:0:0:0:0:
448,192,47788,1,0,0:0:0:0:
192,192,47951,128,0,48317:0:0:0:0:
320,192,47951,128,0,48113:0:0:0:0:
64,192,48113,128,0,48804:0:0:0:0:
448,192,48439,1,0,0:0:0:0:
320,192,48682,128,0,48804:0:0:0:0:
192,192,48804,128,0,48926:0:0:0:0:
448,192,48926,128,0,49089:0:0:0:0:
320,192,48926,128,0,49292:0:0:0:0:
192,192,49089,128,0,49780:0:0:0:0:
448,192,49414,1,0,0:0:0:0:
448,192,49658,128,0,49780:0:0:0:0:
320,192,49780,128,0,49902:0:0:0:0:
64,192,49902,128,0,50065:0:0:0:0:
192,192,49902,128,0,50268:0:0:0:0:
320,192,50065,128,0,51365:0:0:0:0:
64,192,50390,1,0,0:0:0:0:
192,192,50634,1,0,0:0:0:0:
448,192,50756,1,0,0:0:0:0:
64,192,50878,1,0,0:0:0:0:
192,192,51121,1,0,0:0:0:0:
448,192,51365,128,0,51528:0:0:0:0:
64,192,51365,128,0,51731:0:0:0:0:
192,192,51731,1,0,0:0:0:0:
64,192,52991,128,0,53154:0:0:0:0:
320,192,53276,1,0,0:0:0:0:
448,192,53317,128,0,53479:0:0:0:0:
192,192,53561,128,0,53723:0:0:0:0:
64,192,53642,128,0,53804:0:0:0:0:
448,192,53804,1,0,0:0:0:0:
192,192,53804,128,0,54048:0:0:0:0:
320,192,53804,128,0,53926:0:0:0:0:
448,192,54048,128,0,54211:0:0:0:0:
192,192,54292,1,0,0:0:0:0:
64,192,54292,128,0,54414:0:0:0:0:
192,192,54414,128,0,54536:0:0:0:0:
448,192,54536,1,0,0:0:0:0:
320,192,54658,1,0,0:0:0:0:
192,192,54780,128,0,54963:0:0:0:0:
64,192,54780,1,0,0:0:0:0:
320,192,54902,128,0,55024:0:0:0:0:
448,192,55024,1,0,0:0:0:0:
64,192,55146,1,0,0:0:0:0:
192,192,55268,128,0,55390:0:0:0:0:
320,192,55329,128,0,55451:0:0:0:0:
448,192,55390,128,0,55512:0:0:0:0:
192,192,55512,1,0,0:0:0:0:
64,192,55512,128,0,55634:0:0:0:0:
448,192,55634,1,0,0:0:0:0:
192,192,55756,128,0,56000:0:0:0:0:
320,192,55756,1,0,0:0:0:0:
320,192,55878,128,0,56121:0:0:0:0:
64,192,56000,1,0,0:0:0:0:
64,192,56243,128,0,56406:0:0:0:0:
192,192,56243,128,0,56325:0:0:0:0:
192,192,56406,128,0,56609:0:0:0:0:
448,192,56487,1,0,0:0:0:0:
448,192,56731,1,0,0:0:0:0:
320,192,56731,128,0,56914:0:0:0:0:
192,192,56853,128,0,56975:0:0:0:0:
64,192,56975,1,0,0:0:0:0:
448,192,57056,128,0,57219:0:0:0:0:
192,192,57219,128,0,57341:0:0:0:0:
320,192,57219,1,0,0:0:0:0:
64,192,57341,128,0,57463:0:0:0:0:
448,192,57463,128,0,57646:0:0:0:0:
192,192,57463,1,0,0:0:0:0:
320,192,57585,128,0,57707:0:0:0:0:
64,192,57707,128,0,57951:0:0:0:0:
192,192,57707,128,0,57829:0:0:0:0:
320,192,57951,1,0,0:0:0:0:
320,192,58195,128,0,58357:0:0:0:0:
192,192,58195,128,0,58500:0:0:0:0:
448,192,58439,128,0,58621:0:0:0:0:
64,192,58439,128,0,58561:0:0:0:0:
320,192,58561,128,0,58682:0:0:0:0:
192,192,58682,128,0,58804:0:0:0:0:
64,192,58682,128,0,58926:0:0:0:0:
320,192,58926,128,0,59170:0:0:0:0:
448,192,59170,128,0,59414:0:0:0:0:
192,192,59170,128,0,59333:0:0:0:0:
64,192,59414,128,0,59658:0:0:0:0:
192,192,59536,128,0,59658:0:0:0:0:
448,192,59658,128,0,59780:0:0:0:0:
320,192,59658,128,0,59780:0:0:0:0:
192,192,59902,128,0,60024:0:0:0:0:
448,192,60146,128,0,60512:0:0:0:0:
64,192,60146,128,0,60390:0:0:0:0:
320,192,60390,128,0,60634:0:0:0:0:
192,192,60512,128,0,60634:0:0:0:0:
64,192,60634,128,0,60878:0:0:0:0:
448,192,60634,128,0,60878:0:0:0:0:
192,192,60878,128,0,61121:0:0:0:0:
320,192,60878,128,0,61000:0:0:0:0:
320,192,61121,128,0,61304:0:0:0:0:
448,192,61121,1,0,0:0:0:0:
192,192,61243,128,0,61365:0:0:0:0:
448,192,61365,1,0,0:0:0:0:
64,192,61487,128,0,61609:0:0:0:0:
192,192,61609,1,0,0:0:0:0:
320,192,61609,128,0,61731:0:0:0:0:
448,192,61609,128,0,61853:0:0:0:0:
64,192,61853,128,0,61975:0:0:0:0:
192,192,61975,1,0,0:0:0:0:
320,192,62097,128,0,62341:0:0:0:0:
448,192,62097,128,0,62219:0:0:0:0:
192,192,62341,128,0,62463:0:0:0:0:
64,192,62463,1,0,0:0:0:0:
448,192,62585,128,0,62707:0:0:0:0:
320,192,62585,128,0,62768:0:0:0:0:
192,192,62829,128,0,62991:0:0:0:0:
64,192,62829,1,0,0:0:0:0:
64,192,63073,128,0,63195:0:0:0:0:
320,192,63073,1,0,0:0:0:0:
448,192,63317,128,0,63500:0:0:0:0:
192,192,63317,1,0,0:0:0:0:
320,192,63439,128,0,63561:0:0:0:0:
64,192,63561,128,0,63804:0:0:0:0:
192,192,63561,128,0,63682:0:0:0:0:
192,192,63804,128,0,63926:0:0:0:0:
448,192,63804,1,0,0:0:0:0:
320,192,64048,128,0,64170:0:0:0:0:
448,192,64048,1,0,0:0:0:0:
192,192,64130,128,0,64252:0:0:0:0:
64,192,64211,128,0,64536:0:0:0:0:
320,192,64292,1,0,0:0:0:0:
448,192,64536,128,0,64658:0:0:0:0:
320,192,64536,128,0,64780:0:0:0:0:
64,192,64780,1,0,0:0:0:0:
192,192,64902,128,0,65024:0:0:0:0:
320,192,64902,128,0,65207:0:0:0:0:
64,192,65268,128,0,65451:0:0:0:0:
192,192,65390,128,0,65512:0:0:0:0:
448,192,65512,128,0,66487:0:0:0:0:
320,192,65512,1,0,0:0:0:0:
64,192,65756,1,0,0:0:0:0:
192,192,66000,1,0,0:0:0:0:
320,192,66000,1,0,0:0:0:0:
64,192,66243,1,0,0:0:0:0:
64,192,66487,1,0,0:0:0:0:
192,192,66487,1,0,0:0:0:0:
320,192,66609,1,0,0:0:0:0:
448,192,66731,128,0,66853:0:0:0:0:
192,192,66975,128,0,67097:0:0:0:0:
64,192,66975,1,0,0:0:0:0:
320,192,67219,128,0,67341:0:0:0:0:
64,192,67463,128,0,68195:0:0:0:0:
192,192,67463,128,0,67585:0:0:0:0:
192,192,67707,128,0,68317:0:0:0:0:
448,192,67951,1,0,0:0:0:0:
320,192,68195,1,0,0:0:0:0:
320,192,68439,1,0,0:0:0:0:
448,192,68439,1,0,0:0:0:0:
192,192,68561,1,0,0:0:0:0:
64,192,68682,128,0,68845:0:0:0:0:
448,192,68926,128,0,69089:0:0:0:0:
320,192,68926,1,0,0:0:0:0:
192,192,69170,128,0,69333:0:0:0:0:
64,192,69252,128,0,69414:0:0:0:0:
448,192,69414,128,0,69536:0:0:0:0:
320,192,69414,128,0,69658:0:0:0:0:
192,192,69658,1,0,0:0:0:0:
64,192,69902,128,0,70065:0:0:0:0:
192,192,69902,128,0,69983:0:0:0:0:
192,192,70065,128,0,70187:0:0:0:0:
448,192,70146,1,0,0:0:0:0:
320,192,70268,1,0,0:0:0:0:
64,192,70390,1,0,0:0:0:0:
192,192,70390,128,0,70573:0:0:0:0:
320,192,70512,128,0,70634:0:0:0:0:
448,192,70634,1,0,0:0:0:0:
448,192,70878,1,0,0:0:0:0:
64,192,70878,128,0,71000:0:0:0:0:
192,192,70939,128,0,71061:0:0:0:0:
320,192,71000,128,0,71121:0:0:0:0:
64,192,71121,1,0,0:0:0:0:
448,192,71121,128,0,71304:0:0:0:0:
320,192,71243,128,0,71365:0:0:0:0:
192,192,71365,128,0,71487:0:0:0:0:
64,192,71365,128,0,71609:0:0:0:0:
192,192,71609,128,0,71731:0:0:0:0:
448,192,71609,1,0,0:0:0:0:
448,192,71853,128,0,72016:0:0:0:0:
320,192,71853,128,0,71935:0:0:0:0:
320,192,72016,128,0,72219:0:0:0:0:
64,192,72097,1,0,0:0:0:0:
192,192,72341,128,0,72504:0:0:0:0:
64,192,72341,128,0,72666:0:0:0:0:
448,192,72585,1,0,0:0:0:0:
192,192,72585,128,0,72748:0:0:0:0:
448,192,72829,1,0,0:0:0:0:
320,192,72829,1,0,0:0:0:0:
448,192,73073,128,0,73256:0:0:0:0:
320,192,73195,128,0,73317:0:0:0:0:
64,192,73317,128,0,73561:0:0:0:0:
192,192,73317,128,0,73439:0:0:0:0:
448,192,73561,128,0,73804:0:0:0:0:
320,192,73804,128,0,73967:0:0:0:0:
192,192,73804,128,0,74109:0:0:0:0:
448,192,74048,128,0,74231:0:0:0:0:
64,192,74048,128,0,74170:0:0:0:0:
320,192,74170,128,0,74292:0:0:0:0:
64,192,74292,128,0,74414:0:0:0:0:
192,192,74292,128,0,74455:0:0:0:0:
64,192,74536,128,0,74780:0:0:0:0:
448,192,74780,128,0,75024:0:0:0:0:
320,192,74780,128,0,74943:0:0:0:0:
192,192,75024,128,0,75146:0:0:0:0:
64,192,75024,1,0,0:0:0:0:
320,192,75268,128,0,75512:0:0:0:0:
448,192,75268,1,0,0:0:0:0:
192,192,75512,128,0,75593:0:0:0:0:
448,192,75756,128,0,75918:0:0:0:0:
64,192,75756,128,0,76000:0:0:0:0:
320,192,75756,128,0,75837:0:0:0:0:
192,192,76000,128,0,76081:0:0:0:0:
320,192,76121,128,0,76203:0:0:0:0:
192,192,76243,128,0,76365:0:0:0:0:
64,192,76243,128,0,76609:0:0:0:0:
448,192,76487,1,0,0:0:0:0:
192,192,76609,128,0,76731:0:0:0:0:
320,192,76731,128,0,76975:0:0:0:0:
448,192,76853,128,0,77056:0:0:0:0:
64,192,76975,1,0,0:0:0:0:
192,192,77097,128,0,77219:0:0:0:0:
448,192,77219,1,0,0:0:0:0:
320,192,77219,1,0,0:0:0:0:
320,192,77463,1,0,0:0:0:0:
448,192,77707,128,0,78195:0:0:0:0:
192,192,77707,1,0,0:0:0:0:
64,192,77951,1,0,0:0:0:0:
320,192,78073,1,0,0:0:0:0:
64,192,78195,128,0,78500:0:0:0:0:
192,192,78195,1,0,0:0:0:0:
448,192,78439,1,0,0:0:0:0:
192,192,78500,128,0,78621:0:0:0:0:
64,192,78682,1,0,0:0:0:0:
320,192,78682,128,0,78926:0:0:0:0:
448,192,78804,128,0,79008:0:0:0:0:
192,192,78926,1,0,0:0:0:0:
64,192,79170,1,0,0:0:0:0:
320,192,79170,128,0,79292:0:0:0:0:
320,192,79414,128,0,79536:0:0:0:0:
448,192,79658,1,0,0:0:0:0:
64,192,79658,1,0,0:0:0:0:
192,192,79780,128,0,79902:0:0:0:0:
448,192,79902,1,0,0:0:0:0:
320,192,80024,128,0,80146:0:0:0:0:
64,192,80146,128,0,80512:0:0:0:0:
192,192,80146,1,0,0:0:0:0:
448,192,80390,1,0,0:0:0:0:
192,192,80512,128,0,80756:0:0:0:0:
320,192,80634,128,0,80878:0:0:0:0:
448,192,80634,1,0,0:0:0:0:
64,192,80878,1,0,0:0:0:0:
448,192,80878,128,0,81121:0:0:0:0:
64,192,81121,128,0,81609:0:0:0:0:
192,192,81121,1,0,0:0:0:0:
192,192,81365,128,0,81670:0:0:0:0:
320,192,81609,128,0,81731:0:0:0:0:
448,192,81609,1,0,0:0:0:0:
448,192,81853,1,0,0:0:0:0:
320,192,81975,1,0,0:0:0:0:
192,192,82097,128,0,82219:0:0:0:0:
64,192,82097,128,0,82463:0:0:0:0:
448,192,82341,1,0,0:0:0:0:
192,192,82341,128,0,82585:0:0:0:0:
448,192,82585,1,0,0:0:0:0:
320,192,82585,1,0,0:0:0:0:
320,192,82829,1,0,0:0:0:0:
64,192,82829,128,0,82951:0:0:0:0:
192,192,83073,1,0,0:0:0:0:
320,192,83073,128,0,83804:0:0:0:0:
448,192,83195,128,0,83926:0:0:0:0:
64,192,83317,1,0,0:0:0:0:
64,192,83561,1,0,0:0:0:0:
192,192,83804,1,0,0:0:0:0:
320,192,84048,1,0,0:0:0:0:
64,192,84048,128,0,84353:0:0:0:0:
192,192,84170,128,0,84536:0:0:0:0:
448,192,84292,1,0,0:0:0:0:
64,192,84536,1,0,0:0:0:0:
448,192,84536,1,0,0:0:0:0:
448,192,84780,128,0,84963:0:0:0:0:
320,192,84902,128,0,85024:0:0:0:0:
64,192,85024,128,0,86000:0:0:0:0:
192,192,85024,1,0,0:0:0:0:
320,192,85268,1,0,0:0:0:0:
192,192,85512,1,0,0:0:0:0:
448,192,85512,1,0,0:0:0:0:
192,192,85756,1,0,0:0:0:0:
320,192,86000,1,0,0:0:0:0:
448,192,86000,1,0,0:0:0:0:
320,192,86121,1,0,0:0:0:0:
192,192,86243,1,0,0:0:0:0:
192,192,86365,1,0,0:0:0:0:
320,192,86487,1,0,0:0:0:0:
448,192,86487,1,0,0:0:0:0:
448,192,86609,1,0,0:0:0:0:
64,192,86731,1,0,0:0:0:0:
64,192,86853,1,0,0:0:0:0:
320,192,86975,128,0,87097:0:0:0:0:
448,192,86975,128,0,87951:0:0:0:0:
192,192,87219,1,0,0:0:0:0:
64,192,87463,1,0,0:0:0:0:
320,192,87463,1,0,0:0:0:0:
320,192,87707,1,0,0:0:0:0:
192,192,87951,128,0,88073:0:0:0:0:
64,192,87951,128,0,88926:0:0:0:0:
320,192,88195,1,0,0:0:0:0:
448,192,88439,1,0,0:0:0:0:
320,192,88439,128,0,88926:0:0:0:0:
448,192,88682,128,0,88926:0:0:0:0:
192,192,88926,128,0,89170:0:0:0:0:
320,192,89048,128,0,89292:0:0:0:0:
448,192,89170,128,0,89333:0:0:0:0:
192,192,89414,1,0,0:0:0:0:
64,192,89414,128,0,89658:0:0:0:0:
320,192,89658,1,0,0:0:0:0:
448,192,89902,128,0,90085:0:0:0:0:
64,192,89902,128,0,90024:0:0:0:0:
320,192,90024,128,0,90146:0:0:0:0:
192,192,90146,128,0,90268:0:0:0:0:
64,192,90146,1,0,0:0:0:0:
448,192,90390,128,0,90512:0:0:0:0:
192,192,90390,128,0,90756:0:0:0:0:
320,192,90634,128,0,90878:0:0:0:0:
64,192,90878,128,0,91121:0:0:0:0:
192,192,90878,128,0,91000:0:0:0:0:
192,192,91121,128,0,91243:0:0:0:0:
448,192,91365,128,0,91731:0:0:0:0:
320,192,91365,128,0,91609:0:0:0:0:
64,192,91609,1,0,0:0:0:0:
192,192,91853,128,0,92097:0:0:0:0:
64,192,91853,128,0,92219:0:0:0:0:
448,192,92097,128,0,92219:0:0:0:0:
192,192,92341,128,0,92463:0:0:0:0:
448,192,92585,128,0,92707:0:0:0:0:
192,192,92829,128,0,93073:0:0:0:0:
64,192,92829,128,0,93682:0:0:0:0:
448,192,92951,1,0,0:0:0:0:
320,192,93073,1,0,0:0:0:0:
448,192,93195,1,0,0:0:0:0:
192,192,93317,1,0,0:0:0:0:
448,192,93439,1,0,0:0:0:0:
320,192,93561,1,0,0:0:0:0:
192,192,93682,1,0,0:0:0:0:
320,192,93804,128,0,94048:0:0:0:0:
448,192,93804,128,0,94658:0:0:0:0:
64,192,93926,1,0,0:0:0:0:
192,192,94048,1,0,0:0:0:0:
64,192,94170,1,0,0:0:0:0:
320,192,94292,1,0,0:0:0:0:
64,192,94414,1,0,0:0:0:0:
192,192,94536,1,0,0:0:0:0:
320,192,94658,1,0,0:0:0:0:
192,192,94780,128,0,94861:0:0:0:0:
64,192,94780,128,0,94943:0:0:0:0:
192,192,94943,128,0,95146:0:0:0:0:
448,192,95024,1,0,0:0:0:0:
320,192,95146,1,0,0:0:0:0:
448,192,95268,128,0,95390:0:0:0:0:
64,192,95268,128,0,95512:0:0:0:0:
320,192,95512,1,0,0:0:0:0:
192,192,95634,1,0,0:0:0:0:
448,192,95756,128,0,95878:0:0:0:0:
320,192,95817,128,0,95939:0:0:0:0:
192,192,95878,128,0,96000:0:0:0:0:
64,192,96000,128,0,96182:0:0:0:0:
192,192,96243,128,0,96365:0:0:0:0:
448,192,96243,128,0,96609:0:0:0:0:
320,192,96487,128,0,96731:0:0:0:0:
192,192,96731,128,0,96853:0:0:0:0:
64,192,96731,128,0,96975:0:0:0:0:
192,192,96975,128,0,97219:0:0:0:0:
320,192,97097,1,0,0:0:0:0:
64,192,97219,128,0,97463:0:0:0:0:
448,192,97219,1,0,0:0:0:0:
320,192,97463,5,0,0:0:0:0:
320,192,97707,1,0,0:0:0:0:
192,192,97707,1,0,0:0:0:0:
64,192,97951,128,0,98073:0:0:0:0:
320,192,98195,1,0,0:0:0:0:
64,192,98195,128,0,98317:0:0:0:0:
448,192,98439,128,0,98804:0:0:0:0:
320,192,98439,128,0,98682:0:0:0:0:
