osu file format v14

[General]
AudioFilename: audio.ogg
AudioLeadIn: 0
PreviewTime: 52957
Countdown: 0
SampleSet: Normal
StackLeniency: 0.7
Mode: 3
LetterboxInBreaks: 0
SpecialStyle: 0
WidescreenStoryboard: 0

[Editor]
DistanceSpacing: 0.8
BeatDivisor: 12
GridSize: 8
TimelineZoom: 1.5

[Metadata]
Title:STYX HELIX (TV Size)
TitleUnicode:STYX HELIX (TV Size)
Artist:MYTH & ROID
ArtistUnicode:MYTH & ROID
Creator:Sm7sh
Version:Re:Start
Source:Re:ゼロから始める異世界生活
Tags:re:zero kara hajimeru isekai seikatsu life in a different world from zero KADOKAWA White Fox WintMin Ending ED ZMCZ-10605 anime japanese
BeatmapID:3995990
BeatmapSetID:1933843

[Difficulty]
HPDrainRate:8.2
CircleSize:4
OverallDifficulty:7.3
ApproachRate:5
SliderMultiplier:1.4
SliderTickRate:1

[Events]
//Background and Video events
0,0,"bg.jpg",0,0
//Break Periods
//Storyboard Layer 0 (Background)
//Storyboard Layer 1 (Fail)
//Storyboard Layer 2 (Pass)
//Storyboard Layer 3 (Foreground)
//Storyboard Layer 4 (Overlay)
//Storyboard Sound Samples

[TimingPoints]
1122,487.80487804878,4,1,1,20,1,0
53804,-100,4,1,1,20,0,1
85024,-100,4,1,1,20,0,0

[HitObjects]
448,192,1122,5,0,0:0:0:0:
192,192,1122,1,0,0:0:0:0:
192,192,1365,1,0,0:0:0:0:
320,192,1487,1,0,0:0:0:0:
448,192,1609,1,0,0:0:0:0:
64,192,1609,1,0,0:0:0:0:
192,192,1731,1,0,0:0:0:0:
320,192,1853,1,0,0:0:0:0:
64,192,1975,1,0,0:0:0:0:
192,192,1975,1,0,0:0:0:0:
192,192,2097,1,0,0:0:0:0:
448,192,2219,1,0,0:0:0:0:
64,192,2219,1,0,0:0:0:0:
320,192,2341,1,0,0:0:0:0:
192,192,2463,1,0,0:0:0:0:
64,192,2463,1,0,0:0:0:0:
320,192,2585,1,0,0:0:0:0:
192,192,2707,1,0,0:0:0:0:
64,192,2737,1,0,0:0:0:0:
448,192,2829,1,0,0:0:0:0:
320,192,2951,1,0,0:0:0:0:
64,192,3073,1,0,0:0:0:0:
448,192,3073,1,0,0:0:0:0:
448,192,3317,1,0,0:0:0:0:
192,192,3439,1,0,0:0:0:0:
64,192,3561,1,0,0:0:0:0:
448,192,3561,1,0,0:0:0:0:
320,192,3682,1,0,0:0:0:0:
192,192,3804,1,0,0:0:0:0:
320,192,3926,1,0,0:0:0:0:
448,192,3926,1,0,0:0:0:0:
192,192,4048,1,0,0:0:0:0:
448,192,4170,1,0,0:0:0:0:
64,192,4170,1,0,0:0:0:0:
320,192,4252,1,0,0:0:0:0:
448,192,4414,1,0,0:0:0:0:
64,192,4414,1,0,0:0:0:0:
192,192,4536,1,0,0:0:0:0:
320,192,4658,1,0,0:0:0:0:
448,192,4689,1,0,0:0:0:0:
64,192,4780,1,0,0:0:0:0:
320,192,4902,1,0,0:0:0:0:
192,192,5024,1,0,0:0:0:0:
64,192,5024,1,0,0:0:0:0:
64,192,5146,1,0,0:0:0:0:
192,192,5268,1,0,0:0:0:0:
320,192,5390,1,0,0:0:0:0:
448,192,5512,1,0,0:0:0:0:
64,192,5512,1,0,0:0:0:0:
448,192,5634,1,0,0:0:0:0:
320,192,5756,1,0,0:0:0:0:
192,192,5878,1,0,0:0:0:0:
64,192,5878,1,0,0:0:0:0:
192,192,6000,1,0,0:0:0:0:
320,192,6121,1,0,0:0:0:0:
448,192,6121,1,0,0:0:0:0:
320,192,6243,1,0,0:0:0:0:
192,192,6365,1,0,0:0:0:0:
64,192,6365,1,0,0:0:0:0:
64,192,6487,1,0,0:0:0:0:
448,192,6609,1,0,0:0:0:0:
320,192,6731,1,0,0:0:0:0:
192,192,6853,1,0,0:0:0:0:
448,192,6935,1,0,0:0:0:0:
64,192,6975,1,0,0:0:0:0:
320,192,7219,1,0,0:0:0:0:
192,192,7341,1,0,0:0:0:0:
64,192,7463,1,0,0:0:0:0:
192,192,7493,1,0,0:0:0:0:
448,192,7585,1,0,0:0:0:0:
320,192,7707,1,0,0:0:0:0:
192,192,7798,1,0,0:0:0:0:
64,192,7829,1,0,0:0:0:0:
64,192,7951,1,0,0:0:0:0:
192,192,8073,1,0,0:0:0:0:
320,192,8195,1,0,0:0:0:0:
448,192,8317,1,0,0:0:0:0:
64,192,8317,1,0,0:0:0:0:
192,192,8439,1,0,0:0:0:0:
448,192,8561,1,0,0:0:0:0:
320,192,8561,128,0,8642:0:0:0:0:
64,192,8682,1,0,0:0:0:0:
192,192,8682,128,0,8764:0:0:0:0:
320,192,8804,128,0,8886:0:0:0:0:
448,192,8926,128,0,9211:0:0:0:0:
64,192,8926,128,0,9902:0:0:0:0:
320,192,9170,128,0,9333:0:0:0:0:
192,192,9292,128,0,9455:0:0:0:0:
320,192,9414,128,0,9577:0:0:0:0:
448,192,9536,128,0,10024:0:0:0:0:
64,192,10065,128,0,10227:0:0:0:0:
448,192,10268,1,0,0:0:0:0:
320,192,10349,128,0,10471:0:0:0:0:
448,192,10512,1,0,0:0:0:0:
192,192,10593,128,0,10715:0:0:0:0:
64,192,10682,128,0,10780:0:0:0:0:
448,192,10878,1,0,0:0:0:0:
320,192,10878,128,0,11000:0:0:0:0:
64,192,10878,1,0,0:0:0:0:
192,192,10878,1,0,0:0:0:0:
448,192,10969,128,0,11091:0:0:0:0:
192,192,11121,128,0,11284:0:0:0:0:
192,192,11365,128,0,11426:0:0:0:0:
64,192,11365,1,0,0:0:0:0:
448,192,11365,1,0,0:0:0:0:
192,192,11487,128,0,11609:0:0:0:0:
320,192,11528,128,0,11609:0:0:0:0:
448,192,11609,1,0,0:0:0:0:
64,192,11731,128,0,11792:0:0:0:0:
192,192,11853,1,0,0:0:0:0:
448,192,11853,128,0,12006:0:0:0:0:
320,192,11853,128,0,11914:0:0:0:0:
320,192,11975,128,0,12097:0:0:0:0:
64,192,12097,1,0,0:0:0:0:
192,192,12219,1,0,0:0:0:0:
320,192,12341,1,0,0:0:0:0:
448,192,12341,1,0,0:0:0:0:
64,192,12341,128,0,12463:0:0:0:0:
192,192,12432,128,0,12524:0:0:0:0:
320,192,12504,128,0,12585:0:0:0:0:
64,192,12585,128,0,12707:0:0:0:0:
192,192,12585,1,0,0:0:0:0:
448,192,12707,128,0,12768:0:0:0:0:
64,192,12829,1,0,0:0:0:0:
448,192,12829,128,0,12910:0:0:0:0:
320,192,12829,128,0,12951:0:0:0:0:
192,192,12937,128,0,13046:0:0:0:0:
320,192,13073,128,0,13195:0:0:0:0:
64,192,13073,1,0,0:0:0:0:
448,192,13154,128,0,13317:0:0:0:0:
64,192,13317,1,0,0:0:0:0:
320,192,13317,128,0,13398:0:0:0:0:
192,192,13317,128,0,13479:0:0:0:0:
320,192,13479,1,0,0:0:0:0:
192,192,13561,128,0,13682:0:0:0:0:
64,192,13561,1,0,0:0:0:0:
64,192,13682,128,0,13743:0:0:0:0:
192,192,13804,1,0,0:0:0:0:
320,192,13804,128,0,13967:0:0:0:0:
448,192,13804,128,0,13886:0:0:0:0:
192,192,13926,128,0,14008:0:0:0:0:
320,192,14048,1,0,0:0:0:0:
448,192,14130,128,0,14211:0:0:0:0:
448,192,14292,1,0,0:0:0:0:
192,192,14292,1,0,0:0:0:0:
64,192,14292,128,0,14414:0:0:0:0:
192,192,14374,128,0,14495:0:0:0:0:
320,192,14509,1,0,0:0:0:0:
448,192,14536,128,0,14658:0:0:0:0:
320,192,14617,128,0,14699:0:0:0:0:
448,192,14780,1,0,0:0:0:0:
64,192,14780,1,0,0:0:0:0:
320,192,14780,1,0,0:0:0:0:
192,192,14902,1,0,0:0:0:0:
192,192,15024,1,0,0:0:0:0:
448,192,15051,1,0,0:0:0:0:
192,192,15146,1,0,0:0:0:0:
320,192,15268,128,0,15390:0:0:0:0:
64,192,15268,1,0,0:0:0:0:
448,192,15329,128,0,15481:0:0:0:0:
320,192,15512,128,0,15634:0:0:0:0:
192,192,15573,128,0,15695:0:0:0:0:
64,192,15756,1,0,0:0:0:0:
448,192,15756,1,0,0:0:0:0:
192,192,15756,1,0,0:0:0:0:
320,192,15878,1,0,0:0:0:0:
320,192,16000,1,0,0:0:0:0:
64,192,16027,1,0,0:0:0:0:
320,192,16121,1,0,0:0:0:0:
192,192,16243,128,0,16335:0:0:0:0:
448,192,16274,128,0,16396:0:0:0:0:
64,192,16304,128,0,16426:0:0:0:0:
320,192,16365,128,0,16487:0:0:0:0:
192,192,16487,128,0,16569:0:0:0:0:
320,192,16548,128,0,16609:0:0:0:0:
64,192,16731,1,0,0:0:0:0:
320,192,16731,1,0,0:0:0:0:
448,192,16731,1,0,0:0:0:0:
192,192,16853,1,0,0:0:0:0:
192,192,16975,1,0,0:0:0:0:
448,192,17002,1,0,0:0:0:0:
192,192,17097,1,0,0:0:0:0:
64,192,17219,1,0,0:0:0:0:
448,192,17219,128,0,17463:0:0:0:0:
320,192,17219,1,0,0:0:0:0:
64,192,17341,1,0,0:0:0:0:
192,192,17463,128,0,17585:0:0:0:0:
64,192,17463,1,0,0:0:0:0:
320,192,17585,128,0,17707:0:0:0:0:
448,192,17707,1,0,0:0:0:0:
192,192,17707,1,0,0:0:0:0:
64,192,17707,128,0,17951:0:0:0:0:
448,192,17829,1,0,0:0:0:0:
192,192,17951,1,0,0:0:0:0:
448,192,17951,128,0,18073:0:0:0:0:
320,192,18032,128,0,18113:0:0:0:0:
64,192,18195,1,0,0:0:0:0:
192,192,18195,1,0,0:0:0:0:
320,192,18195,1,0,0:0:0:0:
448,192,18249,128,0,18357:0:0:0:0:
64,192,18334,128,0,18404:0:0:0:0:
320,192,18439,128,0,18561:0:0:0:0:
192,192,18520,128,0,18601:0:0:0:0:
320,192,18652,1,0,0:0:0:0:
448,192,18682,128,0,18804:0:0:0:0:
64,192,18682,128,0,18926:0:0:0:0:
320,192,18764,128,0,18886:0:0:0:0:
192,192,18926,1,0,0:0:0:0:
320,192,19048,1,0,0:0:0:0:
192,192,19170,128,0,19231:0:0:0:0:
64,192,19170,128,0,19353:0:0:0:0:
192,192,19292,128,0,19414:0:0:0:0:
320,192,19353,128,0,19475:0:0:0:0:
64,192,19414,128,0,19536:0:0:0:0:
448,192,19536,128,0,19597:0:0:0:0:
448,192,19658,128,0,19841:0:0:0:0:
64,192,19658,1,0,0:0:0:0:
320,192,19658,128,0,19719:0:0:0:0:
320,192,19780,128,0,19841:0:0:0:0:
64,192,19902,1,0,0:0:0:0:
192,192,20024,1,0,0:0:0:0:
320,192,20146,1,0,0:0:0:0:
448,192,20146,128,0,20243:0:0:0:0:
64,192,20146,128,0,20243:0:0:0:0:
192,192,20227,128,0,20308:0:0:0:0:
320,192,20308,128,0,20363:0:0:0:0:
64,192,20390,1,0,0:0:0:0:
448,192,20390,128,0,20512:0:0:0:0:
320,192,20471,128,0,20552:0:0:0:0:
192,192,20634,1,0,0:0:0:0:
64,192,20634,128,0,20796:0:0:0:0:
448,192,20634,128,0,20878:0:0:0:0:
192,192,20756,128,0,20878:0:0:0:0:
64,192,20878,1,0,0:0:0:0:
320,192,21000,1,0,0:0:0:0:
64,192,21121,1,0,0:0:0:0:
448,192,21121,128,0,21243:0:0:0:0:
192,192,21121,1,0,0:0:0:0:
320,192,21203,128,0,21325:0:0:0:0:
192,192,21304,128,0,21487:0:0:0:0:
64,192,21365,1,0,0:0:0:0:
320,192,21447,128,0,21528:0:0:0:0:
192,192,21609,1,0,0:0:0:0:
448,192,21609,1,0,0:0:0:0:
64,192,21609,128,0,21880:0:0:0:0:
192,192,21731,1,0,0:0:0:0:
192,192,21853,128,0,21914:0:0:0:0:
448,192,21853,1,0,0:0:0:0:
320,192,21894,128,0,22016:0:0:0:0:
448,192,22097,1,0,0:0:0:0:
192,192,22097,1,0,0:0:0:0:
64,192,22097,128,0,22260:0:0:0:0:
448,192,22219,1,0,0:0:0:0:
448,192,22341,1,0,0:0:0:0:
64,192,22341,1,0,0:0:0:0:
192,192,22463,1,0,0:0:0:0:
320,192,22585,1,0,0:0:0:0:
448,192,22585,1,0,0:0:0:0:
64,192,22585,128,0,23012:0:0:0:0:
448,192,22707,1,0,0:0:0:0:
320,192,22829,1,0,0:0:0:0:
320,192,22951,1,0,0:0:0:0:
448,192,23073,1,0,0:0:0:0:
64,192,23073,128,0,23500:0:0:0:0:
192,192,23073,1,0,0:0:0:0:
448,192,23195,1,0,0:0:0:0:
320,192,23317,1,0,0:0:0:0:
320,192,23439,1,0,0:0:0:0:
192,192,23561,1,0,0:0:0:0:
64,192,23561,1,0,0:0:0:0:
448,192,23561,128,0,23987:0:0:0:0:
64,192,23682,1,0,0:0:0:0:
192,192,23804,1,0,0:0:0:0:
192,192,23926,1,0,0:0:0:0:
320,192,24048,1,0,0:0:0:0:
448,192,24048,128,0,24475:0:0:0:0:
64,192,24048,1,0,0:0:0:0:
64,192,24170,1,0,0:0:0:0:
192,192,24292,1,0,0:0:0:0:
192,192,24414,1,0,0:0:0:0:
320,192,24536,1,0,0:0:0:0:
448,192,24536,1,0,0:0:0:0:
64,192,24536,128,0,24963:0:0:0:0:
448,192,24658,1,0,0:0:0:0:
320,192,24780,1,0,0:0:0:0:
320,192,24902,1,0,0:0:0:0:
448,192,25024,1,0,0:0:0:0:
64,192,25024,128,0,25451:0:0:0:0:
192,192,25024,1,0,0:0:0:0:
448,192,25146,1,0,0:0:0:0:
320,192,25268,1,0,0:0:0:0:
320,192,25390,1,0,0:0:0:0:
448,192,25512,128,0,25695:0:0:0:0:
64,192,25512,1,0,0:0:0:0:
192,192,25512,1,0,0:0:0:0:
320,192,25634,1,0,0:0:0:0:
64,192,25756,128,0,25939:0:0:0:0:
448,192,25756,1,0,0:0:0:0:
320,192,25878,1,0,0:0:0:0:
448,192,26000,128,0,26182:0:0:0:0:
64,192,26000,1,0,0:0:0:0:
192,192,26000,1,0,0:0:0:0:
320,192,26121,1,0,0:0:0:0:
64,192,26243,128,0,26426:0:0:0:0:
448,192,26243,1,0,0:0:0:0:
320,192,26365,1,0,0:0:0:0:
448,192,26487,128,0,26670:0:0:0:0:
64,192,26487,1,0,0:0:0:0:
192,192,26487,1,0,0:0:0:0:
320,192,26609,1,0,0:0:0:0:
64,192,26731,128,0,26914:0:0:0:0:
448,192,26731,1,0,0:0:0:0:
320,192,26853,1,0,0:0:0:0:
448,192,26975,128,0,27158:0:0:0:0:
192,192,26975,1,0,0:0:0:0:
64,192,26975,1,0,0:0:0:0:
320,192,27097,1,0,0:0:0:0:
64,192,27219,128,0,27402:0:0:0:0:
448,192,27219,1,0,0:0:0:0:
320,192,27341,1,0,0:0:0:0:
64,192,27463,1,0,0:0:0:0:
192,192,27463,1,0,0:0:0:0:
448,192,27463,128,0,27646:0:0:0:0:
320,192,27585,1,0,0:0:0:0:
448,192,27707,1,0,0:0:0:0:
64,192,27707,128,0,27890:0:0:0:0:
192,192,27829,1,0,0:0:0:0:
320,192,27890,128,0,28012:0:0:0:0:
448,192,27951,128,0,28134:0:0:0:0:
64,192,27951,1,0,0:0:0:0:
320,192,28073,128,0,28134:0:0:0:0:
64,192,28195,128,0,28378:0:0:0:0:
192,192,28195,1,0,0:0:0:0:
320,192,28317,1,0,0:0:0:0:
192,192,28439,128,0,28591:0:0:0:0:
64,192,28439,128,0,29048:0:0:0:0:
320,192,28561,128,0,28621:0:0:0:0:
320,192,28682,128,0,28743:0:0:0:0:
64,192,29170,128,0,29231:0:0:0:0:
448,192,29170,128,0,29231:0:0:0:0:
320,192,29252,1,0,0:0:0:0:
192,192,29414,128,0,29536:0:0:0:0:
64,192,29414,128,0,29495:0:0:0:0:
320,192,29495,128,0,29699:0:0:0:0:
192,192,29658,128,0,29739:0:0:0:0:
192,192,29841,128,0,29963:0:0:0:0:
64,192,29902,128,0,30207:0:0:0:0:
320,192,30329,1,0,0:0:0:0:
448,192,30390,128,0,30878:0:0:0:0:
64,192,30390,128,0,30634:0:0:0:0:
192,192,31081,128,0,31284:0:0:0:0:
64,192,31203,128,0,31284:0:0:0:0:
320,192,31325,128,0,31406:0:0:0:0:
448,192,31365,128,0,31528:0:0:0:0:
64,192,31528,128,0,31609:0:0:0:0:
192,192,31609,1,0,0:0:0:0:
448,192,31813,128,0,31935:0:0:0:0:
320,192,31907,128,0,32016:0:0:0:0:
64,192,31975,1,0,0:0:0:0:
448,192,32016,128,0,32097:0:0:0:0:
192,192,32138,1,0,0:0:0:0:
320,192,32260,1,0,0:0:0:0:
64,192,32341,128,0,32829:0:0:0:0:
192,192,32341,128,0,32493:0:0:0:0:
320,192,32463,128,0,32544:0:0:0:0:
192,192,32585,1,0,0:0:0:0:
448,192,32829,1,0,0:0:0:0:
320,192,33046,128,0,33100:0:0:0:0:
192,192,33195,128,0,33256:0:0:0:0:
448,192,33317,128,0,33439:0:0:0:0:
320,192,33398,128,0,33520:0:0:0:0:
448,192,33520,1,0,0:0:0:0:
320,192,34008,128,0,34170:0:0:0:0:
192,192,34109,128,0,34231:0:0:0:0:
448,192,34292,1,0,0:0:0:0:
64,192,34292,128,0,34414:0:0:0:0:
192,192,34374,128,0,34455:0:0:0:0:
64,192,34495,1,0,0:0:0:0:
192,192,34983,1,0,0:0:0:0:
64,192,35024,128,0,35105:0:0:0:0:
320,192,35146,128,0,35308:0:0:0:0:
448,192,35268,128,0,35390:0:0:0:0:
192,192,35349,128,0,35430:0:0:0:0:
64,192,35390,128,0,35471:0:0:0:0:
320,192,35512,1,0,0:0:0:0:
192,192,35552,1,0,0:0:0:0:
64,192,35593,1,0,0:0:0:0:
320,192,35715,128,0,35878:0:0:0:0:
192,192,35847,128,0,35939:0:0:0:0:
320,192,35939,128,0,36000:0:0:0:0:
192,192,36000,1,0,0:0:0:0:
448,192,36243,128,0,36731:0:0:0:0:
64,192,36243,128,0,36365:0:0:0:0:
192,192,36325,128,0,36487:0:0:0:0:
64,192,36447,128,0,36528:0:0:0:0:
320,192,36731,1,0,0:0:0:0:
192,192,36975,128,0,37056:0:0:0:0:
320,192,37036,128,0,37097:0:0:0:0:
64,192,37219,128,0,37280:0:0:0:0:
192,192,37300,128,0,37382:0:0:0:0:
448,192,37341,1,0,0:0:0:0:
64,192,37371,128,0,37463:0:0:0:0:
448,192,37463,1,0,0:0:0:0:
192,192,37585,1,0,0:0:0:0:
320,192,37707,128,0,38012:0:0:0:0:
192,192,37951,128,0,38113:0:0:0:0:
448,192,37951,1,0,0:0:0:0:
64,192,38073,1,0,0:0:0:0:
448,192,38195,128,0,38682:0:0:0:0:
320,192,38195,128,0,38439:0:0:0:0:
64,192,38439,128,0,38561:0:0:0:0:
192,192,38520,128,0,38601:0:0:0:0:
320,192,38682,1,0,0:0:0:0:
192,192,38926,128,0,39048:0:0:0:0:
64,192,39008,128,0,39130:0:0:0:0:
320,192,39170,128,0,39231:0:0:0:0:
64,192,39292,1,0,0:0:0:0:
320,192,39292,128,0,39353:0:0:0:0:
192,192,39414,1,0,0:0:0:0:
448,192,39536,128,0,39597:0:0:0:0:
320,192,39597,128,0,39780:0:0:0:0:
448,192,39739,128,0,39902:0:0:0:0:
64,192,39902,1,0,0:0:0:0:
448,192,40024,128,0,40085:0:0:0:0:
320,192,40085,128,0,40176:0:0:0:0:
64,192,40146,128,0,40634:0:0:0:0:
192,192,40146,128,0,40308:0:0:0:0:
320,192,40268,128,0,40390:0:0:0:0:
448,192,40349,128,0,40878:0:0:0:0:
192,192,40634,1,0,0:0:0:0:
320,192,40837,128,0,40918:0:0:0:0:
192,192,40878,128,0,40959:0:0:0:0:
320,192,41000,1,0,0:0:0:0:
448,192,41040,128,0,41203:0:0:0:0:
192,192,41243,1,0,0:0:0:0:
64,192,41365,1,0,0:0:0:0:
320,192,41487,1,0,0:0:0:0:
320,192,41609,1,0,0:0:0:0:
192,192,41853,128,0,41935:0:0:0:0:
64,192,41935,128,0,42056:0:0:0:0:
192,192,42016,128,0,42097:0:0:0:0:
320,192,42097,128,0,42300:0:0:0:0:
64,192,42219,1,0,0:0:0:0:
448,192,42341,128,0,42463:0:0:0:0:
320,192,42422,128,0,42531:0:0:0:0:
64,192,42585,1,0,0:0:0:0:
448,192,42585,128,0,42788:0:0:0:0:
192,192,42829,128,0,42991:0:0:0:0:
64,192,42829,1,0,0:0:0:0:
320,192,42951,128,0,43073:0:0:0:0:
448,192,43073,128,0,43154:0:0:0:0:
320,192,43195,1,0,0:0:0:0:
192,192,43235,1,0,0:0:0:0:
64,192,43276,1,0,0:0:0:0:
448,192,43317,1,0,0:0:0:0:
192,192,43439,1,0,0:0:0:0:
320,192,43500,1,0,0:0:0:0:
448,192,43561,128,0,43743:0:0:0:0:
320,192,43682,128,0,43743:0:0:0:0:
192,192,43804,128,0,43865:0:0:0:0:
192,192,43926,128,0,43987:0:0:0:0:
320,192,44048,5,0,0:0:0:0:
448,192,44048,1,0,0:0:0:0:
448,192,44170,1,0,0:0:0:0:
320,192,44292,1,0,0:0:0:0:
320,192,44414,1,0,0:0:0:0:
64,192,44536,128,0,44597:0:0:0:0:
448,192,44536,128,0,44597:0:0:0:0:
64,192,44658,1,0,0:0:0:0:
192,192,44780,1,0,0:0:0:0:
192,192,44902,1,0,0:0:0:0:
320,192,45024,1,0,0:0:0:0:
448,192,45024,1,0,0:0:0:0:
448,192,45146,1,0,0:0:0:0:
192,192,45268,1,0,0:0:0:0:
320,192,45390,128,0,45451:0:0:0:0:
448,192,45512,128,0,45573:0:0:0:0:
64,192,45512,128,0,45573:0:0:0:0:
448,192,45634,1,0,0:0:0:0:
192,192,45756,1,0,0:0:0:0:
192,192,45878,1,0,0:0:0:0:
448,192,46000,1,0,0:0:0:0:
64,192,46000,128,0,46121:0:0:0:0:
192,192,46061,128,0,46243:0:0:0:0:
448,192,46121,1,0,0:0:0:0:
448,192,46243,1,0,0:0:0:0:
448,192,46365,128,0,46426:0:0:0:0:
64,192,46487,1,0,0:0:0:0:
320,192,46487,128,0,46853:0:0:0:0:
448,192,46609,128,0,46894:0:0:0:0:
64,192,46609,1,0,0:0:0:0:
64,192,46731,1,0,0:0:0:0:
320,192,46914,128,0,47036:0:0:0:0:
192,192,46975,128,0,47300:0:0:0:0:
64,192,47138,128,0,47341:0:0:0:0:
64,192,47463,1,0,0:0:0:0:
448,192,47463,128,0,47615:0:0:0:0:
320,192,47571,128,0,47734:0:0:0:0:
448,192,47707,128,0,47788:0:0:0:0:
192,192,47788,1,0,0:0:0:0:
64,192,47829,1,0,0:0:0:0:
448,192,47951,128,0,48113:0:0:0:0:
320,192,47951,128,0,48012:0:0:0:0:
64,192,47951,1,0,0:0:0:0:
320,192,48073,128,0,48195:0:0:0:0:
192,192,48154,128,0,48235:0:0:0:0:
64,192,48195,128,0,48439:0:0:0:0:
192,192,48317,128,0,48804:0:0:0:0:
448,192,48439,1,0,0:0:0:0:
320,192,48682,128,0,48743:0:0:0:0:
320,192,48804,1,0,0:0:0:0:
448,192,48926,1,0,0:0:0:0:
192,192,48926,128,0,49048:0:0:0:0:
64,192,48926,128,0,49089:0:0:0:0:
320,192,49048,128,0,49170:0:0:0:0:
192,192,49130,128,0,49211:0:0:0:0:
64,192,49170,128,0,49658:0:0:0:0:
448,192,49292,128,0,49414:0:0:0:0:
320,192,49414,1,0,0:0:0:0:
192,192,49617,128,0,49699:0:0:0:0:
64,192,49739,1,0,0:0:0:0:
448,192,49780,1,0,0:0:0:0:
448,192,49902,128,0,50065:0:0:0:0:
320,192,49902,128,0,49983:0:0:0:0:
64,192,49902,1,0,0:0:0:0:
192,192,50024,128,0,50105:0:0:0:0:
320,192,50065,128,0,50187:0:0:0:0:
448,192,50146,128,0,51365:0:0:0:0:
320,192,50390,1,0,0:0:0:0:
192,192,50634,128,0,50695:0:0:0:0:
320,192,50756,128,0,50878:0:0:0:0:
64,192,50878,1,0,0:0:0:0:
320,192,51121,1,0,0:0:0:0:
320,192,51325,128,0,51447:0:0:0:0:
64,192,51365,128,0,51426:0:0:0:0:
448,192,51447,128,0,51528:0:0:0:0:
64,192,51487,128,0,51548:0:0:0:0:
64,192,51609,128,0,51731:0:0:0:0:
192,192,51731,1,0,0:0:0:0:
64,192,52991,128,0,53154:0:0:0:0:
448,192,53195,1,0,0:0:0:0:
320,192,53276,128,0,53398:0:0:0:0:
448,192,53439,1,0,0:0:0:0:
192,192,53520,128,0,53642:0:0:0:0:
64,192,53609,128,0,53707:0:0:0:0:
448,192,53804,1,0,0:0:0:0:
320,192,53804,128,0,53926:0:0:0:0:
64,192,53804,1,0,0:0:0:0:
192,192,53804,1,0,0:0:0:0:
448,192,53896,128,0,54018:0:0:0:0:
192,192,54048,128,0,54211:0:0:0:0:
192,192,54292,128,0,54353:0:0:0:0:
64,192,54292,1,0,0:0:0:0:
448,192,54292,1,0,0:0:0:0:
192,192,54414,128,0,54536:0:0:0:0:
320,192,54455,128,0,54536:0:0:0:0:
448,192,54536,1,0,0:0:0:0:
64,192,54658,128,0,54719:0:0:0:0:
192,192,54780,1,0,0:0:0:0:
448,192,54780,128,0,54932:0:0:0:0:
320,192,54780,128,0,54841:0:0:0:0:
320,192,54902,128,0,55024:0:0:0:0:
64,192,55024,1,0,0:0:0:0:
192,192,55146,1,0,0:0:0:0:
320,192,55268,1,0,0:0:0:0:
448,192,55268,1,0,0:0:0:0:
64,192,55268,128,0,55390:0:0:0:0:
192,192,55359,128,0,55451:0:0:0:0:
320,192,55430,128,0,55512:0:0:0:0:
64,192,55512,128,0,55634:0:0:0:0:
192,192,55512,1,0,0:0:0:0:
448,192,55634,128,0,55695:0:0:0:0:
64,192,55756,1,0,0:0:0:0:
448,192,55756,128,0,55837:0:0:0:0:
320,192,55756,128,0,55878:0:0:0:0:
192,192,55864,128,0,55972:0:0:0:0:
320,192,56000,128,0,56121:0:0:0:0:
64,192,56000,1,0,0:0:0:0:
448,192,56081,128,0,56243:0:0:0:0:
64,192,56243,1,0,0:0:0:0:
320,192,56243,128,0,56325:0:0:0:0:
192,192,56243,128,0,56406:0:0:0:0:
320,192,56406,1,0,0:0:0:0:
192,192,56487,128,0,56609:0:0:0:0:
64,192,56487,1,0,0:0:0:0:
64,192,56609,128,0,56670:0:0:0:0:
192,192,56731,1,0,0:0:0:0:
320,192,56731,128,0,56894:0:0:0:0:
448,192,56731,128,0,56813:0:0:0:0:
192,192,56853,128,0,56935:0:0:0:0:
320,192,56975,1,0,0:0:0:0:
448,192,57056,128,0,57138:0:0:0:0:
448,192,57219,1,0,0:0:0:0:
64,192,57219,1,0,0:0:0:0:
192,192,57219,128,0,57341:0:0:0:0:
64,192,57300,128,0,57382:0:0:0:0:
448,192,57463,1,0,0:0:0:0:
320,192,57463,128,0,57524:0:0:0:0:
192,192,57504,128,0,57585:0:0:0:0:
320,192,57585,128,0,57646:0:0:0:0:
192,192,57707,1,0,0:0:0:0:
448,192,57707,1,0,0:0:0:0:
64,192,57707,128,0,57829:0:0:0:0:
192,192,57788,128,0,57869:0:0:0:0:
64,192,57951,1,0,0:0:0:0:
448,192,57951,128,0,58012:0:0:0:0:
320,192,58032,128,0,58113:0:0:0:0:
448,192,58073,128,0,58134:0:0:0:0:
64,192,58195,1,0,0:0:0:0:
448,192,58195,1,0,0:0:0:0:
192,192,58195,128,0,58317:0:0:0:0:
64,192,58439,128,0,58561:0:0:0:0:
448,192,58439,1,0,0:0:0:0:
192,192,58520,128,0,58601:0:0:0:0:
448,192,58682,128,0,58804:0:0:0:0:
64,192,58682,1,0,0:0:0:0:
320,192,58682,1,0,0:0:0:0:
320,192,58764,128,0,58845:0:0:0:0:
448,192,58926,1,0,0:0:0:0:
64,192,58926,128,0,58987:0:0:0:0:
192,192,59008,128,0,59089:0:0:0:0:
64,192,59048,128,0,59109:0:0:0:0:
448,192,59170,1,0,0:0:0:0:
64,192,59170,1,0,0:0:0:0:
320,192,59170,128,0,59333:0:0:0:0:
320,192,59414,128,0,59495:0:0:0:0:
64,192,59414,1,0,0:0:0:0:
192,192,59536,128,0,59597:0:0:0:0:
320,192,59577,128,0,59658:0:0:0:0:
192,192,59658,1,0,0:0:0:0:
448,192,59658,1,0,0:0:0:0:
64,192,59658,128,0,59719:0:0:0:0:
64,192,59780,1,0,0:0:0:0:
320,192,59902,128,0,60024:0:0:0:0:
448,192,59902,1,0,0:0:0:0:
192,192,59983,128,0,60065:0:0:0:0:
64,192,60146,1,0,0:0:0:0:
320,192,60146,128,0,60227:0:0:0:0:
448,192,60146,128,0,60268:0:0:0:0:
192,192,60268,1,0,0:0:0:0:
320,192,60308,1,0,0:0:0:0:
448,192,60390,128,0,60512:0:0:0:0:
320,192,60451,128,0,60542:0:0:0:0:
192,192,60512,128,0,60573:0:0:0:0:
64,192,60634,128,0,60878:0:0:0:0:
448,192,60634,1,0,0:0:0:0:
192,192,60634,128,0,60695:0:0:0:0:
192,192,60756,128,0,61040:0:0:0:0:
448,192,60878,1,0,0:0:0:0:
64,192,61121,1,0,0:0:0:0:
320,192,61121,1,0,0:0:0:0:
448,192,61121,128,0,61325:0:0:0:0:
320,192,61243,128,0,61365:0:0:0:0:
64,192,61365,1,0,0:0:0:0:
192,192,61487,128,0,61548:0:0:0:0:
448,192,61609,1,0,0:0:0:0:
64,192,61609,128,0,61731:0:0:0:0:
320,192,61609,1,0,0:0:0:0:
448,192,61853,128,0,61975:0:0:0:0:
64,192,61853,1,0,0:0:0:0:
320,192,61935,128,0,62016:0:0:0:0:
192,192,61975,1,0,0:0:0:0:
448,192,62097,1,0,0:0:0:0:
64,192,62097,1,0,0:0:0:0:
320,192,62097,128,0,62219:0:0:0:0:
448,192,62178,128,0,62300:0:0:0:0:
192,192,62341,128,0,62402:0:0:0:0:
192,192,62463,128,0,62524:0:0:0:0:
448,192,62585,1,0,0:0:0:0:
320,192,62585,1,0,0:0:0:0:
64,192,62585,128,0,62707:0:0:0:0:
192,192,62666,128,0,62748:0:0:0:0:
320,192,62788,1,0,0:0:0:0:
64,192,62829,1,0,0:0:0:0:
448,192,62829,128,0,62951:0:0:0:0:
320,192,62910,128,0,62991:0:0:0:0:
320,192,63073,1,0,0:0:0:0:
448,192,63073,1,0,0:0:0:0:
64,192,63073,1,0,0:0:0:0:
64,192,63235,128,0,63317:0:0:0:0:
192,192,63286,128,0,63378:0:0:0:0:
448,192,63317,1,0,0:0:0:0:
64,192,63398,128,0,63479:0:0:0:0:
448,192,63561,128,0,63682:0:0:0:0:
64,192,63561,1,0,0:0:0:0:
320,192,63561,128,0,63621:0:0:0:0:
448,192,63804,128,0,63926:0:0:0:0:
64,192,63804,1,0,0:0:0:0:
320,192,63886,128,0,63967:0:0:0:0:
448,192,64048,1,0,0:0:0:0:
192,192,64048,1,0,0:0:0:0:
320,192,64048,128,0,64170:0:0:0:0:
448,192,64130,128,0,64252:0:0:0:0:
64,192,64292,1,0,0:0:0:0:
192,192,64374,128,0,64428:0:0:0:0:
448,192,64536,1,0,0:0:0:0:
320,192,64536,128,0,64597:0:0:0:0:
64,192,64536,128,0,64821:0:0:0:0:
320,192,64658,128,0,64719:0:0:0:0:
448,192,64780,1,0,0:0:0:0:
320,192,64841,128,0,64902:0:0:0:0:
192,192,64902,128,0,64963:0:0:0:0:
320,192,64963,128,0,65054:0:0:0:0:
64,192,65024,1,0,0:0:0:0:
192,192,65024,1,0,0:0:0:0:
448,192,65024,128,0,65146:0:0:0:0:
320,192,65187,128,0,65241:0:0:0:0:
64,192,65268,128,0,65430:0:0:0:0:
192,192,65349,128,0,65430:0:0:0:0:
192,192,65512,128,0,65573:0:0:0:0:
448,192,65512,1,0,0:0:0:0:
64,192,65512,128,0,65715:0:0:0:0:
320,192,65593,128,0,65715:0:0:0:0:
192,192,65674,128,0,65837:0:0:0:0:
448,192,65756,1,0,0:0:0:0:
64,192,65817,128,0,66426:0:0:0:0:
448,192,66000,1,0,0:0:0:0:
192,192,66000,1,0,0:0:0:0:
320,192,66000,128,0,66061:0:0:0:0:
320,192,66121,128,0,66182:0:0:0:0:
448,192,66243,1,0,0:0:0:0:
192,192,66365,128,0,66426:0:0:0:0:
320,192,66487,1,0,0:0:0:0:
64,192,66487,128,0,66696:0:0:0:0:
448,192,66487,128,0,66548:0:0:0:0:
448,192,66609,128,0,66670:0:0:0:0:
192,192,66704,128,0,66758:0:0:0:0:
448,192,66731,1,0,0:0:0:0:
64,192,66792,1,0,0:0:0:0:
320,192,66894,128,0,66975:0:0:0:0:
192,192,66975,1,0,0:0:0:0:
448,192,66975,1,0,0:0:0:0:
64,192,66975,128,0,67097:0:0:0:0:
320,192,67178,1,0,0:0:0:0:
448,192,67219,128,0,67300:0:0:0:0:
320,192,67300,128,0,67355:0:0:0:0:
192,192,67432,128,0,67524:0:0:0:0:
448,192,67463,1,0,0:0:0:0:
64,192,67463,128,0,68154:0:0:0:0:
192,192,67585,128,0,68113:0:0:0:0:
448,192,67707,1,0,0:0:0:0:
320,192,67829,128,0,67890:0:0:0:0:
320,192,67951,1,0,0:0:0:0:
448,192,67951,128,0,68012:0:0:0:0:
448,192,68073,128,0,68134:0:0:0:0:
192,192,68195,1,0,0:0:0:0:
64,192,68235,1,0,0:0:0:0:
320,192,68317,128,0,68378:0:0:0:0:
192,192,68439,1,0,0:0:0:0:
64,192,68439,1,0,0:0:0:0:
448,192,68439,128,0,68500:0:0:0:0:
448,192,68561,128,0,68621:0:0:0:0:
64,192,68682,128,0,68845:0:0:0:0:
192,192,68764,128,0,68845:0:0:0:0:
64,192,68926,1,0,0:0:0:0:
320,192,68926,1,0,0:0:0:0:
448,192,68926,128,0,69048:0:0:0:0:
320,192,69008,128,0,69089:0:0:0:0:
64,192,69170,1,0,0:0:0:0:
192,192,69170,128,0,69292:0:0:0:0:
192,192,69414,128,0,69475:0:0:0:0:
448,192,69414,1,0,0:0:0:0:
64,192,69414,128,0,69597:0:0:0:0:
192,192,69536,128,0,69597:0:0:0:0:
448,192,69658,1,0,0:0:0:0:
192,192,69780,1,0,0:0:0:0:
64,192,69902,1,0,0:0:0:0:
448,192,69902,128,0,70065:0:0:0:0:
320,192,69902,128,0,69963:0:0:0:0:
192,192,70065,128,0,70187:0:0:0:0:
64,192,70105,128,0,70187:0:0:0:0:
448,192,70146,1,0,0:0:0:0:
192,192,70268,1,0,0:0:0:0:
448,192,70390,1,0,0:0:0:0:
320,192,70390,1,0,0:0:0:0:
64,192,70390,128,0,70552:0:0:0:0:
192,192,70471,128,0,70552:0:0:0:0:
448,192,70634,1,0,0:0:0:0:
192,192,70715,128,0,70769:0:0:0:0:
320,192,70878,1,0,0:0:0:0:
448,192,70878,1,0,0:0:0:0:
64,192,70878,128,0,71000:0:0:0:0:
192,192,70939,128,0,71000:0:0:0:0:
320,192,71061,128,0,71121:0:0:0:0:
64,192,71121,1,0,0:0:0:0:
448,192,71121,128,0,71243:0:0:0:0:
320,192,71203,128,0,71284:0:0:0:0:
192,192,71365,1,0,0:0:0:0:
64,192,71365,128,0,71487:0:0:0:0:
448,192,71365,128,0,71792:0:0:0:0:
192,192,71463,128,0,71561:0:0:0:0:
320,192,71609,128,0,71691:0:0:0:0:
192,192,71731,1,0,0:0:0:0:
448,192,71853,128,0,72280:0:0:0:0:
192,192,71853,128,0,71975:0:0:0:0:
64,192,71853,1,0,0:0:0:0:
64,192,72016,128,0,72097:0:0:0:0:
320,192,72097,1,0,0:0:0:0:
192,192,72138,1,0,0:0:0:0:
64,192,72178,128,0,72233:0:0:0:0:
448,192,72341,128,0,72524:0:0:0:0:
320,192,72341,128,0,72402:0:0:0:0:
64,192,72341,128,0,72768:0:0:0:0:
320,192,72463,128,0,72524:0:0:0:0:
192,192,72585,1,0,0:0:0:0:
320,192,72707,128,0,72768:0:0:0:0:
64,192,72829,128,0,73235:0:0:0:0:
192,192,72829,1,0,0:0:0:0:
448,192,72829,128,0,72890:0:0:0:0:
448,192,72951,128,0,73012:0:0:0:0:
320,192,73032,128,0,73195:0:0:0:0:
192,192,73073,1,0,0:0:0:0:
448,192,73154,128,0,73235:0:0:0:0:
64,192,73317,1,0,0:0:0:0:
320,192,73317,1,0,0:0:0:0:
448,192,73317,128,0,73479:0:0:0:0:
192,192,73500,128,0,73591:0:0:0:0:
448,192,73561,1,0,0:0:0:0:
64,192,73595,128,0,73665:0:0:0:0:
192,192,73682,1,0,0:0:0:0:
64,192,73804,1,0,0:0:0:0:
320,192,73804,128,0,73926:0:0:0:0:
448,192,73865,128,0,74018:0:0:0:0:
64,192,74048,1,0,0:0:0:0:
192,192,74048,128,0,74170:0:0:0:0:
448,192,74292,1,0,0:0:0:0:
192,192,74292,1,0,0:0:0:0:
64,192,74292,128,0,74455:0:0:0:0:
320,192,74475,128,0,74567:0:0:0:0:
64,192,74536,1,0,0:0:0:0:
448,192,74571,128,0,74641:0:0:0:0:
320,192,74658,1,0,0:0:0:0:
64,192,74780,128,0,74871:0:0:0:0:
192,192,74780,1,0,0:0:0:0:
320,192,74841,128,0,74932:0:0:0:0:
448,192,74902,128,0,74983:0:0:0:0:
64,192,75024,1,0,0:0:0:0:
192,192,75024,128,0,75085:0:0:0:0:
192,192,75146,128,0,75207:0:0:0:0:
320,192,75268,1,0,0:0:0:0:
448,192,75268,1,0,0:0:0:0:
192,192,75268,128,0,75390:0:0:0:0:
64,192,75349,128,0,75430:0:0:0:0:
320,192,75512,128,0,75593:0:0:0:0:
64,192,75512,1,0,0:0:0:0:
448,192,75756,1,0,0:0:0:0:
192,192,75756,1,0,0:0:0:0:
64,192,75756,128,0,75918:0:0:0:0:
320,192,75918,128,0,76040:0:0:0:0:
448,192,75972,128,0,76081:0:0:0:0:
64,192,76000,1,0,0:0:0:0:
320,192,76121,1,0,0:0:0:0:
192,192,76162,1,0,0:0:0:0:
320,192,76243,1,0,0:0:0:0:
64,192,76243,128,0,76457:0:0:0:0:
448,192,76243,128,0,76304:0:0:0:0:
192,192,76365,128,0,76518:0:0:0:0:
448,192,76487,1,0,0:0:0:0:
64,192,76548,1,0,0:0:0:0:
192,192,76650,128,0,76772:0:0:0:0:
320,192,76731,1,0,0:0:0:0:
64,192,76731,128,0,77097:0:0:0:0:
448,192,76731,128,0,77056:0:0:0:0:
192,192,77056,128,0,77178:0:0:0:0:
320,192,77219,1,0,0:0:0:0:
448,192,77219,1,0,0:0:0:0:
64,192,77219,128,0,79089:0:0:0:0:
320,192,77382,128,0,77463:0:0:0:0:
448,192,77463,1,0,0:0:0:0:
320,192,77707,1,0,0:0:0:0:
448,192,77707,1,0,0:0:0:0:
192,192,77707,128,0,77768:0:0:0:0:
192,192,77829,128,0,78134:0:0:0:0:
448,192,77951,1,0,0:0:0:0:
448,192,78073,128,0,78134:0:0:0:0:
192,192,78195,128,0,78561:0:0:0:0:
320,192,78195,1,0,0:0:0:0:
448,192,78439,1,0,0:0:0:0:
320,192,78652,128,0,78774:0:0:0:0:
192,192,78682,128,0,79008:0:0:0:0:
448,192,78682,1,0,0:0:0:0:
448,192,78926,1,0,0:0:0:0:
448,192,79170,128,0,81040:0:0:0:0:
320,192,79170,1,0,0:0:0:0:
192,192,79170,128,0,79292:0:0:0:0:
64,192,79252,128,0,79374:0:0:0:0:
192,192,79414,1,0,0:0:0:0:
320,192,79445,128,0,79567:0:0:0:0:
320,192,79658,1,0,0:0:0:0:
64,192,79658,1,0,0:0:0:0:
192,192,79658,1,0,0:0:0:0:
192,192,79821,128,0,79902:0:0:0:0:
64,192,79902,1,0,0:0:0:0:
320,192,80024,128,0,80085:0:0:0:0:
192,192,80146,1,0,0:0:0:0:
64,192,80146,128,0,80390:0:0:0:0:
320,192,80390,1,0,0:0:0:0:
64,192,80512,128,0,80573:0:0:0:0:
192,192,80603,128,0,80664:0:0:0:0:
320,192,80634,1,0,0:0:0:0:
64,192,80634,128,0,80796:0:0:0:0:
320,192,80878,128,0,81040:0:0:0:0:
192,192,81121,1,0,0:0:0:0:
448,192,81121,1,0,0:0:0:0:
64,192,81121,128,0,81609:0:0:0:0:
192,192,81243,128,0,81609:0:0:0:0:
448,192,81365,1,0,0:0:0:0:
448,192,81609,1,0,0:0:0:0:
320,192,81609,1,0,0:0:0:0:
448,192,81731,128,0,81813:0:0:0:0:
320,192,81853,128,0,81975:0:0:0:0:
64,192,81853,1,0,0:0:0:0:
448,192,81935,128,0,82016:0:0:0:0:
192,192,82097,1,0,0:0:0:0:
320,192,82097,128,0,82260:0:0:0:0:
64,192,82097,1,0,0:0:0:0:
192,192,82219,128,0,82382:0:0:0:0:
448,192,82341,1,0,0:0:0:0:
64,192,82341,128,0,82504:0:0:0:0:
192,192,82463,128,0,82585:0:0:0:0:
320,192,82585,1,0,0:0:0:0:
64,192,82585,1,0,0:0:0:0:
448,192,82585,128,0,82666:0:0:0:0:
64,192,82829,1,0,0:0:0:0:
192,192,82829,128,0,82991:0:0:0:0:
320,192,83042,128,0,83134:0:0:0:0:
64,192,83073,1,0,0:0:0:0:
448,192,83073,128,0,83170:0:0:0:0:
320,192,83195,128,0,83804:0:0:0:0:
448,192,83235,128,0,83845:0:0:0:0:
192,192,83317,1,0,0:0:0:0:
192,192,83439,128,0,83500:0:0:0:0:
192,192,83561,1,0,0:0:0:0:
64,192,83561,1,0,0:0:0:0:
64,192,83804,1,0,0:0:0:0:
320,192,83886,128,0,83940:0:0:0:0:
192,192,84018,128,0,84109:0:0:0:0:
448,192,84048,1,0,0:0:0:0:
64,192,84048,128,0,84475:0:0:0:0:
192,192,84170,128,0,84414:0:0:0:0:
320,192,84292,1,0,0:0:0:0:
448,192,84414,1,0,0:0:0:0:
448,192,84536,1,0,0:0:0:0:
320,192,84536,1,0,0:0:0:0:
64,192,84536,128,0,84617:0:0:0:0:
320,192,84658,128,0,84739:0:0:0:0:
448,192,84780,128,0,84902:0:0:0:0:
64,192,84780,1,0,0:0:0:0:
320,192,84861,128,0,84943:0:0:0:0:
448,192,85024,1,0,0:0:0:0:
320,192,85024,1,0,0:0:0:0:
64,192,85024,128,0,86091:0:0:0:0:
192,192,85024,128,0,85146:0:0:0:0:
320,192,85268,1,0,0:0:0:0:
192,192,85390,1,0,0:0:0:0:
192,192,85512,1,0,0:0:0:0:
448,192,85512,1,0,0:0:0:0:
320,192,85512,1,0,0:0:0:0:
320,192,85756,1,0,0:0:0:0:
448,192,85878,1,0,0:0:0:0:
320,192,86000,1,0,0:0:0:0:
192,192,86000,1,0,0:0:0:0:
448,192,86000,1,0,0:0:0:0:
192,192,86121,128,0,86203:0:0:0:0:
64,192,86162,128,0,86284:0:0:0:0:
448,192,86243,1,0,0:0:0:0:
320,192,86365,1,0,0:0:0:0:
192,192,86487,1,0,0:0:0:0:
448,192,86487,1,0,0:0:0:0:
64,192,86487,1,0,0:0:0:0:
192,192,86609,1,0,0:0:0:0:
320,192,86731,1,0,0:0:0:0:
192,192,86853,1,0,0:0:0:0:
320,192,86975,128,0,87097:0:0:0:0:
64,192,86975,1,0,0:0:0:0:
448,192,86975,128,0,87951:0:0:0:0:
64,192,87097,1,0,0:0:0:0:
192,192,87219,1,0,0:0:0:0:
320,192,87341,1,0,0:0:0:0:
64,192,87463,1,0,0:0:0:0:
320,192,87463,1,0,0:0:0:0:
192,192,87463,1,0,0:0:0:0:
64,192,87585,1,0,0:0:0:0:
192,192,87707,1,0,0:0:0:0:
320,192,87829,1,0,0:0:0:0:
192,192,87951,128,0,88073:0:0:0:0:
320,192,87951,1,0,0:0:0:0:
64,192,87951,128,0,88845:0:0:0:0:
448,192,88073,1,0,0:0:0:0:
448,192,88195,1,0,0:0:0:0:
192,192,88317,1,0,0:0:0:0:
448,192,88439,1,0,0:0:0:0:
320,192,88439,128,0,88561:0:0:0:0:
192,192,88520,128,0,88764:0:0:0:0:
320,192,88682,128,0,88804:0:0:0:0:
448,192,88764,128,0,88845:0:0:0:0:
320,192,88926,1,0,0:0:0:0:
64,192,88926,1,0,0:0:0:0:
448,192,88926,128,0,89170:0:0:0:0:
64,192,89170,1,0,0:0:0:0:
192,192,89211,128,0,89292:0:0:0:0:
448,192,89414,1,0,0:0:0:0:
320,192,89414,128,0,89577:0:0:0:0:
64,192,89414,1,0,0:0:0:0:
448,192,89495,128,0,89617:0:0:0:0:
64,192,89658,1,0,0:0:0:0:
192,192,89780,1,0,0:0:0:0:
64,192,89902,1,0,0:0:0:0:
320,192,89902,128,0,89983:0:0:0:0:
448,192,89943,128,0,90065:0:0:0:0:
448,192,90146,128,0,90268:0:0:0:0:
64,192,90146,1,0,0:0:0:0:
320,192,90227,128,0,90308:0:0:0:0:
448,192,90390,1,0,0:0:0:0:
64,192,90390,1,0,0:0:0:0:
320,192,90390,128,0,90512:0:0:0:0:
192,192,90451,128,0,90664:0:0:0:0:
64,192,90634,1,0,0:0:0:0:
320,192,90674,128,0,90756:0:0:0:0:
448,192,90715,128,0,90796:0:0:0:0:
448,192,90878,1,0,0:0:0:0:
64,192,90878,128,0,91304:0:0:0:0:
192,192,90878,128,0,91061:0:0:0:0:
448,192,91121,1,0,0:0:0:0:
192,192,91121,128,0,91304:0:0:0:0:
64,192,91365,1,0,0:0:0:0:
320,192,91365,128,0,91426:0:0:0:0:
448,192,91365,128,0,91792:0:0:0:0:
320,192,91487,128,0,91650:0:0:0:0:
64,192,91609,1,0,0:0:0:0:
192,192,91609,128,0,91772:0:0:0:0:
64,192,91853,1,0,0:0:0:0:
320,192,91853,1,0,0:0:0:0:
448,192,91853,128,0,92260:0:0:0:0:
320,192,92056,128,0,92260:0:0:0:0:
64,192,92097,1,0,0:0:0:0:
192,192,92178,128,0,92260:0:0:0:0:
448,192,92341,128,0,92585:0:0:0:0:
320,192,92341,1,0,0:0:0:0:
64,192,92341,128,0,92463:0:0:0:0:
192,192,92422,128,0,92504:0:0:0:0:
320,192,92585,128,0,92707:0:0:0:0:
64,192,92585,1,0,0:0:0:0:
448,192,92666,128,0,92748:0:0:0:0:
192,192,92707,128,0,92829:0:0:0:0:
448,192,92829,1,0,0:0:0:0:
320,192,92829,1,0,0:0:0:0:
64,192,92829,128,0,92890:0:0:0:0:
64,192,92951,128,0,93154:0:0:0:0:
448,192,93073,1,0,0:0:0:0:
448,192,93317,1,0,0:0:0:0:
64,192,93317,1,0,0:0:0:0:
192,192,93317,1,0,0:0:0:0:
320,192,93439,1,0,0:0:0:0:
192,192,93561,1,0,0:0:0:0:
64,192,93682,1,0,0:0:0:0:
448,192,93804,1,0,0:0:0:0:
192,192,93804,1,0,0:0:0:0:
320,192,93804,1,0,0:0:0:0:
64,192,93926,1,0,0:0:0:0:
192,192,94048,1,0,0:0:0:0:
320,192,94170,1,0,0:0:0:0:
448,192,94292,1,0,0:0:0:0:
64,192,94292,1,0,0:0:0:0:
192,192,94292,1,0,0:0:0:0:
320,192,94414,1,0,0:0:0:0:
192,192,94536,1,0,0:0:0:0:
320,192,94658,1,0,0:0:0:0:
448,192,94780,1,0,0:0:0:0:
64,192,94780,128,0,94861:0:0:0:0:
192,192,94780,128,0,94834:0:0:0:0:
192,192,94902,128,0,94983:0:0:0:0:
64,192,94943,128,0,95024:0:0:0:0:
448,192,95024,1,0,0:0:0:0:
320,192,95146,128,0,95227:0:0:0:0:
448,192,95268,1,0,0:0:0:0:
64,192,95268,128,0,95349:0:0:0:0:
192,192,95308,128,0,95430:0:0:0:0:
448,192,95512,1,0,0:0:0:0:
320,192,95634,1,0,0:0:0:0:
64,192,95756,1,0,0:0:0:0:
448,192,95756,1,0,0:0:0:0:
192,192,95756,128,0,95817:0:0:0:0:
192,192,95878,128,0,95939:0:0:0:0:
320,192,96000,128,0,96121:0:0:0:0:
64,192,96000,1,0,0:0:0:0:
448,192,96081,128,0,96162:0:0:0:0:
448,192,96243,1,0,0:0:0:0:
64,192,96243,1,0,0:0:0:0:
192,192,96243,128,0,96365:0:0:0:0:
320,192,96325,128,0,96447:0:0:0:0:
448,192,96406,128,0,96609:0:0:0:0:
64,192,96487,1,0,0:0:0:0:
320,192,96650,128,0,96731:0:0:0:0:
192,192,96731,1,0,0:0:0:0:
64,192,96731,128,0,96853:0:0:0:0:
448,192,96731,128,0,96894:0:0:0:0:
320,192,96853,128,0,96975:0:0:0:0:
192,192,96914,128,0,96975:0:0:0:0:
64,192,96975,1,0,0:0:0:0:
448,192,97097,1,0,0:0:0:0:
320,192,97219,1,0,0:0:0:0:
448,192,97219,1,0,0:0:0:0:
192,192,97219,128,0,97341:0:0:0:0:
64,192,97300,128,0,97463:0:0:0:0:
192,192,97422,128,0,97544:0:0:0:0:
448,192,97463,1,0,0:0:0:0:
320,192,97504,128,0,97585:0:0:0:0:
64,192,97707,1,0,0:0:0:0:
448,192,97707,1,0,0:0:0:0:
192,192,97707,1,0,0:0:0:0:
64,192,97829,1,0,0:0:0:0:
448,192,97951,1,0,0:0:0:0:
320,192,97951,128,0,98073:0:0:0:0:
192,192,98032,128,0,98113:0:0:0:0:
64,192,98195,128,0,98317:0:0:0:0:
448,192,98195,1,0,0:0:0:0:
320,192,98195,1,0,0:0:0:0:
320,192,98439,128,0,98561:0:0:0:0:
192,192,98439,1,0,0:0:0:0:
448,192,98520,128,0,98804:0:0:0:0:
