osu file format v14

[General]
AudioFilename: audio.ogg
AudioLeadIn: 0
PreviewTime: 52957
Countdown: 0
SampleSet: Normal
StackLeniency: 0.7
Mode: 3
LetterboxInBreaks: 0
SpecialStyle: 0
WidescreenStoryboard: 1

[Editor]
DistanceSpacing: 0.8
BeatDivisor: 12
GridSize: 8
TimelineZoom: 1.2

[Metadata]
Title:STYX HELIX (TV Size)
TitleUnicode:STYX HELIX (TV Size)
Artist:MYTH & ROID
ArtistUnicode:MYTH & ROID
Creator:Sm7sh
Version:Normal
Source:Re:ゼロから始める異世界生活
Tags:re:zero kara hajimeru isekai seikatsu life in a different world from zero KADOKAWA White Fox WintMin Ending ED ZMCZ-10605 anime japanese
BeatmapID:4001164
BeatmapSetID:1933843

[Difficulty]
HPDrainRate:7
CircleSize:4
OverallDifficulty:6.5
ApproachRate:5
SliderMultiplier:1.4
SliderTickRate:1

[Events]
//Background and Video events
0,0,"bg.jpg",0,0
//Break Periods
//Storyboard Layer 0 (Background)
//Storyboard Layer 1 (Fail)
//Storyboard Layer 2 (Pass)
//Storyboard Layer 3 (Foreground)
//Storyboard Layer 4 (Overlay)
//Storyboard Sound Samples

[TimingPoints]
1122,487.80487804878,4,1,1,20,1,0
53804,-100,4,1,1,20,0,1
85024,-100,4,1,1,20,0,0

[HitObjects]
192,192,1122,5,0,0:0:0:0:
64,192,1122,1,0,0:0:0:0:
448,192,1609,1,0,0:0:0:0:
64,192,1975,1,0,0:0:0:0:
448,192,2219,1,0,0:0:0:0:
320,192,2463,1,0,0:0:0:0:
192,192,2707,1,0,0:0:0:0:
448,192,3073,1,0,0:0:0:0:
64,192,3073,1,0,0:0:0:0:
448,192,3561,1,0,0:0:0:0:
192,192,3926,1,0,0:0:0:0:
320,192,4170,1,0,0:0:0:0:
192,192,4414,1,0,0:0:0:0:
64,192,4658,1,0,0:0:0:0:
192,192,5024,1,0,0:0:0:0:
64,192,5024,1,0,0:0:0:0:
192,192,5512,1,0,0:0:0:0:
320,192,5878,1,0,0:0:0:0:
448,192,6121,1,0,0:0:0:0:
192,192,6365,1,0,0:0:0:0:
320,192,6609,1,0,0:0:0:0:
192,192,6731,1,0,0:0:0:0:
448,192,6975,1,0,0:0:0:0:
64,192,6975,1,0,0:0:0:0:
448,192,7463,1,0,0:0:0:0:
320,192,7585,1,0,0:0:0:0:
192,192,7707,1,0,0:0:0:0:
64,192,7829,1,0,0:0:0:0:
320,192,7951,1,0,0:0:0:0:
448,192,8317,1,0,0:0:0:0:
320,192,8561,1,0,0:0:0:0:
192,192,8682,1,0,0:0:0:0:
64,192,8926,128,0,10065:0:0:0:0:
192,192,10065,1,0,0:0:0:0:
448,192,10390,1,0,0:0:0:0:
192,192,10634,128,0,10878:0:0:0:0:
64,192,10878,1,0,0:0:0:0:
448,192,10878,128,0,11121:0:0:0:0:
320,192,11121,1,0,0:0:0:0:
192,192,11365,1,0,0:0:0:0:
64,192,11365,128,0,11609:0:0:0:0:
448,192,11609,1,0,0:0:0:0:
192,192,11853,128,0,12097:0:0:0:0:
64,192,11853,1,0,0:0:0:0:
448,192,12097,1,0,0:0:0:0:
320,192,12341,1,0,0:0:0:0:
64,192,12341,128,0,12585:0:0:0:0:
192,192,12585,128,0,12829:0:0:0:0:
64,192,12829,1,0,0:0:0:0:
448,192,12829,128,0,13073:0:0:0:0:
320,192,13073,1,0,0:0:0:0:
448,192,13317,1,0,0:0:0:0:
64,192,13317,128,0,13561:0:0:0:0:
192,192,13561,1,0,0:0:0:0:
448,192,13804,1,0,0:0:0:0:
320,192,13804,128,0,14048:0:0:0:0:
192,192,14048,1,0,0:0:0:0:
448,192,14292,1,0,0:0:0:0:
64,192,14292,1,0,0:0:0:0:
320,192,14536,1,0,0:0:0:0:
64,192,14780,1,0,0:0:0:0:
192,192,14780,1,0,0:0:0:0:
192,192,15024,1,0,0:0:0:0:
64,192,15268,128,0,15512:0:0:0:0:
448,192,15268,1,0,0:0:0:0:
192,192,15512,1,0,0:0:0:0:
448,192,15756,1,0,0:0:0:0:
320,192,15756,1,0,0:0:0:0:
320,192,16000,1,0,0:0:0:0:
448,192,16243,128,0,16487:0:0:0:0:
64,192,16243,1,0,0:0:0:0:
320,192,16487,1,0,0:0:0:0:
64,192,16731,1,0,0:0:0:0:
192,192,16731,1,0,0:0:0:0:
192,192,16975,1,0,0:0:0:0:
64,192,17219,128,0,17463:0:0:0:0:
448,192,17219,128,0,17463:0:0:0:0:
320,192,17463,128,0,17707:0:0:0:0:
192,192,17707,1,0,0:0:0:0:
64,192,17707,128,0,17951:0:0:0:0:
448,192,17951,128,0,18195:0:0:0:0:
192,192,18195,1,0,0:0:0:0:
64,192,18195,128,0,18439:0:0:0:0:
320,192,18439,128,0,18682:0:0:0:0:
448,192,18682,1,0,0:0:0:0:
64,192,18682,128,0,18926:0:0:0:0:
192,192,18926,1,0,0:0:0:0:
320,192,19170,1,0,0:0:0:0:
448,192,19170,128,0,19414:0:0:0:0:
192,192,19414,1,0,0:0:0:0:
448,192,19658,1,0,0:0:0:0:
64,192,19658,128,0,19902:0:0:0:0:
320,192,19902,1,0,0:0:0:0:
64,192,20146,1,0,0:0:0:0:
448,192,20146,128,0,20390:0:0:0:0:
320,192,20390,128,0,20634:0:0:0:0:
192,192,20634,1,0,0:0:0:0:
64,192,20634,128,0,20878:0:0:0:0:
320,192,20878,1,0,0:0:0:0:
64,192,21121,1,0,0:0:0:0:
448,192,21121,128,0,21609:0:0:0:0:
320,192,21365,128,0,21609:0:0:0:0:
192,192,21609,1,0,0:0:0:0:
64,192,21609,128,0,22097:0:0:0:0:
448,192,21853,1,0,0:0:0:0:
320,192,22097,1,0,0:0:0:0:
192,192,22097,1,0,0:0:0:0:
320,192,22341,1,0,0:0:0:0:
64,192,22585,128,0,22829:0:0:0:0:
192,192,22585,1,0,0:0:0:0:
448,192,22829,1,0,0:0:0:0:
192,192,23073,1,0,0:0:0:0:
64,192,23073,128,0,23317:0:0:0:0:
448,192,23317,1,0,0:0:0:0:
320,192,23561,1,0,0:0:0:0:
448,192,23561,128,0,23804:0:0:0:0:
64,192,23804,1,0,0:0:0:0:
320,192,24048,1,0,0:0:0:0:
448,192,24048,128,0,24292:0:0:0:0:
64,192,24292,1,0,0:0:0:0:
192,192,24536,1,0,0:0:0:0:
64,192,24536,128,0,24780:0:0:0:0:
448,192,24780,1,0,0:0:0:0:
192,192,25024,1,0,0:0:0:0:
64,192,25024,128,0,25268:0:0:0:0:
448,192,25268,1,0,0:0:0:0:
448,192,25512,128,0,25756:0:0:0:0:
64,192,25512,1,0,0:0:0:0:
320,192,25756,1,0,0:0:0:0:
64,192,26000,128,0,26243:0:0:0:0:
448,192,26000,1,0,0:0:0:0:
192,192,26243,1,0,0:0:0:0:
448,192,26487,128,0,26731:0:0:0:0:
64,192,26487,1,0,0:0:0:0:
320,192,26731,1,0,0:0:0:0:
64,192,26975,128,0,27219:0:0:0:0:
448,192,26975,1,0,0:0:0:0:
192,192,27219,1,0,0:0:0:0:
448,192,27463,128,0,27707:0:0:0:0:
64,192,27463,1,0,0:0:0:0:
320,192,27707,1,0,0:0:0:0:
448,192,27951,1,0,0:0:0:0:
64,192,27951,128,0,28439:0:0:0:0:
192,192,28195,1,0,0:0:0:0:
320,192,28439,1,0,0:0:0:0:
448,192,28439,128,0,28682:0:0:0:0:
320,192,29170,1,0,0:0:0:0:
448,192,29414,1,0,0:0:0:0:
192,192,29414,128,0,29658:0:0:0:0:
448,192,29658,1,0,0:0:0:0:
64,192,29902,128,0,30207:0:0:0:0:
448,192,30390,1,0,0:0:0:0:
320,192,30390,128,0,30878:0:0:0:0:
192,192,31121,1,0,0:0:0:0:
64,192,31365,128,0,31609:0:0:0:0:
448,192,31609,1,0,0:0:0:0:
320,192,31853,1,0,0:0:0:0:
192,192,31853,128,0,32097:0:0:0:0:
192,192,32341,1,0,0:0:0:0:
64,192,32341,128,0,32829:0:0:0:0:
320,192,32829,1,0,0:0:0:0:
448,192,33073,1,0,0:0:0:0:
192,192,33195,1,0,0:0:0:0:
320,192,33317,128,0,33561:0:0:0:0:
192,192,34048,1,0,0:0:0:0:
64,192,34170,1,0,0:0:0:0:
320,192,34292,1,0,0:0:0:0:
448,192,34292,128,0,34536:0:0:0:0:
320,192,35024,1,0,0:0:0:0:
192,192,35146,1,0,0:0:0:0:
448,192,35268,1,0,0:0:0:0:
64,192,35268,128,0,35512:0:0:0:0:
320,192,35756,128,0,36000:0:0:0:0:
64,192,36243,1,0,0:0:0:0:
448,192,36243,128,0,36487:0:0:0:0:
320,192,36731,1,0,0:0:0:0:
192,192,36975,1,0,0:0:0:0:
64,192,37219,128,0,37463:0:0:0:0:
448,192,37341,1,0,0:0:0:0:
192,192,37463,1,0,0:0:0:0:
320,192,37585,1,0,0:0:0:0:
64,192,37707,128,0,38195:0:0:0:0:
448,192,37951,1,0,0:0:0:0:
192,192,38195,1,0,0:0:0:0:
320,192,38195,128,0,38439:0:0:0:0:
448,192,38439,128,0,38682:0:0:0:0:
192,192,38682,1,0,0:0:0:0:
448,192,38926,128,0,39170:0:0:0:0:
64,192,39170,128,0,39414:0:0:0:0:
320,192,39292,1,0,0:0:0:0:
192,192,39414,1,0,0:0:0:0:
448,192,39658,128,0,39902:0:0:0:0:
64,192,39902,1,0,0:0:0:0:
320,192,40024,1,0,0:0:0:0:
64,192,40146,128,0,41000:0:0:0:0:
192,192,40146,128,0,40634:0:0:0:0:
320,192,40634,1,0,0:0:0:0:
448,192,40878,1,0,0:0:0:0:
192,192,41000,128,0,41243:0:0:0:0:
448,192,41365,1,0,0:0:0:0:
64,192,41487,1,0,0:0:0:0:
192,192,41609,1,0,0:0:0:0:
448,192,41853,128,0,42097:0:0:0:0:
320,192,42097,128,0,42341:0:0:0:0:
64,192,42341,128,0,42585:0:0:0:0:
448,192,42585,1,0,0:0:0:0:
192,192,42585,128,0,42829:0:0:0:0:
320,192,42829,128,0,43073:0:0:0:0:
192,192,43073,128,0,43317:0:0:0:0:
64,192,43317,1,0,0:0:0:0:
320,192,43439,1,0,0:0:0:0:
64,192,43561,128,0,43804:0:0:0:0:
192,192,43804,128,0,44048:0:0:0:0:
64,192,44048,1,0,0:0:0:0:
448,192,44048,1,0,0:0:0:0:
192,192,44292,1,0,0:0:0:0:
320,192,44536,1,0,0:0:0:0:
448,192,44536,1,0,0:0:0:0:
320,192,44780,1,0,0:0:0:0:
64,192,45024,1,0,0:0:0:0:
448,192,45024,1,0,0:0:0:0:
320,192,45268,1,0,0:0:0:0:
64,192,45512,1,0,0:0:0:0:
192,192,45512,1,0,0:0:0:0:
192,192,45756,1,0,0:0:0:0:
448,192,46000,128,0,46243:0:0:0:0:
64,192,46000,1,0,0:0:0:0:
192,192,46243,1,0,0:0:0:0:
320,192,46487,1,0,0:0:0:0:
448,192,46487,128,0,46975:0:0:0:0:
320,192,46731,128,0,46975:0:0:0:0:
192,192,46975,128,0,47341:0:0:0:0:
64,192,47463,128,0,47951:0:0:0:0:
320,192,47951,128,0,48439:0:0:0:0:
448,192,47951,128,0,48926:0:0:0:0:
64,192,48439,1,0,0:0:0:0:
192,192,48926,128,0,49414:0:0:0:0:
64,192,48926,128,0,49902:0:0:0:0:
448,192,49170,1,0,0:0:0:0:
320,192,49414,1,0,0:0:0:0:
192,192,49658,1,0,0:0:0:0:
320,192,49902,128,0,50390:0:0:0:0:
448,192,49902,128,0,51365:0:0:0:0:
64,192,50146,1,0,0:0:0:0:
192,192,50390,1,0,0:0:0:0:
320,192,50634,1,0,0:0:0:0:
64,192,50878,1,0,0:0:0:0:
64,192,51121,1,0,0:0:0:0:
320,192,51365,128,0,51853:0:0:0:0:
192,192,51609,128,0,51853:0:0:0:0:
192,192,52991,1,0,0:0:0:0:
448,192,53317,1,0,0:0:0:0:
192,192,53561,128,0,53804:0:0:0:0:
320,192,53804,1,0,0:0:0:0:
448,192,53804,128,0,54048:0:0:0:0:
64,192,54048,1,0,0:0:0:0:
320,192,54292,1,0,0:0:0:0:
192,192,54292,128,0,54536:0:0:0:0:
448,192,54536,1,0,0:0:0:0:
192,192,54780,128,0,55024:0:0:0:0:
64,192,54780,1,0,0:0:0:0:
448,192,55024,1,0,0:0:0:0:
320,192,55268,1,0,0:0:0:0:
448,192,55268,128,0,55512:0:0:0:0:
192,192,55512,128,0,55756:0:0:0:0:
64,192,55756,1,0,0:0:0:0:
448,192,55756,128,0,56000:0:0:0:0:
192,192,56000,1,0,0:0:0:0:
448,192,56243,1,0,0:0:0:0:
64,192,56243,128,0,56487:0:0:0:0:
192,192,56487,1,0,0:0:0:0:
448,192,56731,1,0,0:0:0:0:
320,192,56731,128,0,56975:0:0:0:0:
64,192,56975,1,0,0:0:0:0:
320,192,57219,1,0,0:0:0:0:
192,192,57219,1,0,0:0:0:0:
448,192,57463,128,0,57707:0:0:0:0:
192,192,57707,1,0,0:0:0:0:
64,192,57707,128,0,57951:0:0:0:0:
448,192,57951,1,0,0:0:0:0:
320,192,58073,1,0,0:0:0:0:
192,192,58195,128,0,58439:0:0:0:0:
64,192,58195,1,0,0:0:0:0:
64,192,58439,128,0,58682:0:0:0:0:
320,192,58682,1,0,0:0:0:0:
448,192,58682,128,0,58926:0:0:0:0:
64,192,58926,1,0,0:0:0:0:
192,192,59048,1,0,0:0:0:0:
448,192,59170,128,0,59414:0:0:0:0:
320,192,59170,1,0,0:0:0:0:
64,192,59414,128,0,59658:0:0:0:0:
448,192,59658,1,0,0:0:0:0:
320,192,59658,1,0,0:0:0:0:
192,192,59902,128,0,60146:0:0:0:0:
448,192,60146,128,0,60390:0:0:0:0:
64,192,60146,1,0,0:0:0:0:
320,192,60390,128,0,60634:0:0:0:0:
448,192,60634,1,0,0:0:0:0:
64,192,60634,128,0,61121:0:0:0:0:
320,192,61121,1,0,0:0:0:0:
448,192,61121,128,0,61365:0:0:0:0:
64,192,61365,1,0,0:0:0:0:
448,192,61609,128,0,61853:0:0:0:0:
320,192,61609,1,0,0:0:0:0:
64,192,61853,128,0,62097:0:0:0:0:
320,192,62097,128,0,62341:0:0:0:0:
448,192,62097,1,0,0:0:0:0:
64,192,62341,1,0,0:0:0:0:
448,192,62585,1,0,0:0:0:0:
320,192,62585,128,0,62829:0:0:0:0:
192,192,62829,128,0,63073:0:0:0:0:
448,192,63073,1,0,0:0:0:0:
64,192,63073,1,0,0:0:0:0:
320,192,63317,128,0,63561:0:0:0:0:
192,192,63561,1,0,0:0:0:0:
64,192,63561,128,0,63804:0:0:0:0:
448,192,63804,128,0,64048:0:0:0:0:
64,192,64048,1,0,0:0:0:0:
192,192,64048,128,0,64292:0:0:0:0:
320,192,64292,1,0,0:0:0:0:
448,192,64536,1,0,0:0:0:0:
64,192,64536,128,0,64780:0:0:0:0:
320,192,64902,1,0,0:0:0:0:
64,192,65024,1,0,0:0:0:0:
448,192,65024,128,0,65268:0:0:0:0:
192,192,65268,128,0,65512:0:0:0:0:
448,192,65512,128,0,66487:0:0:0:0:
320,192,65512,1,0,0:0:0:0:
192,192,65756,1,0,0:0:0:0:
320,192,66000,1,0,0:0:0:0:
64,192,66000,1,0,0:0:0:0:
64,192,66243,1,0,0:0:0:0:
320,192,66487,1,0,0:0:0:0:
192,192,66487,1,0,0:0:0:0:
448,192,66731,1,0,0:0:0:0:
192,192,66975,1,0,0:0:0:0:
64,192,66975,1,0,0:0:0:0:
448,192,67219,128,0,67463:0:0:0:0:
64,192,67463,128,0,68439:0:0:0:0:
192,192,67463,1,0,0:0:0:0:
192,192,67707,1,0,0:0:0:0:
320,192,67951,1,0,0:0:0:0:
448,192,67951,1,0,0:0:0:0:
192,192,68195,128,0,68439:0:0:0:0:
320,192,68439,1,0,0:0:0:0:
448,192,68439,1,0,0:0:0:0:
320,192,68682,128,0,68926:0:0:0:0:
192,192,68926,1,0,0:0:0:0:
64,192,68926,128,0,69170:0:0:0:0:
320,192,69170,128,0,69414:0:0:0:0:
448,192,69414,1,0,0:0:0:0:
64,192,69414,128,0,69658:0:0:0:0:
192,192,69658,1,0,0:0:0:0:
320,192,69902,1,0,0:0:0:0:
448,192,69902,128,0,70146:0:0:0:0:
192,192,70146,1,0,0:0:0:0:
448,192,70390,1,0,0:0:0:0:
64,192,70390,128,0,70634:0:0:0:0:
192,192,70634,1,0,0:0:0:0:
64,192,70878,1,0,0:0:0:0:
448,192,70878,128,0,71121:0:0:0:0:
320,192,71121,128,0,71365:0:0:0:0:
192,192,71365,1,0,0:0:0:0:
64,192,71365,128,0,71609:0:0:0:0:
320,192,71609,128,0,71853:0:0:0:0:
64,192,71853,1,0,0:0:0:0:
448,192,71853,128,0,72341:0:0:0:0:
320,192,72097,128,0,72341:0:0:0:0:
192,192,72341,1,0,0:0:0:0:
64,192,72341,128,0,72829:0:0:0:0:
320,192,72585,1,0,0:0:0:0:
192,192,72829,1,0,0:0:0:0:
448,192,72829,1,0,0:0:0:0:
320,192,73073,128,0,73317:0:0:0:0:
192,192,73317,1,0,0:0:0:0:
64,192,73317,128,0,73561:0:0:0:0:
448,192,73561,1,0,0:0:0:0:
320,192,73682,1,0,0:0:0:0:
192,192,73804,128,0,74048:0:0:0:0:
64,192,73804,1,0,0:0:0:0:
64,192,74048,128,0,74292:0:0:0:0:
320,192,74292,1,0,0:0:0:0:
448,192,74292,128,0,74536:0:0:0:0:
64,192,74536,1,0,0:0:0:0:
192,192,74658,1,0,0:0:0:0:
320,192,74780,1,0,0:0:0:0:
448,192,74780,128,0,75024:0:0:0:0:
192,192,75024,128,0,75268:0:0:0:0:
320,192,75268,128,0,75512:0:0:0:0:
448,192,75268,1,0,0:0:0:0:
192,192,75512,1,0,0:0:0:0:
64,192,75756,1,0,0:0:0:0:
448,192,75756,128,0,76000:0:0:0:0:
320,192,76000,1,0,0:0:0:0:
192,192,76121,1,0,0:0:0:0:
64,192,76243,128,0,76487:0:0:0:0:
448,192,76243,1,0,0:0:0:0:
192,192,76487,1,0,0:0:0:0:
320,192,76731,1,0,0:0:0:0:
448,192,76731,128,0,76975:0:0:0:0:
64,192,76975,1,0,0:0:0:0:
192,192,77097,1,0,0:0:0:0:
448,192,77219,1,0,0:0:0:0:
320,192,77219,1,0,0:0:0:0:
320,192,77463,1,0,0:0:0:0:
448,192,77707,1,0,0:0:0:0:
64,192,77707,128,0,78195:0:0:0:0:
192,192,77951,1,0,0:0:0:0:
320,192,78195,1,0,0:0:0:0:
448,192,78195,128,0,78439:0:0:0:0:
64,192,78439,1,0,0:0:0:0:
192,192,78682,1,0,0:0:0:0:
448,192,78682,128,0,78926:0:0:0:0:
320,192,78926,1,0,0:0:0:0:
192,192,79170,1,0,0:0:0:0:
64,192,79170,128,0,79414:0:0:0:0:
448,192,79414,1,0,0:0:0:0:
448,192,79658,1,0,0:0:0:0:
64,192,79658,1,0,0:0:0:0:
320,192,79902,1,0,0:0:0:0:
192,192,80146,1,0,0:0:0:0:
64,192,80146,128,0,80512:0:0:0:0:
448,192,80390,1,0,0:0:0:0:
192,192,80512,1,0,0:0:0:0:
448,192,80634,1,0,0:0:0:0:
320,192,80634,128,0,80878:0:0:0:0:
192,192,80878,128,0,81121:0:0:0:0:
448,192,81121,1,0,0:0:0:0:
64,192,81121,128,0,81609:0:0:0:0:
192,192,81365,128,0,81609:0:0:0:0:
320,192,81609,1,0,0:0:0:0:
448,192,81609,1,0,0:0:0:0:
448,192,81853,1,0,0:0:0:0:
320,192,81975,1,0,0:0:0:0:
64,192,82097,1,0,0:0:0:0:
192,192,82097,128,0,82585:0:0:0:0:
320,192,82341,128,0,82585:0:0:0:0:
64,192,82585,1,0,0:0:0:0:
448,192,82585,1,0,0:0:0:0:
192,192,82829,128,0,83073:0:0:0:0:
64,192,83073,1,0,0:0:0:0:
320,192,83073,128,0,83317:0:0:0:0:
448,192,83317,128,0,83804:0:0:0:0:
192,192,83561,1,0,0:0:0:0:
64,192,83561,1,0,0:0:0:0:
320,192,83804,1,0,0:0:0:0:
448,192,84048,1,0,0:0:0:0:
64,192,84048,128,0,84536:0:0:0:0:
192,192,84292,1,0,0:0:0:0:
448,192,84536,1,0,0:0:0:0:
320,192,84536,1,0,0:0:0:0:
192,192,84780,1,0,0:0:0:0:
320,192,84902,1,0,0:0:0:0:
64,192,85024,128,0,85756:0:0:0:0:
448,192,85024,1,0,0:0:0:0:
192,192,85268,1,0,0:0:0:0:
448,192,85512,1,0,0:0:0:0:
320,192,85512,1,0,0:0:0:0:
192,192,85756,1,0,0:0:0:0:
64,192,86000,1,0,0:0:0:0:
448,192,86000,1,0,0:0:0:0:
320,192,86243,1,0,0:0:0:0:
64,192,86487,1,0,0:0:0:0:
448,192,86487,1,0,0:0:0:0:
192,192,86731,1,0,0:0:0:0:
320,192,86975,128,0,87219:0:0:0:0:
448,192,86975,128,0,87951:0:0:0:0:
192,192,87219,1,0,0:0:0:0:
320,192,87463,1,0,0:0:0:0:
64,192,87463,1,0,0:0:0:0:
192,192,87707,1,0,0:0:0:0:
320,192,87951,128,0,88195:0:0:0:0:
64,192,87951,128,0,88926:0:0:0:0:
192,192,88195,1,0,0:0:0:0:
320,192,88439,1,0,0:0:0:0:
448,192,88439,128,0,88926:0:0:0:0:
320,192,88682,128,0,88926:0:0:0:0:
192,192,88926,128,0,89170:0:0:0:0:
64,192,89170,128,0,89414:0:0:0:0:
320,192,89414,128,0,89658:0:0:0:0:
448,192,89414,1,0,0:0:0:0:
448,192,89658,1,0,0:0:0:0:
192,192,89902,1,0,0:0:0:0:
64,192,89902,128,0,90146:0:0:0:0:
448,192,90146,128,0,90390:0:0:0:0:
64,192,90390,1,0,0:0:0:0:
192,192,90390,128,0,90878:0:0:0:0:
320,192,90634,128,0,90878:0:0:0:0:
448,192,90878,1,0,0:0:0:0:
64,192,90878,128,0,91121:0:0:0:0:
192,192,91121,1,0,0:0:0:0:
448,192,91365,128,0,91609:0:0:0:0:
320,192,91365,1,0,0:0:0:0:
64,192,91609,1,0,0:0:0:0:
192,192,91853,128,0,92097:0:0:0:0:
320,192,91853,1,0,0:0:0:0:
448,192,92097,1,0,0:0:0:0:
192,192,92341,1,0,0:0:0:0:
64,192,92341,128,0,92585:0:0:0:0:
320,192,92585,1,0,0:0:0:0:
64,192,92829,1,0,0:0:0:0:
448,192,92829,1,0,0:0:0:0:
192,192,93073,1,0,0:0:0:0:
448,192,93317,1,0,0:0:0:0:
320,192,93317,1,0,0:0:0:0:
64,192,93561,1,0,0:0:0:0:
64,192,93804,1,0,0:0:0:0:
448,192,93804,1,0,0:0:0:0:
320,192,94048,1,0,0:0:0:0:
192,192,94292,1,0,0:0:0:0:
64,192,94292,1,0,0:0:0:0:
192,192,94536,1,0,0:0:0:0:
64,192,94780,128,0,95024:0:0:0:0:
448,192,94780,1,0,0:0:0:0:
320,192,95024,128,0,95268:0:0:0:0:
192,192,95268,1,0,0:0:0:0:
64,192,95268,128,0,95512:0:0:0:0:
448,192,95512,1,0,0:0:0:0:
320,192,95756,1,0,0:0:0:0:
64,192,95756,128,0,96000:0:0:0:0:
448,192,96000,128,0,96243:0:0:0:0:
64,192,96243,1,0,0:0:0:0:
320,192,96243,128,0,96487:0:0:0:0:
448,192,96487,128,0,96731:0:0:0:0:
192,192,96731,1,0,0:0:0:0:
64,192,96731,128,0,96975:0:0:0:0:
320,192,96975,128,0,97219:0:0:0:0:
64,192,97219,128,0,97463:0:0:0:0:
448,192,97219,1,0,0:0:0:0:
320,192,97463,1,0,0:0:0:0:
64,192,97707,1,0,0:0:0:0:
192,192,97707,1,0,0:0:0:0:
320,192,97951,128,0,98195:0:0:0:0:
64,192,98195,128,0,98439:0:0:0:0:
448,192,98195,1,0,0:0:0:0:
448,192,98439,128,0,98804:0:0:0:0:
