osu file format v14

[General]
AudioFilename: audio.mp3
AudioLeadIn: 0
PreviewTime: -1
Countdown: 1
SampleSet: Soft
StackLeniency: 0.7
Mode: 3
LetterboxInBreaks: 0
SpecialStyle: 0
WidescreenStoryboard: 0

[Editor]
DistanceSpacing: 0.5
BeatDivisor: 8
GridSize: 16
TimelineZoom: 2.1

[Metadata]
Title:STRAIGHT BET
TitleUnicode:STRAIGHT BET
Artist:MYTH & ROID
ArtistUnicode:MYTH & ROID
Creator:Mapper007
Version:Sage
Source:
Tags:
BeatmapID:1408031
BeatmapSetID:665288

[Difficulty]
HPDrainRate:8
CircleSize:4
OverallDifficulty:8
ApproachRate:5
SliderMultiplier:1.4
SliderTickRate:1

[Events]
//Background and Video events
0,0,"733070.jpg",0,0
//Break Periods
//Storyboard Layer 0 (Background)
//Storyboard Layer 1 (Fail)
//Storyboard Layer 2 (Pass)
//Storyboard Layer 3 (Foreground)
//Storyboard Sound Samples

[TimingPoints]
468,705.882352941176,4,3,1,50,1,0
820,-100,4,2,0,30,0,0
10615,-80,4,2,0,30,0,0
10791,-66.6666666666667,4,2,0,30,0,0
10967,-80,4,2,0,30,0,0
14938,352.941176470588,4,2,1,50,1,0
16967,-111.111111111111,4,2,1,50,0,0
17143,-100,4,2,1,50,0,0
65408,-100,4,2,1,50,0,1
85176,-100,4,2,1,50,0,0
90475,-100,4,2,1,50,0,0
96335,-111.111111111111,4,2,1,50,0,0
96423,-117.647058823529,4,2,1,50,0,0
96511,-125,4,2,1,50,0,0
104893,-117.647058823529,4,2,1,50,0,0
105026,-111.111111111111,4,2,1,50,0,0
105158,-100,4,2,1,50,0,0
113408,-100,4,2,1,50,0,1
123114,-100,4,2,1,50,0,1
155761,-100,4,2,1,50,0,0
182585,-100,4,2,1,50,0,1
192290,-100,4,2,1,50,0,1
224982,-100,4,2,1,50,0,1

[HitObjects]
64,192,468,5,8,0:0:0:0:
448,192,468,1,8,0:0:0:0:
320,192,820,1,0,0:0:0:0:
64,192,1173,1,0,0:0:0:0:
320,192,1526,1,0,0:0:0:0:
64,192,1879,1,0,0:0:0:0:
448,192,1879,1,0,0:0:0:0:
192,192,2056,1,0,0:0:0:0:
320,192,2232,1,0,0:0:0:0:
448,192,2585,1,0,0:0:0:0:
320,192,2762,1,0,0:0:0:0:
64,192,2938,1,0,0:0:0:0:
192,192,3115,1,0,0:0:0:0:
448,192,3291,1,0,0:0:0:0:
320,192,3644,1,0,0:0:0:0:
448,192,3997,1,0,0:0:0:0:
64,192,3997,1,0,0:0:0:0:
64,192,4350,1,0,0:0:0:0:
448,192,4526,1,0,0:0:0:0:
320,192,4615,1,0,0:0:0:0:
192,192,4703,1,0,0:0:0:0:
320,192,4879,1,0,0:0:0:0:
448,192,5056,1,0,0:0:0:0:
64,192,5056,1,0,0:0:0:0:
320,192,5409,1,0,0:0:0:0:
64,192,5409,1,0,0:0:0:0:
192,192,5585,1,0,0:0:0:0:
320,192,5762,1,0,0:0:0:0:
448,192,5938,1,0,0:0:0:0:
192,192,6115,1,0,0:0:0:0:
320,192,6115,1,0,0:0:0:0:
64,192,6467,1,0,0:0:0:0:
192,192,6644,1,0,0:0:0:0:
320,192,6820,1,0,0:0:0:0:
320,192,7173,1,0,0:0:0:0:
448,192,7526,1,0,0:0:0:0:
64,192,7526,1,0,0:0:0:0:
192,192,7879,1,0,0:0:0:0:
448,192,8232,1,0,0:0:0:0:
320,192,8409,1,0,0:0:0:0:
192,192,8585,1,0,0:0:0:0:
320,192,8938,1,0,0:0:0:0:
64,192,8938,1,0,0:0:0:0:
192,192,9291,1,0,0:0:0:0:
320,192,9467,1,0,0:0:0:0:
448,192,9644,1,0,0:0:0:0:
64,192,9997,1,0,0:0:0:0:
320,192,10350,1,0,0:0:0:0:
192,192,10350,1,0,0:0:0:0:
448,192,10703,1,0,0:0:0:0:
320,192,10879,1,0,0:0:0:0:
192,192,11056,128,0,13703:0:0:0:0:
64,192,13703,1,0,0:0:0:0:
448,192,13703,1,0,0:0:0:0:
64,192,14938,1,8,0:0:0:0:
448,192,14938,1,8,0:0:0:0:
320,192,15820,1,8,0:0:0:0:
192,192,15820,1,12,0:0:0:0:
64,192,17055,1,0,0:0:0:0:
192,192,17232,1,0,0:0:0:0:
64,192,17408,1,8,0:0:0:0:
320,192,17408,1,8,0:0:0:0:
192,192,17761,1,8,0:0:0:0:
320,192,17761,1,8,0:0:0:0:
448,192,17938,1,0,0:0:0:0:
64,192,18114,1,8,0:0:0:0:
320,192,18114,1,8,0:0:0:0:
192,192,18290,1,0,0:0:0:0:
448,192,18467,1,8,0:0:0:0:
320,192,18467,1,8,0:0:0:0:
192,192,18643,1,0,0:0:0:0:
64,192,18820,1,8,0:0:0:0:
448,192,18820,1,8,0:0:0:0:
320,192,18996,1,0,0:0:0:0:
448,192,19173,1,8,0:0:0:0:
192,192,19173,1,8,0:0:0:0:
320,192,19349,1,0,0:0:0:0:
64,192,19526,1,8,0:0:0:0:
192,192,19526,1,8,0:0:0:0:
320,192,19702,1,0,0:0:0:0:
448,192,19879,1,8,0:0:0:0:
64,192,19879,1,8,0:0:0:0:
192,192,20055,1,0,0:0:0:0:
320,192,20232,1,8,0:0:0:0:
64,192,20232,1,8,0:0:0:0:
192,192,20408,1,0,0:0:0:0:
448,192,20585,1,8,0:0:0:0:
320,192,20585,1,8,0:0:0:0:
192,192,20761,1,0,0:0:0:0:
448,192,20937,1,8,0:0:0:0:
64,192,20937,1,8,0:0:0:0:
320,192,21114,1,0,0:0:0:0:
192,192,21290,1,8,0:0:0:0:
448,192,21290,1,8,0:0:0:0:
320,192,21467,1,0,0:0:0:0:
192,192,21643,1,8,0:0:0:0:
64,192,21643,1,8,0:0:0:0:
320,192,21820,1,0,0:0:0:0:
192,192,21996,1,8,0:0:0:0:
448,192,21996,1,8,0:0:0:0:
320,192,22173,1,0,0:0:0:0:
192,192,22261,1,0,0:0:0:0:
64,192,22349,1,8,0:0:0:0:
448,192,22349,1,8,0:0:0:0:
320,192,22526,1,0,0:0:0:0:
192,192,22702,1,8,0:0:0:0:
448,192,22702,1,8,0:0:0:0:
320,192,22879,1,0,0:0:0:0:
64,192,23055,1,8,0:0:0:0:
448,192,23055,1,8,0:0:0:0:
192,192,23232,1,0,0:0:0:0:
64,192,23408,1,8,0:0:0:0:
320,192,23408,1,8,0:0:0:0:
192,192,23585,1,0,0:0:0:0:
448,192,23761,1,8,0:0:0:0:
320,192,23761,1,8,0:0:0:0:
192,192,23937,1,0,0:0:0:0:
64,192,24114,1,8,0:0:0:0:
320,192,24114,1,8,0:0:0:0:
192,192,24290,1,0,0:0:0:0:
448,192,24467,1,8,0:0:0:0:
64,192,24467,1,8,0:0:0:0:
64,192,25879,1,8,0:0:0:0:
448,192,25879,1,8,0:0:0:0:
192,192,25967,1,2,0:0:0:0:
320,192,26055,1,2,0:0:0:0:
64,192,26055,1,2,0:0:0:0:
192,192,26143,1,2,0:0:0:0:
448,192,26232,1,8,0:0:0:0:
64,192,26232,1,8,0:0:0:0:
320,192,26320,1,2,0:0:0:0:
192,192,26408,1,2,0:0:0:0:
448,192,26408,1,2,0:0:0:0:
320,192,26496,1,2,0:0:0:0:
448,192,26585,1,8,0:0:0:0:
64,192,26585,1,8,0:0:0:0:
192,192,26673,1,2,0:0:0:0:
64,192,26761,1,2,0:0:0:0:
320,192,26761,1,2,0:0:0:0:
192,192,26849,1,2,0:0:0:0:
448,192,26937,1,8,0:0:0:0:
64,192,26937,1,8,0:0:0:0:
320,192,27026,1,2,0:0:0:0:
192,192,27114,1,2,0:0:0:0:
448,192,27114,1,2,0:0:0:0:
320,192,27202,1,2,0:0:0:0:
64,192,27290,1,8,0:0:0:0:
448,192,27290,1,8,0:0:0:0:
320,192,27467,1,0,0:0:0:0:
64,192,27643,1,8,0:0:0:0:
448,192,27643,1,8,0:0:0:0:
192,192,27820,1,2,0:0:0:0:
64,192,27996,1,8,0:0:0:0:
320,192,27996,1,8,0:0:0:0:
192,192,28173,1,0,0:0:0:0:
64,192,28349,1,8,0:0:0:0:
448,192,28349,1,8,0:0:0:0:
320,192,28526,1,0,0:0:0:0:
64,192,28702,1,8,0:0:0:0:
448,192,28702,1,8,0:0:0:0:
192,192,28790,1,2,0:0:0:0:
320,192,28879,1,0,0:0:0:0:
64,192,28879,1,0,0:0:0:0:
192,192,28967,1,2,0:0:0:0:
448,192,29055,1,8,0:0:0:0:
64,192,29055,1,8,0:0:0:0:
320,192,29143,1,2,0:0:0:0:
192,192,29232,1,2,0:0:0:0:
448,192,29232,1,2,0:0:0:0:
320,192,29320,1,2,0:0:0:0:
448,192,29408,1,8,0:0:0:0:
64,192,29408,1,8,0:0:0:0:
192,192,29496,1,2,0:0:0:0:
320,192,29585,1,2,0:0:0:0:
64,192,29585,1,2,0:0:0:0:
192,192,29673,1,2,0:0:0:0:
64,192,29761,1,8,0:0:0:0:
448,192,29761,1,8,0:0:0:0:
320,192,29849,1,2,0:0:0:0:
192,192,29937,1,2,0:0:0:0:
448,192,29937,1,2,0:0:0:0:
320,192,30026,1,2,0:0:0:0:
64,192,30114,1,8,0:0:0:0:
448,192,30114,1,8,0:0:0:0:
192,192,30290,1,0,0:0:0:0:
64,192,30467,1,8,0:0:0:0:
320,192,30467,1,8,0:0:0:0:
192,192,30643,1,0,0:0:0:0:
448,192,30820,1,8,0:0:0:0:
64,192,30820,1,8,0:0:0:0:
320,192,30996,1,0,0:0:0:0:
448,192,31173,1,8,0:0:0:0:
192,192,31173,1,8,0:0:0:0:
320,192,31349,1,0,0:0:0:0:
64,192,31526,1,8,0:0:0:0:
448,192,31526,1,8,0:0:0:0:
192,192,31614,1,2,0:0:0:0:
320,192,31702,1,0,0:0:0:0:
64,192,31702,1,2,0:0:0:0:
192,192,31790,1,2,0:0:0:0:
448,192,31879,1,8,0:0:0:0:
64,192,31879,1,8,0:0:0:0:
320,192,31967,1,2,0:0:0:0:
192,192,32055,1,2,0:0:0:0:
448,192,32055,1,0,0:0:0:0:
320,192,32143,1,2,0:0:0:0:
64,192,32232,1,8,0:0:0:0:
448,192,32232,1,8,0:0:0:0:
192,192,32320,1,2,0:0:0:0:
64,192,32408,1,2,0:0:0:0:
320,192,32408,1,2,0:0:0:0:
192,192,32496,1,0,0:0:0:0:
448,192,32585,1,0,0:0:0:0:
64,192,32585,1,8,0:0:0:0:
320,192,32673,1,2,0:0:0:0:
192,192,32761,1,10,0:0:0:0:
448,192,32761,1,2,0:0:0:0:
320,192,32849,1,2,0:0:0:0:
64,192,32937,1,8,0:0:0:0:
448,192,32937,1,8,0:0:0:0:
192,192,33114,1,0,0:0:0:0:
448,192,33290,1,8,0:0:0:0:
64,192,33290,1,8,0:0:0:0:
320,192,33467,1,0,0:0:0:0:
192,192,33643,1,8,0:0:0:0:
448,192,33643,1,8,0:0:0:0:
320,192,33820,1,0,0:0:0:0:
64,192,33996,1,8,0:0:0:0:
448,192,33996,1,8,0:0:0:0:
192,192,34173,1,0,0:0:0:0:
448,192,34349,1,8,0:0:0:0:
64,192,34349,1,8,0:0:0:0:
192,192,34437,1,2,0:0:0:0:
320,192,34526,1,0,0:0:0:0:
64,192,34526,1,2,0:0:0:0:
192,192,34614,1,2,0:0:0:0:
64,192,34702,1,8,0:0:0:0:
448,192,34702,1,8,0:0:0:0:
320,192,34790,1,2,0:0:0:0:
192,192,34879,1,0,0:0:0:0:
448,192,34879,1,2,0:0:0:0:
320,192,34967,1,0,0:0:0:0:
448,192,35055,1,8,0:0:0:0:
64,192,35055,1,8,0:0:0:0:
192,192,35143,1,2,0:0:0:0:
320,192,35232,1,2,0:0:0:0:
64,192,35232,1,2,0:0:0:0:
192,192,35320,1,0,0:0:0:0:
448,192,35408,1,8,0:0:0:0:
64,192,35408,1,8,0:0:0:0:
320,192,35496,1,2,0:0:0:0:
192,192,35585,1,8,0:0:0:0:
448,192,35585,1,2,0:0:0:0:
320,192,35673,1,0,0:0:0:0:
448,192,35761,1,8,0:0:0:0:
64,192,35761,1,8,0:0:0:0:
192,192,35937,1,0,0:0:0:0:
64,192,36114,1,8,0:0:0:0:
320,192,36114,1,8,0:0:0:0:
192,192,36290,1,0,0:0:0:0:
448,192,36467,1,8,0:0:0:0:
64,192,36467,1,8,0:0:0:0:
320,192,36643,1,0,0:0:0:0:
448,192,36820,1,8,0:0:0:0:
192,192,36820,1,8,0:0:0:0:
320,192,36996,1,0,0:0:0:0:
64,192,37173,1,8,0:0:0:0:
448,192,37173,1,8,0:0:0:0:
192,192,37349,1,0,0:0:0:0:
320,192,37526,1,8,0:0:0:0:
192,192,37526,128,8,37702:0:0:0:0:
448,192,37702,128,0,37879:0:0:0:0:
320,192,37879,1,8,0:0:0:0:
64,192,37879,1,8,0:0:0:0:
192,192,38055,1,0,0:0:0:0:
64,192,38232,1,8,0:0:0:0:
320,192,38232,128,8,38408:0:0:0:0:
192,192,38408,128,0,38585:0:0:0:0:
64,192,38585,1,8,0:0:0:0:
448,192,38585,1,8,0:0:0:0:
320,192,38761,1,0,0:0:0:0:
448,192,38937,1,8,0:0:0:0:
64,192,38937,1,8,0:0:0:0:
192,192,39114,1,0,0:0:0:0:
64,192,39290,1,8,0:0:0:0:
320,192,39290,1,8,0:0:0:0:
192,192,39467,1,0,0:0:0:0:
448,192,39643,1,8,0:0:0:0:
64,192,39643,1,8,0:0:0:0:
192,192,39820,1,0,0:0:0:0:
320,192,39908,1,0,0:0:0:0:
64,192,39996,1,8,0:0:0:0:
448,192,39996,1,8,0:0:0:0:
320,192,40173,1,0,0:0:0:0:
448,192,40349,1,8,0:0:0:0:
64,192,40349,1,8,0:0:0:0:
192,192,40526,1,0,0:0:0:0:
64,192,40702,1,8,0:0:0:0:
320,192,40702,1,8,0:0:0:0:
192,192,40879,1,0,0:0:0:0:
448,192,41055,1,8,0:0:0:0:
64,192,41055,1,8,0:0:0:0:
320,192,41232,1,0,0:0:0:0:
192,192,41408,1,8,0:0:0:0:
448,192,41408,1,8,0:0:0:0:
320,192,41585,1,0,0:0:0:0:
64,192,41761,1,8,0:0:0:0:
448,192,41761,1,8,0:0:0:0:
192,192,41937,1,0,0:0:0:0:
320,192,42114,1,8,0:0:0:0:
64,192,42114,1,8,0:0:0:0:
192,192,42290,1,0,0:0:0:0:
64,192,42467,1,8,0:0:0:0:
448,192,42467,1,8,0:0:0:0:
320,192,42643,1,0,0:0:0:0:
192,192,42732,1,0,0:0:0:0:
64,192,42820,1,8,0:0:0:0:
448,192,42820,1,8,0:0:0:0:
192,192,42996,1,0,0:0:0:0:
64,192,43173,1,8,0:0:0:0:
320,192,43173,1,8,0:0:0:0:
192,192,43349,1,0,0:0:0:0:
64,192,43526,1,8,0:0:0:0:
448,192,43526,1,8,0:0:0:0:
320,192,43702,1,0,0:0:0:0:
448,192,43879,1,8,0:0:0:0:
192,192,43879,1,8,0:0:0:0:
320,192,44055,1,0,0:0:0:0:
64,192,44232,1,8,0:0:0:0:
448,192,44232,1,8,0:0:0:0:
192,192,44408,1,0,0:0:0:0:
64,192,44585,1,8,0:0:0:0:
320,192,44585,1,8,0:0:0:0:
192,192,44761,1,0,0:0:0:0:
64,192,44937,1,8,0:0:0:0:
448,192,44937,1,8,0:0:0:0:
320,192,45114,1,0,0:0:0:0:
192,192,45290,1,8,0:0:0:0:
448,192,45290,1,8,0:0:0:0:
320,192,45467,1,0,0:0:0:0:
192,192,45555,1,0,0:0:0:0:
64,192,45643,1,8,0:0:0:0:
448,192,45643,1,8,0:0:0:0:
192,192,45820,1,0,0:0:0:0:
320,192,45996,1,8,0:0:0:0:
64,192,45996,1,8,0:0:0:0:
192,192,46173,1,0,0:0:0:0:
448,192,46349,1,8,0:0:0:0:
64,192,46349,1,8,0:0:0:0:
320,192,46526,1,0,0:0:0:0:
192,192,46702,1,8,0:0:0:0:
448,192,46702,1,8,0:0:0:0:
320,192,46879,1,0,0:0:0:0:
448,192,47055,1,8,0:0:0:0:
64,192,47055,1,8,0:0:0:0:
192,192,47232,1,0,0:0:0:0:
64,192,47408,1,8,0:0:0:0:
320,192,47408,1,8,0:0:0:0:
192,192,47585,1,0,0:0:0:0:
448,192,47761,1,8,0:0:0:0:
64,192,47761,1,8,0:0:0:0:
320,192,47937,1,0,0:0:0:0:
192,192,48114,5,10,0:0:0:0:
448,192,48114,1,10,0:0:0:0:
64,192,48290,1,10,0:0:0:0:
192,192,48290,1,10,0:0:0:0:
448,192,48379,1,10,0:0:0:0:
320,192,48379,1,10,0:0:0:0:
64,192,48467,1,10,0:0:0:0:
192,192,48467,1,10,0:0:0:0:
64,192,48732,1,8,0:0:0:0:
320,192,48996,1,8,0:0:0:0:
192,192,49173,1,8,0:0:0:0:
448,192,49173,1,8,0:0:0:0:
320,192,49349,1,8,0:0:0:0:
192,192,49437,1,8,0:0:0:0:
448,192,49526,1,2,0:0:0:0:
64,192,49570,1,2,0:0:0:0:
320,192,49614,1,2,0:0:0:0:
192,192,49702,1,2,0:0:0:0:
320,192,49790,1,2,0:0:0:0:
448,192,49879,1,2,0:0:0:0:
448,192,50143,1,8,0:0:0:0:
320,192,50232,1,8,0:0:0:0:
192,192,50408,1,8,0:0:0:0:
64,192,50585,1,0,0:0:0:0:
448,192,50585,1,0,0:0:0:0:
192,192,50761,1,8,0:0:0:0:
448,192,50849,1,8,0:0:0:0:
64,192,50937,1,2,0:0:0:0:
320,192,50982,1,2,0:0:0:0:
192,192,51026,1,2,0:0:0:0:
448,192,51114,1,2,0:0:0:0:
64,192,51202,1,2,0:0:0:0:
320,192,51290,1,2,0:0:0:0:
64,192,51555,1,8,0:0:0:0:
320,192,51643,1,8,0:0:0:0:
192,192,51820,1,8,0:0:0:0:
448,192,51996,1,8,0:0:0:0:
64,192,52349,1,2,0:0:0:0:
320,192,52437,1,2,0:0:0:0:
448,192,52482,1,2,0:0:0:0:
64,192,52526,1,2,0:0:0:0:
192,192,52614,1,2,0:0:0:0:
320,192,52702,1,8,0:0:0:0:
448,192,52702,1,8,0:0:0:0:
320,192,52967,1,2,0:0:0:0:
64,192,53055,1,2,0:0:0:0:
192,192,53055,1,2,0:0:0:0:
192,192,53232,1,2,0:0:0:0:
448,192,53408,1,2,0:0:0:0:
320,192,53408,1,2,0:0:0:0:
64,192,53585,1,2,0:0:0:0:
192,192,53585,1,2,0:0:0:0:
320,192,53673,1,2,0:0:0:0:
192,192,53761,1,2,0:0:0:0:
448,192,53849,1,2,0:0:0:0:
320,192,53937,1,2,0:0:0:0:
192,192,54026,1,2,0:0:0:0:
64,192,54114,1,8,0:0:0:0:
448,192,54114,1,8,0:0:0:0:
64,192,54290,1,2,0:0:0:0:
320,192,54379,1,8,0:0:0:0:
192,192,54379,1,8,0:0:0:0:
448,192,54467,1,2,0:0:0:0:
64,192,54643,1,8,0:0:0:0:
320,192,54820,1,8,0:0:0:0:
64,192,54996,1,2,0:0:0:0:
192,192,55085,1,2,0:0:0:0:
320,192,55173,1,2,0:0:0:0:
64,192,55305,1,2,0:0:0:0:
448,192,55393,1,2,0:0:0:0:
192,192,55437,1,2,0:0:0:0:
320,192,55482,1,2,0:0:0:0:
64,192,55526,1,8,0:0:0:0:
448,192,55526,1,8,0:0:0:0:
320,192,55702,1,2,0:0:0:0:
192,192,55790,1,2,0:0:0:0:
320,192,55879,1,2,0:0:0:0:
64,192,55879,1,2,0:0:0:0:
192,192,56055,1,8,0:0:0:0:
448,192,56232,1,8,0:0:0:0:
64,192,56232,1,8,0:0:0:0:
320,192,56408,1,2,0:0:0:0:
192,192,56496,1,2,0:0:0:0:
64,192,56585,1,2,0:0:0:0:
192,192,56673,1,2,0:0:0:0:
320,192,56761,1,2,0:0:0:0:
64,192,56937,1,8,0:0:0:0:
448,192,56937,1,8,0:0:0:0:
320,192,57114,1,2,0:0:0:0:
192,192,57202,1,2,0:0:0:0:
64,192,57290,1,8,0:0:0:0:
320,192,57290,1,8,0:0:0:0:
192,192,57467,1,2,0:0:0:0:
64,192,57643,1,8,0:0:0:0:
320,192,57643,1,8,0:0:0:0:
192,192,57820,1,2,0:0:0:0:
320,192,57908,1,2,0:0:0:0:
192,192,57996,1,8,0:0:0:0:
64,192,57996,1,8,0:0:0:0:
320,192,58173,1,2,0:0:0:0:
192,192,58261,1,2,0:0:0:0:
448,192,58349,1,8,0:0:0:0:
64,192,58349,1,8,0:0:0:0:
64,192,58526,1,8,0:0:0:0:
448,192,58526,1,8,0:0:0:0:
320,192,58614,1,2,0:0:0:0:
448,192,58702,1,8,0:0:0:0:
64,192,58702,1,8,0:0:0:0:
192,192,58879,1,8,0:0:0:0:
320,192,58879,1,8,0:0:0:0:
192,192,59055,1,8,0:0:0:0:
64,192,59055,1,8,0:0:0:0:
448,192,59143,1,8,0:0:0:0:
320,192,59143,1,8,0:0:0:0:
64,192,59232,1,8,0:0:0:0:
192,192,59232,1,8,0:0:0:0:
320,192,59320,1,8,0:0:0:0:
448,192,59320,1,8,0:0:0:0:
64,192,59408,1,8,0:0:0:0:
192,192,59452,1,2,0:0:0:0:
448,192,59496,1,2,0:0:0:0:
320,192,59540,1,8,0:0:0:0:
64,192,59585,1,8,0:0:0:0:
192,192,59629,1,2,0:0:0:0:
320,192,59673,1,8,0:0:0:0:
64,192,59717,1,2,0:0:0:0:
448,192,59761,1,8,0:0:0:0:
192,192,59761,1,8,0:0:0:0:
64,192,59937,1,2,0:0:0:0:
320,192,60114,1,2,0:0:0:0:
64,192,60290,1,2,0:0:0:0:
448,192,60467,1,2,0:0:0:0:
320,192,60555,1,2,0:0:0:0:
64,192,60643,1,2,0:0:0:0:
320,192,60732,1,2,0:0:0:0:
192,192,60820,1,2,0:0:0:0:
64,192,60908,1,2,0:0:0:0:
192,192,60996,1,2,0:0:0:0:
320,192,61085,1,2,0:0:0:0:
448,192,61173,1,2,0:0:0:0:
64,192,61261,1,2,0:0:0:0:
192,192,61305,1,2,0:0:0:0:
448,192,61349,1,2,0:0:0:0:
320,192,61393,1,2,0:0:0:0:
64,192,61437,1,2,0:0:0:0:
192,192,61482,1,2,0:0:0:0:
448,192,61526,1,2,0:0:0:0:
320,192,61570,1,2,0:0:0:0:
64,192,61614,1,2,0:0:0:0:
192,192,61658,1,2,0:0:0:0:
448,192,61702,1,2,0:0:0:0:
320,192,61746,1,2,0:0:0:0:
64,192,61790,1,2,0:0:0:0:
192,192,61835,1,2,0:0:0:0:
448,192,61879,1,2,0:0:0:0:
320,192,61923,1,2,0:0:0:0:
64,192,61967,1,2,0:0:0:0:
192,192,62011,1,2,0:0:0:0:
448,192,62055,1,2,0:0:0:0:
320,192,62099,1,2,0:0:0:0:
64,192,62143,1,2,0:0:0:0:
192,192,62187,1,2,0:0:0:0:
320,192,62232,1,2,0:0:0:0:
64,192,62937,1,8,0:0:0:0:
192,192,62937,1,8,0:0:0:0:
448,192,62937,1,8,0:0:0:0:
320,192,62937,1,8,0:0:0:0:
64,192,63820,1,12,0:0:0:0:
192,192,63820,1,12,0:0:0:0:
448,192,63820,1,8,0:0:0:0:
320,192,63820,1,8,0:0:0:0:
64,192,64879,1,2,0:0:0:0:
320,192,64879,128,2,65055:0:0:0:0:
64,192,65055,1,2,0:0:0:0:
192,192,65055,128,2,65232:0:0:0:0:
448,192,65232,128,2,65408:0:0:0:0:
320,192,65320,1,2,0:0:0:0:
64,192,65408,1,8,0:0:0:0:
192,192,65408,1,8,0:0:0:0:
320,192,65585,1,0,0:0:0:0:
64,192,65761,1,0,0:0:0:0:
448,192,65761,1,8,0:0:0:0:
192,192,65937,1,0,0:0:0:0:
64,192,66114,1,0,0:0:0:0:
320,192,66114,1,0,0:0:0:0:
192,192,66290,1,0,0:0:0:0:
64,192,66467,1,0,0:0:0:0:
448,192,66467,1,0,0:0:0:0:
320,192,66643,1,0,0:0:0:0:
192,192,66820,1,0,0:0:0:0:
448,192,66820,1,0,0:0:0:0:
320,192,66996,1,0,0:0:0:0:
64,192,67173,1,0,0:0:0:0:
448,192,67173,1,0,0:0:0:0:
192,192,67349,1,0,0:0:0:0:
64,192,67526,1,0,0:0:0:0:
320,192,67526,1,0,0:0:0:0:
192,192,67702,1,0,0:0:0:0:
64,192,67879,1,0,0:0:0:0:
448,192,67879,1,0,0:0:0:0:
320,192,68055,1,0,0:0:0:0:
192,192,68232,1,0,0:0:0:0:
448,192,68232,1,0,0:0:0:0:
320,192,68408,1,0,0:0:0:0:
64,192,68585,1,0,0:0:0:0:
448,192,68585,1,0,0:0:0:0:
192,192,68761,1,0,0:0:0:0:
64,192,68937,1,0,0:0:0:0:
320,192,68937,1,0,0:0:0:0:
192,192,69114,1,0,0:0:0:0:
64,192,69290,1,0,0:0:0:0:
448,192,69290,1,0,0:0:0:0:
320,192,69467,1,0,0:0:0:0:
192,192,69643,1,0,0:0:0:0:
448,192,69643,1,0,0:0:0:0:
320,192,69820,1,0,0:0:0:0:
64,192,69996,1,0,0:0:0:0:
448,192,69996,1,0,0:0:0:0:
192,192,70173,1,0,0:0:0:0:
64,192,70349,1,0,0:0:0:0:
320,192,70349,1,0,0:0:0:0:
192,192,70526,1,0,0:0:0:0:
64,192,70702,1,0,0:0:0:0:
448,192,70702,1,0,0:0:0:0:
320,192,70879,1,0,0:0:0:0:
192,192,71055,1,0,0:0:0:0:
448,192,71055,1,0,0:0:0:0:
320,192,71232,1,0,0:0:0:0:
64,192,71408,1,0,0:0:0:0:
448,192,71408,1,0,0:0:0:0:
192,192,71585,1,0,0:0:0:0:
64,192,71761,1,0,0:0:0:0:
320,192,71761,1,0,0:0:0:0:
192,192,71937,1,0,0:0:0:0:
64,192,72114,1,0,0:0:0:0:
448,192,72114,1,0,0:0:0:0:
320,192,72290,1,0,0:0:0:0:
192,192,72467,1,0,0:0:0:0:
448,192,72467,1,0,0:0:0:0:
320,192,72643,1,0,0:0:0:0:
64,192,72820,1,0,0:0:0:0:
448,192,72820,1,0,0:0:0:0:
192,192,72996,1,0,0:0:0:0:
64,192,73173,1,0,0:0:0:0:
320,192,73173,1,0,0:0:0:0:
192,192,73349,1,0,0:0:0:0:
320,192,73349,128,0,73526:0:0:0:0:
64,192,73526,1,0,0:0:0:0:
448,192,73526,128,0,73879:0:0:0:0:
192,192,73702,1,0,0:0:0:0:
320,192,73879,1,0,0:0:0:0:
64,192,73879,1,0,0:0:0:0:
320,192,74055,1,0,0:0:0:0:
192,192,74232,1,0,0:0:0:0:
64,192,74232,1,0,0:0:0:0:
448,192,74232,128,4,74937:0:0:0:0:
320,192,74408,1,0,0:0:0:0:
64,192,74585,1,0,0:0:0:0:
192,192,74585,1,0,0:0:0:0:
320,192,74761,1,0,0:0:0:0:
192,192,74849,1,0,0:0:0:0:
64,192,74937,1,0,0:0:0:0:
320,192,74937,1,0,0:0:0:0:
64,192,75114,128,4,75643:0:0:0:0:
320,192,75114,1,0,0:0:0:0:
448,192,75290,1,0,0:0:0:0:
192,192,75290,1,0,0:0:0:0:
320,192,75467,1,0,0:0:0:0:
448,192,75643,1,0,0:0:0:0:
192,192,75643,1,0,0:0:0:0:
64,192,75820,1,0,0:0:0:0:
320,192,75996,1,0,0:0:0:0:
448,192,75996,1,0,0:0:0:0:
192,192,76173,1,0,0:0:0:0:
64,192,76349,1,0,0:0:0:0:
448,192,76349,1,0,0:0:0:0:
320,192,76526,1,0,0:0:0:0:
192,192,76702,1,0,0:0:0:0:
448,192,76702,1,0,0:0:0:0:
320,192,76879,1,0,0:0:0:0:
64,192,77055,1,0,0:0:0:0:
448,192,77055,1,0,0:0:0:0:
192,192,77232,1,0,0:0:0:0:
64,192,77408,1,0,0:0:0:0:
320,192,77408,1,0,0:0:0:0:
192,192,77585,1,0,0:0:0:0:
64,192,77761,1,0,0:0:0:0:
448,192,77761,1,0,0:0:0:0:
320,192,77937,1,0,0:0:0:0:
192,192,78114,1,0,0:0:0:0:
448,192,78114,1,0,0:0:0:0:
320,192,78290,1,0,0:0:0:0:
64,192,78467,1,0,0:0:0:0:
448,192,78467,1,0,0:0:0:0:
192,192,78643,1,0,0:0:0:0:
64,192,78820,1,0,0:0:0:0:
320,192,78820,1,0,0:0:0:0:
192,192,78996,1,0,0:0:0:0:
448,192,79173,1,0,0:0:0:0:
64,192,79173,128,0,79526:0:0:0:0:
320,192,79349,1,0,0:0:0:0:
192,192,79526,1,0,0:0:0:0:
448,192,79526,1,0,0:0:0:0:
320,192,79702,1,0,0:0:0:0:
448,192,79879,1,0,0:0:0:0:
192,192,79879,128,0,80585:0:0:0:0:
320,192,80055,1,0,0:0:0:0:
448,192,80232,1,0,0:0:0:0:
64,192,80232,1,0,0:0:0:0:
320,192,80408,1,0,0:0:0:0:
448,192,80585,1,0,0:0:0:0:
64,192,80585,1,0,0:0:0:0:
320,192,80761,1,0,0:0:0:0:
320,192,80937,128,0,81643:0:0:0:0:
64,192,80937,1,0,0:0:0:0:
448,192,80937,1,0,0:0:0:0:
192,192,81114,1,0,0:0:0:0:
64,192,81290,1,0,0:0:0:0:
448,192,81290,1,0,0:0:0:0:
192,192,81467,1,0,0:0:0:0:
64,192,81643,1,0,0:0:0:0:
448,192,81643,1,0,0:0:0:0:
192,192,81820,1,0,0:0:0:0:
320,192,81996,1,0,0:0:0:0:
64,192,81996,1,0,0:0:0:0:
448,192,81996,128,0,82349:0:0:0:0:
192,192,82173,1,0,0:0:0:0:
64,192,82349,1,0,0:0:0:0:
320,192,82349,1,0,0:0:0:0:
192,192,82526,1,0,0:0:0:0:
448,192,82702,1,0,0:0:0:0:
64,192,82702,1,0,0:0:0:0:
192,192,82702,128,0,83055:0:0:0:0:
320,192,82879,1,0,0:0:0:0:
448,192,83055,1,0,0:0:0:0:
64,192,83055,1,0,0:0:0:0:
320,192,83232,1,0,0:0:0:0:
448,192,83408,1,0,0:0:0:0:
64,192,83408,1,0,0:0:0:0:
320,192,83408,128,0,84467:0:0:0:0:
192,192,83585,1,0,0:0:0:0:
448,192,83761,1,0,0:0:0:0:
64,192,83761,1,0,0:0:0:0:
192,192,83937,1,0,0:0:0:0:
64,192,84114,1,0,0:0:0:0:
448,192,84114,1,0,0:0:0:0:
192,192,84290,1,0,0:0:0:0:
448,192,84467,1,0,0:0:0:0:
64,192,84467,1,0,0:0:0:0:
192,192,84643,1,0,0:0:0:0:
320,192,84732,1,0,0:0:0:0:
448,192,84820,1,2,0:0:0:0:
64,192,84820,1,2,0:0:0:0:
192,192,84908,1,2,0:0:0:0:
320,192,84996,1,2,0:0:0:0:
64,192,84996,1,2,0:0:0:0:
192,192,85085,1,2,0:0:0:0:
448,192,85173,1,2,0:0:0:0:
64,192,85173,1,2,0:0:0:0:
320,192,85261,1,2,0:0:0:0:
192,192,85349,1,2,0:0:0:0:
448,192,85349,1,2,0:0:0:0:
320,192,85437,1,2,0:0:0:0:
448,192,85526,1,8,0:0:0:0:
64,192,85526,1,8,0:0:0:0:
192,192,85614,1,2,0:0:0:0:
320,192,85702,1,2,0:0:0:0:
64,192,85702,1,2,0:0:0:0:
192,192,85790,1,2,0:0:0:0:
448,192,85879,1,8,0:0:0:0:
64,192,85879,1,8,0:0:0:0:
320,192,85967,1,2,0:0:0:0:
192,192,86055,1,2,0:0:0:0:
448,192,86055,1,2,0:0:0:0:
320,192,86143,1,2,0:0:0:0:
64,192,86232,1,8,0:0:0:0:
448,192,86232,1,8,0:0:0:0:
192,192,86320,1,2,0:0:0:0:
320,192,86408,1,2,0:0:0:0:
64,192,86408,1,2,0:0:0:0:
192,192,86496,1,2,0:0:0:0:
448,192,86585,1,8,0:0:0:0:
64,192,86585,1,8,0:0:0:0:
192,192,86761,1,2,0:0:0:0:
320,192,86849,1,2,0:0:0:0:
448,192,86937,1,8,0:0:0:0:
64,192,86937,1,8,0:0:0:0:
192,192,87114,1,2,0:0:0:0:
64,192,87290,1,8,0:0:0:0:
320,192,87290,1,8,0:0:0:0:
192,192,87467,1,2,0:0:0:0:
64,192,87643,1,8,0:0:0:0:
320,192,87643,1,8,0:0:0:0:
320,192,87820,1,2,0:0:0:0:
448,192,87820,1,2,0:0:0:0:
192,192,87908,1,2,0:0:0:0:
64,192,87908,1,2,0:0:0:0:
448,192,87996,1,2,0:0:0:0:
320,192,88085,1,2,0:0:0:0:
192,192,88173,1,2,0:0:0:0:
448,192,88173,1,2,0:0:0:0:
320,192,88261,1,2,0:0:0:0:
64,192,88349,1,8,0:0:0:0:
448,192,88349,1,8,0:0:0:0:
192,192,88437,1,2,0:0:0:0:
320,192,88526,1,2,0:0:0:0:
64,192,88526,1,2,0:0:0:0:
192,192,88614,1,2,0:0:0:0:
448,192,88702,1,8,0:0:0:0:
64,192,88702,1,8,0:0:0:0:
320,192,88790,1,2,0:0:0:0:
192,192,88879,1,2,0:0:0:0:
448,192,88879,1,2,0:0:0:0:
320,192,88967,1,2,0:0:0:0:
64,192,89055,1,2,0:0:0:0:
448,192,89055,1,2,0:0:0:0:
192,192,89143,1,2,0:0:0:0:
320,192,89232,1,2,0:0:0:0:
64,192,89232,1,2,0:0:0:0:
192,192,89320,1,2,0:0:0:0:
64,192,89408,1,8,0:0:0:0:
448,192,89408,1,8,0:0:0:0:
192,192,89585,1,2,0:0:0:0:
64,192,89761,1,8,0:0:0:0:
448,192,89761,1,8,0:0:0:0:
320,192,89937,1,2,0:0:0:0:
192,192,90114,1,8,0:0:0:0:
448,192,90114,1,8,0:0:0:0:
320,192,90290,1,2,0:0:0:0:
448,192,90467,1,8,0:0:0:0:
64,192,90467,1,8,0:0:0:0:
192,192,90643,1,2,0:0:0:0:
64,192,90820,1,8,0:0:0:0:
448,192,90820,1,8,0:0:0:0:
320,192,90908,1,2,0:0:0:0:
192,192,90996,1,2,0:0:0:0:
448,192,90996,1,2,0:0:0:0:
320,192,91085,1,2,0:0:0:0:
64,192,91173,1,8,0:0:0:0:
448,192,91173,1,8,0:0:0:0:
192,192,91261,1,2,0:0:0:0:
320,192,91349,1,2,0:0:0:0:
64,192,91349,1,2,0:0:0:0:
192,192,91437,1,2,0:0:0:0:
64,192,91526,1,8,0:0:0:0:
448,192,91526,1,8,0:0:0:0:
320,192,91614,1,2,0:0:0:0:
192,192,91702,1,2,0:0:0:0:
448,192,91702,1,2,0:0:0:0:
320,192,91790,1,2,0:0:0:0:
64,192,91879,1,8,0:0:0:0:
448,192,91879,1,8,0:0:0:0:
192,192,91967,1,2,0:0:0:0:
320,192,92055,1,2,0:0:0:0:
64,192,92055,1,2,0:0:0:0:
192,192,92143,1,2,0:0:0:0:
64,192,92232,1,8,0:0:0:0:
448,192,92232,1,8,0:0:0:0:
192,192,92408,1,2,0:0:0:0:
64,192,92585,1,8,0:0:0:0:
448,192,92585,1,8,0:0:0:0:
320,192,92761,1,2,0:0:0:0:
192,192,92937,1,8,0:0:0:0:
448,192,92937,1,8,0:0:0:0:
320,192,93114,1,2,0:0:0:0:
64,192,93290,1,8,0:0:0:0:
448,192,93290,1,8,0:0:0:0:
192,192,93467,1,2,0:0:0:0:
64,192,93643,1,8,0:0:0:0:
448,192,93643,1,8,0:0:0:0:
192,192,93732,1,2,0:0:0:0:
320,192,93820,1,2,0:0:0:0:
64,192,93820,1,2,0:0:0:0:
192,192,93908,1,2,0:0:0:0:
448,192,93996,1,8,0:0:0:0:
64,192,93996,1,8,0:0:0:0:
320,192,94085,1,2,0:0:0:0:
192,192,94173,1,2,0:0:0:0:
448,192,94173,1,2,0:0:0:0:
320,192,94261,1,2,0:0:0:0:
64,192,94349,1,8,0:0:0:0:
448,192,94349,1,8,0:0:0:0:
192,192,94437,1,2,0:0:0:0:
320,192,94526,1,2,0:0:0:0:
64,192,94526,1,2,0:0:0:0:
192,192,94614,1,2,0:0:0:0:
64,192,94702,1,8,0:0:0:0:
448,192,94702,1,8,0:0:0:0:
320,192,94879,1,2,0:0:0:0:
448,192,95055,1,8,0:0:0:0:
192,192,95055,1,8,0:0:0:0:
320,192,95232,1,2,0:0:0:0:
448,192,95408,1,8,0:0:0:0:
64,192,95408,1,8,0:0:0:0:
192,192,95585,1,2,0:0:0:0:
64,192,95761,1,8,0:0:0:0:
320,192,95761,1,8,0:0:0:0:
192,192,95937,1,2,0:0:0:0:
64,192,96114,1,8,0:0:0:0:
448,192,96114,1,8,0:0:0:0:
320,192,96202,1,2,0:0:0:0:
64,192,96290,1,2,0:0:0:0:
192,192,96379,1,2,0:0:0:0:
320,192,96467,1,2,0:0:0:0:
192,192,96643,1,0,0:0:0:0:
64,192,96820,1,0,0:0:0:0:
448,192,96820,1,0,0:0:0:0:
320,192,96996,1,0,0:0:0:0:
64,192,97173,128,0,97879:0:0:0:0:
192,192,97349,1,0,0:0:0:0:
448,192,97526,1,0,0:0:0:0:
192,192,97702,1,0,0:0:0:0:
320,192,97879,128,0,98585:0:0:0:0:
64,192,98055,1,0,0:0:0:0:
448,192,98232,1,0,0:0:0:0:
192,192,98408,1,0,0:0:0:0:
64,192,98585,128,0,99290:0:0:0:0:
192,192,98761,1,0,0:0:0:0:
448,192,98937,1,0,0:0:0:0:
320,192,99114,1,0,0:0:0:0:
192,192,99290,128,0,99996:0:0:0:0:
64,192,99467,1,0,0:0:0:0:
448,192,99643,1,0,0:0:0:0:
320,192,99820,1,0,0:0:0:0:
64,192,99996,128,0,100702:0:0:0:0:
448,192,100173,1,0,0:0:0:0:
192,192,100349,1,0,0:0:0:0:
320,192,100526,1,0,0:0:0:0:
448,192,100702,128,0,101408:0:0:0:0:
320,192,100879,1,0,0:0:0:0:
64,192,101055,1,0,0:0:0:0:
192,192,101232,1,0,0:0:0:0:
64,192,101408,128,0,102114:0:0:0:0:
192,192,101585,1,0,0:0:0:0:
448,192,101761,1,0,0:0:0:0:
320,192,101937,1,0,0:0:0:0:
192,192,102114,128,0,102820:0:0:0:0:
448,192,102290,1,0,0:0:0:0:
64,192,102467,1,0,0:0:0:0:
320,192,102643,1,0,0:0:0:0:
448,192,102820,128,0,103526:0:0:0:0:
320,192,102996,1,0,0:0:0:0:
64,192,103173,1,0,0:0:0:0:
192,192,103349,1,0,0:0:0:0:
320,192,103526,128,0,104232:0:0:0:0:
64,192,103702,1,0,0:0:0:0:
448,192,103879,1,0,0:0:0:0:
192,192,104055,1,0,0:0:0:0:
64,192,104232,128,0,104937:0:0:0:0:
448,192,104408,1,0,0:0:0:0:
192,192,104585,1,0,0:0:0:0:
320,192,104761,1,0,0:0:0:0:
192,192,104937,1,8,0:0:0:0:
448,192,104937,1,8,0:0:0:0:
448,192,105114,1,0,0:0:0:0:
320,192,105202,1,0,0:0:0:0:
192,192,105290,1,8,0:0:0:0:
64,192,105290,1,8,0:0:0:0:
448,192,105467,1,0,0:0:0:0:
320,192,105555,1,0,0:0:0:0:
64,192,105643,1,8,0:0:0:0:
192,192,105643,1,8,0:0:0:0:
64,192,105820,1,0,0:0:0:0:
192,192,105908,1,0,0:0:0:0:
320,192,105996,1,8,0:0:0:0:
448,192,105996,1,8,0:0:0:0:
64,192,106173,1,0,0:0:0:0:
192,192,106261,1,0,0:0:0:0:
448,192,106349,1,8,0:0:0:0:
320,192,106349,1,8,0:0:0:0:
64,192,106526,1,2,0:0:0:0:
192,192,106526,1,2,0:0:0:0:
320,192,106614,1,2,0:0:0:0:
448,192,106614,1,2,0:0:0:0:
192,192,106702,1,8,0:0:0:0:
64,192,106702,1,8,0:0:0:0:
192,192,106879,1,2,0:0:0:0:
320,192,106879,1,2,0:0:0:0:
192,192,107055,1,8,0:0:0:0:
64,192,107055,1,8,0:0:0:0:
320,192,107143,1,2,0:0:0:0:
448,192,107143,1,2,0:0:0:0:
192,192,107232,1,2,0:0:0:0:
64,192,107232,1,2,0:0:0:0:
448,192,107320,1,2,0:0:0:0:
320,192,107320,1,2,0:0:0:0:
192,192,107408,1,8,0:0:0:0:
64,192,107408,1,8,0:0:0:0:
448,192,107496,1,2,0:0:0:0:
320,192,107496,1,2,0:0:0:0:
64,192,107540,1,2,0:0:0:0:
320,192,107585,1,2,0:0:0:0:
192,192,107585,1,2,0:0:0:0:
448,192,107629,1,2,0:0:0:0:
192,192,107673,1,2,0:0:0:0:
320,192,107717,1,2,0:0:0:0:
64,192,107761,1,8,0:0:0:0:
448,192,107761,1,8,0:0:0:0:
192,192,107937,1,2,0:0:0:0:
320,192,108114,1,2,0:0:0:0:
64,192,108290,1,2,0:0:0:0:
192,192,108467,1,2,0:0:0:0:
320,192,108555,1,2,0:0:0:0:
448,192,108643,1,2,0:0:0:0:
320,192,108732,1,2,0:0:0:0:
192,192,108820,1,2,0:0:0:0:
64,192,108908,1,2,0:0:0:0:
192,192,108996,1,2,0:0:0:0:
320,192,109085,1,2,0:0:0:0:
448,192,109173,1,2,0:0:0:0:
320,192,109261,1,2,0:0:0:0:
192,192,109349,1,2,0:0:0:0:
64,192,109437,1,2,0:0:0:0:
448,192,109526,1,2,0:0:0:0:
320,192,109570,1,2,0:0:0:0:
64,192,109614,1,2,0:0:0:0:
192,192,109658,1,2,0:0:0:0:
448,192,109702,1,2,0:0:0:0:
320,192,109746,1,2,0:0:0:0:
64,192,109790,1,2,0:0:0:0:
192,192,109835,1,2,0:0:0:0:
448,192,109879,1,2,0:0:0:0:
320,192,109923,1,2,0:0:0:0:
64,192,109967,1,2,0:0:0:0:
192,192,110011,1,2,0:0:0:0:
448,192,110055,1,2,0:0:0:0:
320,192,110099,1,2,0:0:0:0:
64,192,110143,1,2,0:0:0:0:
192,192,110187,1,2,0:0:0:0:
320,192,110232,1,2,0:0:0:0:
192,192,110937,1,10,0:0:0:0:
64,192,110937,1,8,0:0:0:0:
448,192,111820,1,0,0:0:0:0:
320,192,111820,1,4,0:0:0:0:
320,192,112879,128,2,113055:0:0:0:0:
448,192,113055,1,8,0:0:0:0:
64,192,113055,128,2,113232:0:0:0:0:
192,192,113232,1,0,0:0:0:0:
320,192,113320,1,0,0:0:0:0:
192,192,113408,1,0,0:0:0:0:
448,192,113408,1,0,0:0:0:0:
320,192,113585,1,0,0:0:0:0:
64,192,113761,1,0,0:0:0:0:
448,192,113761,1,0,0:0:0:0:
192,192,113937,1,0,0:0:0:0:
64,192,114114,1,0,0:0:0:0:
320,192,114114,1,0,0:0:0:0:
192,192,114290,128,0,114820:0:0:0:0:
448,192,114467,1,0,0:0:0:0:
64,192,114467,1,0,0:0:0:0:
320,192,114643,1,0,0:0:0:0:
64,192,114820,1,0,0:0:0:0:
448,192,114820,128,0,115173:0:0:0:0:
320,192,114996,1,0,0:0:0:0:
64,192,115173,1,0,0:0:0:0:
192,192,115173,1,0,0:0:0:0:
320,192,115349,1,0,0:0:0:0:
448,192,115526,1,0,0:0:0:0:
192,192,115526,1,0,0:0:0:0:
320,192,115702,1,0,0:0:0:0:
64,192,115879,1,0,0:0:0:0:
448,192,115879,1,0,0:0:0:0:
192,192,116055,1,0,0:0:0:0:
64,192,116232,1,0,0:0:0:0:
448,192,116232,1,0,0:0:0:0:
320,192,116232,128,0,116937:0:0:0:0:
192,192,116408,1,0,0:0:0:0:
64,192,116585,1,0,0:0:0:0:
448,192,116585,1,0,0:0:0:0:
192,192,116761,1,0,0:0:0:0:
64,192,116937,1,0,0:0:0:0:
192,192,116937,1,0,0:0:0:0:
448,192,116937,128,0,117643:0:0:0:0:
192,192,117114,1,0,0:0:0:0:
320,192,117290,1,0,0:0:0:0:
64,192,117290,1,0,0:0:0:0:
192,192,117467,1,0,0:0:0:0:
64,192,117643,1,0,0:0:0:0:
192,192,117643,1,0,0:0:0:0:
320,192,117643,128,0,118349:0:0:0:0:
448,192,117820,1,0,0:0:0:0:
64,192,117996,1,0,0:0:0:0:
192,192,117996,1,0,0:0:0:0:
448,192,118173,1,0,0:0:0:0:
64,192,118349,1,0,0:0:0:0:
192,192,118349,1,0,0:0:0:0:
448,192,118349,128,0,119055:0:0:0:0:
192,192,118526,1,0,0:0:0:0:
64,192,118702,1,0,0:0:0:0:
320,192,118702,1,0,0:0:0:0:
192,192,118879,1,0,0:0:0:0:
64,192,119055,1,0,0:0:0:0:
192,192,119055,1,0,0:0:0:0:
320,192,119055,128,0,120467:0:0:0:0:
448,192,119232,1,0,0:0:0:0:
64,192,119408,1,0,0:0:0:0:
192,192,119408,1,0,0:0:0:0:
448,192,119585,1,0,0:0:0:0:
64,192,119761,1,0,0:0:0:0:
192,192,119761,1,0,0:0:0:0:
448,192,119937,1,0,0:0:0:0:
64,192,120114,1,0,0:0:0:0:
192,192,120114,1,0,0:0:0:0:
448,192,120290,1,0,0:0:0:0:
448,192,120467,128,0,121173:0:0:0:0:
64,192,120467,1,0,0:0:0:0:
192,192,120643,1,0,0:0:0:0:
64,192,120820,1,0,0:0:0:0:
320,192,120820,1,0,0:0:0:0:
192,192,120996,1,0,0:0:0:0:
320,192,121173,1,0,0:0:0:0:
64,192,121173,1,0,0:0:0:0:
192,192,121349,128,0,121526:0:0:0:0:
448,192,121526,128,0,121702:0:0:0:0:
320,192,121526,1,0,0:0:0:0:
192,192,121702,1,0,0:0:0:0:
64,192,121879,1,0,0:0:0:0:
320,192,121879,1,0,0:0:0:0:
192,192,122055,1,0,0:0:0:0:
64,192,122232,1,0,0:0:0:0:
320,192,122232,1,0,0:0:0:0:
448,192,122232,128,0,122937:0:0:0:0:
192,192,122408,1,0,0:0:0:0:
64,192,122585,1,0,0:0:0:0:
320,192,122585,1,0,0:0:0:0:
192,192,122761,1,0,0:0:0:0:
320,192,122937,1,0,0:0:0:0:
64,192,122937,1,0,0:0:0:0:
192,192,123114,128,0,123643:0:0:0:0:
448,192,123290,1,0,0:0:0:0:
320,192,123290,1,0,0:0:0:0:
64,192,123467,1,0,0:0:0:0:
320,192,123643,1,0,0:0:0:0:
448,192,123643,1,0,0:0:0:0:
64,192,123820,1,0,0:0:0:0:
320,192,123996,1,0,0:0:0:0:
192,192,123996,1,0,0:0:0:0:
192,192,124173,1,0,0:0:0:0:
448,192,124173,128,0,124702:0:0:0:0:
64,192,124349,1,0,0:0:0:0:
320,192,124349,1,0,0:0:0:0:
192,192,124526,1,0,0:0:0:0:
64,192,124702,1,0,0:0:0:0:
320,192,124702,1,0,0:0:0:0:
192,192,124879,1,0,0:0:0:0:
448,192,125055,1,0,0:0:0:0:
64,192,125055,1,0,0:0:0:0:
320,192,125232,1,0,0:0:0:0:
192,192,125408,1,0,0:0:0:0:
448,192,125408,1,0,0:0:0:0:
320,192,125585,1,0,0:0:0:0:
192,192,125761,1,0,0:0:0:0:
64,192,125761,1,0,0:0:0:0:
320,192,125937,128,0,126114:0:0:0:0:
448,192,125937,1,0,0:0:0:0:
64,192,126114,1,0,0:0:0:0:
192,192,126114,1,0,0:0:0:0:
64,192,126290,1,0,0:0:0:0:
448,192,126290,128,0,126467:0:0:0:0:
64,192,126467,1,0,0:0:0:0:
192,192,126467,1,0,0:0:0:0:
320,192,126643,1,0,0:0:0:0:
192,192,126820,1,0,0:0:0:0:
448,192,126820,1,0,0:0:0:0:
320,192,126996,1,0,0:0:0:0:
64,192,127173,1,0,0:0:0:0:
448,192,127173,128,0,127526:0:0:0:0:
320,192,127349,1,0,0:0:0:0:
192,192,127526,1,0,0:0:0:0:
320,192,127702,128,0,127879:0:0:0:0:
448,192,127702,1,0,0:0:0:0:
64,192,127879,1,0,0:0:0:0:
448,192,128055,1,0,0:0:0:0:
64,192,128232,1,0,0:0:0:0:
192,192,128232,128,0,128585:0:0:0:0:
320,192,128408,1,0,0:0:0:0:
64,192,128585,1,0,0:0:0:0:
448,192,128585,1,0,0:0:0:0:
320,192,128761,1,0,0:0:0:0:
192,192,128937,1,0,0:0:0:0:
448,192,128937,128,0,129290:0:0:0:0:
320,192,129114,1,0,0:0:0:0:
64,192,129290,1,0,0:0:0:0:
192,192,129290,128,0,129643:0:0:0:0:
320,192,129467,1,0,0:0:0:0:
448,192,129643,1,0,0:0:0:0:
192,192,129643,1,0,0:0:0:0:
64,192,129643,128,0,129996:0:0:0:0:
192,192,129820,1,0,0:0:0:0:
320,192,129996,1,0,0:0:0:0:
448,192,129996,128,0,130349:0:0:0:0:
192,192,130173,1,0,0:0:0:0:
64,192,130349,1,0,0:0:0:0:
320,192,130349,1,0,0:0:0:0:
192,192,130526,1,0,0:0:0:0:
64,192,130702,1,0,0:0:0:0:
448,192,130702,1,0,0:0:0:0:
320,192,130702,128,0,131055:0:0:0:0:
192,192,130879,1,0,0:0:0:0:
64,192,131055,1,0,0:0:0:0:
448,192,131055,128,0,131408:0:0:0:0:
192,192,131232,1,0,0:0:0:0:
64,192,131408,1,0,0:0:0:0:
320,192,131408,128,0,131761:0:0:0:0:
192,192,131585,1,0,0:0:0:0:
64,192,131761,1,0,0:0:0:0:
448,192,131761,128,0,132467:0:0:0:0:
192,192,131937,1,0,0:0:0:0:
64,192,132114,1,0,0:0:0:0:
320,192,132114,1,0,0:0:0:0:
192,192,132290,1,0,0:0:0:0:
64,192,132467,1,0,0:0:0:0:
320,192,132467,1,0,0:0:0:0:
64,192,132643,1,0,0:0:0:0:
192,192,132687,1,0,0:0:0:0:
320,192,132732,1,0,0:0:0:0:
64,192,132820,128,0,132996:0:0:0:0:
448,192,132996,128,0,133173:0:0:0:0:
64,192,133173,1,0,0:0:0:0:
192,192,133217,1,0,0:0:0:0:
320,192,133261,1,0,0:0:0:0:
64,192,133305,1,0,0:0:0:0:
192,192,133349,1,0,0:0:0:0:
448,192,133393,1,0,0:0:0:0:
320,192,133437,1,0,0:0:0:0:
192,192,133482,1,0,0:0:0:0:
448,192,133526,1,0,0:0:0:0:
64,192,133526,1,0,0:0:0:0:
192,192,133614,1,0,0:0:0:0:
320,192,133702,128,0,134585:0:0:0:0:
64,192,133879,1,0,0:0:0:0:
448,192,133879,1,0,0:0:0:0:
192,192,134099,1,0,0:0:0:0:
64,192,134232,1,0,0:0:0:0:
448,192,134232,1,0,0:0:0:0:
192,192,134408,1,0,0:0:0:0:
64,192,134585,1,0,0:0:0:0:
448,192,134585,1,0,0:0:0:0:
192,192,134761,1,0,0:0:0:0:
448,192,134849,1,0,0:0:0:0:
320,192,134937,1,0,0:0:0:0:
192,192,134937,128,0,135114:0:0:0:0:
64,192,135114,1,0,0:0:0:0:
320,192,135202,1,0,0:0:0:0:
64,192,135290,1,0,0:0:0:0:
448,192,135290,128,0,135643:0:0:0:0:
320,192,135379,1,0,0:0:0:0:
192,192,135467,1,0,0:0:0:0:
64,192,135511,1,0,0:0:0:0:
320,192,135555,1,0,0:0:0:0:
64,192,135643,1,0,0:0:0:0:
192,192,135643,1,0,0:0:0:0:
320,192,135820,1,0,0:0:0:0:
448,192,135996,1,0,0:0:0:0:
192,192,135996,1,0,0:0:0:0:
64,192,135996,128,0,136349:0:0:0:0:
448,192,136173,1,0,0:0:0:0:
320,192,136217,1,0,0:0:0:0:
192,192,136261,1,0,0:0:0:0:
448,192,136349,1,0,0:0:0:0:
320,192,136349,1,0,0:0:0:0:
192,192,136526,1,0,0:0:0:0:
448,192,136702,128,0,137055:0:0:0:0:
64,192,136702,1,0,0:0:0:0:
192,192,136702,1,0,0:0:0:0:
320,192,136790,1,0,0:0:0:0:
192,192,136879,1,0,0:0:0:0:
64,192,136967,1,0,0:0:0:0:
320,192,137055,1,0,0:0:0:0:
192,192,137055,1,0,0:0:0:0:
64,192,137143,1,0,0:0:0:0:
448,192,137232,1,0,0:0:0:0:
320,192,137320,1,0,0:0:0:0:
192,192,137408,1,0,0:0:0:0:
448,192,137408,128,0,137761:0:0:0:0:
64,192,137585,1,0,0:0:0:0:
192,192,137629,1,0,0:0:0:0:
320,192,137673,1,0,0:0:0:0:
64,192,137761,128,0,138114:0:0:0:0:
192,192,137761,1,0,0:0:0:0:
448,192,137937,1,0,0:0:0:0:
192,192,137982,1,0,0:0:0:0:
320,192,138026,1,0,0:0:0:0:
448,192,138114,1,0,0:0:0:0:
320,192,138202,1,0,0:0:0:0:
192,192,138290,128,0,138379:0:0:0:0:
64,192,138290,128,0,138379:0:0:0:0:
320,192,138379,128,0,138467:0:0:0:0:
448,192,138379,128,0,138467:0:0:0:0:
64,192,138467,128,0,138555:0:0:0:0:
192,192,138467,128,0,138555:0:0:0:0:
448,192,138555,128,0,138643:0:0:0:0:
320,192,138555,128,0,138643:0:0:0:0:
192,192,138643,1,0,0:0:0:0:
64,192,138732,1,0,0:0:0:0:
448,192,138820,128,0,139173:0:0:0:0:
192,192,138820,1,0,0:0:0:0:
320,192,138996,1,0,0:0:0:0:
64,192,139173,1,0,0:0:0:0:
192,192,139173,128,0,139526:0:0:0:0:
320,192,139349,1,0,0:0:0:0:
64,192,139526,128,0,139879:0:0:0:0:
448,192,139526,1,0,0:0:0:0:
320,192,139702,1,0,0:0:0:0:
192,192,139879,128,0,140232:0:0:0:0:
448,192,139879,1,0,0:0:0:0:
320,192,140055,1,0,0:0:0:0:
64,192,140232,128,0,140585:0:0:0:0:
448,192,140232,1,0,0:0:0:0:
320,192,140408,1,0,0:0:0:0:
192,192,140585,128,0,140937:0:0:0:0:
448,192,140585,1,0,0:0:0:0:
320,192,140761,1,0,0:0:0:0:
64,192,140849,1,0,0:0:0:0:
448,192,140937,128,0,141114:0:0:0:0:
320,192,140937,1,0,0:0:0:0:
64,192,141114,128,0,141290:0:0:0:0:
192,192,141290,128,0,141643:0:0:0:0:
448,192,141290,1,0,0:0:0:0:
320,192,141467,1,0,0:0:0:0:
64,192,141643,128,0,141820:0:0:0:0:
448,192,141643,1,0,0:0:0:0:
192,192,141820,1,0,0:0:0:0:
320,192,141820,128,0,141996:0:0:0:0:
448,192,141996,1,0,0:0:0:0:
192,192,142085,128,0,142173:0:0:0:0:
64,192,142173,128,0,142349:0:0:0:0:
192,192,142349,128,0,142526:0:0:0:0:
448,192,142526,1,0,0:0:0:0:
320,192,142526,128,0,142702:0:0:0:0:
64,192,142702,128,0,142879:0:0:0:0:
192,192,142879,1,0,0:0:0:0:
448,192,142879,128,0,143055:0:0:0:0:
64,192,143055,1,0,0:0:0:0:
320,192,143055,1,0,0:0:0:0:
192,192,143232,1,0,0:0:0:0:
448,192,143408,1,0,0:0:0:0:
64,192,143408,1,0,0:0:0:0:
320,192,143408,128,0,144467:0:0:0:0:
192,192,143585,1,0,0:0:0:0:
64,192,143761,1,0,0:0:0:0:
448,192,143761,1,0,0:0:0:0:
192,192,143937,1,0,0:0:0:0:
448,192,144114,1,0,0:0:0:0:
64,192,144114,1,0,0:0:0:0:
192,192,144290,1,0,0:0:0:0:
64,192,144467,1,0,0:0:0:0:
448,192,144467,1,0,0:0:0:0:
192,192,144643,1,0,0:0:0:0:
320,192,144820,1,0,0:0:0:0:
64,192,144820,1,0,0:0:0:0:
448,192,144820,128,0,145658:0:0:0:0:
192,192,144996,1,0,0:0:0:0:
320,192,145173,1,0,0:0:0:0:
64,192,145173,1,0,0:0:0:0:
192,192,145349,1,0,0:0:0:0:
64,192,145526,1,0,0:0:0:0:
320,192,145526,1,0,0:0:0:0:
192,192,145702,128,0,145879:0:0:0:0:
448,192,145879,1,0,0:0:0:0:
64,192,145879,1,0,0:0:0:0:
192,192,146055,1,0,0:0:0:0:
320,192,146055,128,0,146937:0:0:0:0:
64,192,146232,1,0,0:0:0:0:
448,192,146232,128,0,146408:0:0:0:0:
192,192,146408,1,0,0:0:0:0:
64,192,146585,128,0,146937:0:0:0:0:
448,192,146761,1,0,0:0:0:0:
192,192,146937,1,0,0:0:0:0:
448,192,147114,128,0,147290:0:0:0:0:
192,192,147114,128,0,147996:0:0:0:0:
320,192,147290,1,0,0:0:0:0:
64,192,147290,1,0,0:0:0:0:
448,192,147467,1,0,0:0:0:0:
320,192,147643,1,0,0:0:0:0:
64,192,147643,1,0,0:0:0:0:
448,192,147820,1,0,0:0:0:0:
64,192,147996,128,0,148702:0:0:0:0:
320,192,147996,128,0,148349:0:0:0:0:
448,192,148173,1,0,0:0:0:0:
192,192,148349,1,0,0:0:0:0:
448,192,148526,1,0,0:0:0:0:
448,192,148702,128,0,149761:0:0:0:0:
320,192,148702,1,0,0:0:0:0:
192,192,148879,1,0,0:0:0:0:
64,192,149055,1,0,0:0:0:0:
320,192,149055,1,0,0:0:0:0:
192,192,149232,1,0,0:0:0:0:
64,192,149408,1,0,0:0:0:0:
320,192,149408,1,0,0:0:0:0:
192,192,149585,1,0,0:0:0:0:
64,192,149761,1,0,0:0:0:0:
320,192,149761,1,0,0:0:0:0:
192,192,149937,1,0,0:0:0:0:
320,192,150114,128,0,150467:0:0:0:0:
448,192,150114,1,0,0:0:0:0:
64,192,150290,1,0,0:0:0:0:
448,192,150467,128,0,150820:0:0:0:0:
192,192,150467,1,0,0:0:0:0:
320,192,150643,1,0,0:0:0:0:
64,192,150820,128,0,151173:0:0:0:0:
192,192,150820,1,0,0:0:0:0:
320,192,150996,1,0,0:0:0:0:
192,192,151173,128,0,151526:0:0:0:0:
448,192,151173,1,0,0:0:0:0:
320,192,151349,1,0,0:0:0:0:
448,192,151526,128,0,151835:0:0:0:0:
64,192,151526,1,0,0:0:0:0:
320,192,151702,1,0,0:0:0:0:
192,192,151879,128,0,152232:0:0:0:0:
64,192,151879,1,0,0:0:0:0:
320,192,152055,1,0,0:0:0:0:
64,192,152232,128,0,152585:0:0:0:0:
448,192,152232,1,0,0:0:0:0:
320,192,152408,1,0,0:0:0:0:
192,192,152585,128,0,152937:0:0:0:0:
448,192,152585,1,0,0:0:0:0:
64,192,152761,1,0,0:0:0:0:
320,192,152761,1,0,0:0:0:0:
320,192,152937,128,0,153290:0:0:0:0:
448,192,152937,1,0,0:0:0:0:
192,192,153114,1,0,0:0:0:0:
448,192,153290,128,0,153643:0:0:0:0:
64,192,153290,1,0,0:0:0:0:
320,192,153467,1,0,0:0:0:0:
64,192,153643,128,0,153996:0:0:0:0:
192,192,153643,1,0,0:0:0:0:
320,192,153820,1,0,0:0:0:0:
192,192,153996,128,0,154349:0:0:0:0:
448,192,153996,1,0,0:0:0:0:
64,192,154173,1,0,0:0:0:0:
320,192,154349,128,8,154526:0:0:0:0:
448,192,154349,1,8,0:0:0:0:
448,192,154526,128,0,154702:0:0:0:0:
64,192,154702,128,0,155761:0:0:0:0:
192,192,154702,1,0,0:0:0:0:
320,192,154879,1,0,0:0:0:0:
192,192,154879,1,0,0:0:0:0:
320,192,155055,1,8,0:0:0:0:
448,192,155055,1,8,0:0:0:0:
192,192,155143,1,2,0:0:0:0:
320,192,155232,1,2,0:0:0:0:
448,192,155232,1,2,0:0:0:0:
192,192,155320,1,2,0:0:0:0:
320,192,155408,1,8,0:0:0:0:
448,192,155408,1,8,0:0:0:0:
192,192,155496,1,2,0:0:0:0:
448,192,155496,1,2,0:0:0:0:
320,192,155585,1,2,0:0:0:0:
448,192,155585,1,2,0:0:0:0:
192,192,155673,1,2,0:0:0:0:
320,192,155761,1,0,0:0:0:0:
448,192,155761,1,2,0:0:0:0:
64,192,156114,1,0,0:0:0:0:
192,192,156290,1,0,0:0:0:0:
64,192,156467,1,0,0:0:0:0:
448,192,156467,128,0,157173:0:0:0:0:
320,192,156643,1,0,0:0:0:0:
192,192,156820,1,0,0:0:0:0:
64,192,156996,1,0,0:0:0:0:
320,192,157173,128,0,157526:0:0:0:0:
192,192,157173,1,0,0:0:0:0:
64,192,157349,1,0,0:0:0:0:
448,192,157526,1,0,0:0:0:0:
192,192,157702,128,0,157879:0:0:0:0:
64,192,157702,1,0,0:0:0:0:
320,192,157790,1,0,0:0:0:0:
448,192,157879,128,0,158232:0:0:0:0:
64,192,157879,1,0,0:0:0:0:
192,192,158055,1,0,0:0:0:0:
320,192,158232,128,0,158585:0:0:0:0:
64,192,158232,1,0,0:0:0:0:
192,192,158408,1,0,0:0:0:0:
192,192,158585,128,0,159996:0:0:0:0:
448,192,158585,1,0,0:0:0:0:
64,192,158761,1,0,0:0:0:0:
320,192,158937,1,0,0:0:0:0:
64,192,159114,1,0,0:0:0:0:
448,192,159290,1,0,0:0:0:0:
320,192,159467,1,0,0:0:0:0:
64,192,159643,1,0,0:0:0:0:
448,192,159820,1,0,0:0:0:0:
320,192,159996,1,0,0:0:0:0:
64,192,160173,1,0,0:0:0:0:
320,192,160349,1,0,0:0:0:0:
448,192,160526,1,0,0:0:0:0:
64,192,160702,1,0,0:0:0:0:
320,192,160879,1,0,0:0:0:0:
64,192,161055,1,0,0:0:0:0:
448,192,161232,1,0,0:0:0:0:
320,192,161320,1,0,0:0:0:0:
192,192,161408,128,0,161761:0:0:0:0:
448,192,161585,1,0,0:0:0:0:
320,192,161761,1,0,0:0:0:0:
448,192,161937,1,0,0:0:0:0:
64,192,162114,128,0,162467:0:0:0:0:
192,192,162290,1,0,0:0:0:0:
448,192,162467,1,0,0:0:0:0:
320,192,162643,1,0,0:0:0:0:
192,192,162820,128,0,163173:0:0:0:0:
64,192,162996,1,0,0:0:0:0:
320,192,163173,1,0,0:0:0:0:
448,192,163349,128,0,163526:0:0:0:0:
320,192,163526,128,0,163879:0:0:0:0:
64,192,163702,1,0,0:0:0:0:
64,192,163879,128,0,164232:0:0:0:0:
448,192,164055,1,0,0:0:0:0:
320,192,164143,1,0,0:0:0:0:
192,192,164232,128,0,165290:0:0:0:0:
320,192,164408,1,0,0:0:0:0:
448,192,164585,1,0,0:0:0:0:
320,192,164761,1,0,0:0:0:0:
64,192,164937,1,0,0:0:0:0:
320,192,165114,1,0,0:0:0:0:
448,192,165290,1,0,0:0:0:0:
320,192,165467,1,0,0:0:0:0:
64,192,165643,128,0,166349:0:0:0:0:
448,192,165820,1,0,0:0:0:0:
192,192,165996,1,0,0:0:0:0:
448,192,166173,1,0,0:0:0:0:
192,192,166349,128,0,167055:0:0:0:0:
64,192,167055,128,0,168114:0:0:0:0:
448,192,167055,1,0,0:0:0:0:
320,192,167232,1,0,0:0:0:0:
192,192,167408,1,0,0:0:0:0:
448,192,167585,1,0,0:0:0:0:
320,192,167761,1,0,0:0:0:0:
192,192,167937,1,0,0:0:0:0:
448,192,168114,1,0,0:0:0:0:
320,192,168290,128,0,168467:0:0:0:0:
64,192,168467,128,0,169526:0:0:0:0:
192,192,168643,1,0,0:0:0:0:
448,192,168820,1,0,0:0:0:0:
192,192,168996,1,0,0:0:0:0:
448,192,169173,1,0,0:0:0:0:
320,192,169349,1,0,0:0:0:0:
320,192,169526,128,0,169702:0:0:0:0:
448,192,169702,128,0,169879:0:0:0:0:
192,192,169879,128,0,170937:0:0:0:0:
64,192,170055,1,0,0:0:0:0:
320,192,170232,1,0,0:0:0:0:
64,192,170408,1,0,0:0:0:0:
448,192,170585,1,0,0:0:0:0:
64,192,170761,1,0,0:0:0:0:
320,192,170937,1,0,0:0:0:0:
448,192,171114,128,0,171290:0:0:0:0:
320,192,171290,128,0,171467:0:0:0:0:
64,192,171467,1,0,0:0:0:0:
448,192,171643,1,0,0:0:0:0:
64,192,171820,1,0,0:0:0:0:
320,192,171820,128,0,171996:0:0:0:0:
448,192,171908,1,0,0:0:0:0:
192,192,171996,128,0,172349:0:0:0:0:
320,192,172173,1,0,0:0:0:0:
64,192,172349,1,0,0:0:0:0:
448,192,172349,1,0,0:0:0:0:
320,192,172526,1,0,0:0:0:0:
64,192,172702,1,0,0:0:0:0:
192,192,172702,128,0,173055:0:0:0:0:
448,192,172879,1,0,0:0:0:0:
320,192,173055,128,0,173408:0:0:0:0:
64,192,173232,1,0,0:0:0:0:
448,192,173408,128,0,173761:0:0:0:0:
192,192,173585,1,0,0:0:0:0:
320,192,173761,128,0,174114:0:0:0:0:
64,192,173937,1,0,0:0:0:0:
192,192,174114,128,0,174467:0:0:0:0:
448,192,174290,1,0,0:0:0:0:
64,192,174467,128,0,174820:0:0:0:0:
320,192,174643,1,0,0:0:0:0:
192,192,174820,128,0,175173:0:0:0:0:
448,192,174996,1,0,0:0:0:0:
320,192,175173,128,0,175526:0:0:0:0:
64,192,175349,1,0,0:0:0:0:
192,192,175526,128,0,175879:0:0:0:0:
448,192,175702,1,0,0:0:0:0:
64,192,175879,128,0,176232:0:0:0:0:
320,192,176055,1,0,0:0:0:0:
192,192,176232,128,0,176585:0:0:0:0:
448,192,176408,1,0,0:0:0:0:
320,192,176585,128,0,176937:0:0:0:0:
64,192,176761,1,0,0:0:0:0:
448,192,176937,128,0,178349:0:0:0:0:
192,192,176937,128,0,178349:0:0:0:0:
64,192,178349,1,0,0:0:0:0:
64,192,180114,1,8,0:0:0:0:
192,192,180114,1,12,0:0:0:0:
320,192,180996,1,0,0:0:0:0:
448,192,180996,1,0,0:0:0:0:
448,192,182055,1,0,0:0:0:0:
320,192,182143,1,0,0:0:0:0:
192,192,182232,1,0,0:0:0:0:
320,192,182408,1,0,0:0:0:0:
64,192,182585,1,0,0:0:0:0:
448,192,182585,1,0,0:0:0:0:
192,192,182761,1,0,0:0:0:0:
64,192,182937,1,0,0:0:0:0:
320,192,182937,1,0,0:0:0:0:
192,192,183114,1,0,0:0:0:0:
64,192,183290,1,0,0:0:0:0:
448,192,183290,1,0,0:0:0:0:
192,192,183467,128,0,183820:0:0:0:0:
64,192,183643,1,0,0:0:0:0:
448,192,183643,1,0,0:0:0:0:
320,192,183820,128,0,183996:0:0:0:0:
448,192,183996,1,0,0:0:0:0:
64,192,183996,128,0,184349:0:0:0:0:
192,192,184173,1,0,0:0:0:0:
448,192,184349,1,8,0:0:0:0:
192,192,184526,1,0,0:0:0:0:
64,192,184702,1,0,0:0:0:0:
320,192,184702,1,0,0:0:0:0:
192,192,184879,1,0,0:0:0:0:
64,192,185055,1,0,0:0:0:0:
448,192,185055,1,0,0:0:0:0:
320,192,185232,1,0,0:0:0:0:
64,192,185408,1,0,0:0:0:0:
192,192,185408,1,0,0:0:0:0:
448,192,185408,128,0,186114:0:0:0:0:
320,192,185585,1,0,0:0:0:0:
64,192,185761,1,0,0:0:0:0:
192,192,185761,1,0,0:0:0:0:
320,192,185937,1,0,0:0:0:0:
64,192,186114,1,0,0:0:0:0:
320,192,186114,128,0,186820:0:0:0:0:
192,192,186290,1,0,0:0:0:0:
64,192,186467,1,0,0:0:0:0:
448,192,186467,1,0,0:0:0:0:
192,192,186643,1,0,0:0:0:0:
64,192,186820,1,0,0:0:0:0:
448,192,186820,128,0,187526:0:0:0:0:
192,192,186996,1,0,0:0:0:0:
64,192,187173,1,0,0:0:0:0:
320,192,187173,1,0,0:0:0:0:
192,192,187349,1,0,0:0:0:0:
64,192,187526,1,0,0:0:0:0:
320,192,187526,128,0,188232:0:0:0:0:
192,192,187702,1,0,0:0:0:0:
64,192,187879,1,0,0:0:0:0:
448,192,187879,1,0,0:0:0:0:
192,192,188055,1,0,0:0:0:0:
64,192,188232,1,0,0:0:0:0:
448,192,188232,128,0,189643:0:0:0:0:
192,192,188408,1,0,0:0:0:0:
64,192,188585,1,0,0:0:0:0:
320,192,188585,1,0,0:0:0:0:
192,192,188761,1,0,0:0:0:0:
320,192,188937,1,0,0:0:0:0:
64,192,188937,1,0,0:0:0:0:
192,192,189114,1,0,0:0:0:0:
64,192,189290,1,0,0:0:0:0:
320,192,189290,1,0,0:0:0:0:
192,192,189467,1,0,0:0:0:0:
64,192,189643,1,0,0:0:0:0:
320,192,189643,128,0,190349:0:0:0:0:
192,192,189820,1,0,0:0:0:0:
64,192,189996,1,0,0:0:0:0:
192,192,189996,1,0,0:0:0:0:
448,192,190173,1,0,0:0:0:0:
64,192,190349,1,0,0:0:0:0:
192,192,190349,1,0,0:0:0:0:
320,192,190526,1,0,0:0:0:0:
448,192,190526,128,0,191055:0:0:0:0:
64,192,190702,1,0,0:0:0:0:
192,192,190702,128,0,190879:0:0:0:0:
320,192,190879,1,0,0:0:0:0:
192,192,191055,1,0,0:0:0:0:
64,192,191055,1,0,0:0:0:0:
320,192,191232,1,0,0:0:0:0:
192,192,191408,1,0,0:0:0:0:
448,192,191408,128,0,192114:0:0:0:0:
320,192,191585,1,0,0:0:0:0:
64,192,191761,1,0,0:0:0:0:
192,192,191761,1,0,0:0:0:0:
64,192,191937,1,0,0:0:0:0:
192,192,192114,1,0,0:0:0:0:
320,192,192114,1,0,0:0:0:0:
320,192,192290,1,0,0:0:0:0:
448,192,192467,1,0,0:0:0:0:
64,192,192467,1,0,0:0:0:0:
192,192,192467,128,0,192820:0:0:0:0:
320,192,192643,1,0,0:0:0:0:
64,192,192820,1,0,0:0:0:0:
448,192,192820,1,0,0:0:0:0:
320,192,192996,1,0,0:0:0:0:
64,192,193173,1,0,0:0:0:0:
448,192,193173,1,0,0:0:0:0:
192,192,193349,128,0,193879:0:0:0:0:
320,192,193349,1,0,0:0:0:0:
448,192,193526,128,0,193702:0:0:0:0:
64,192,193526,1,0,0:0:0:0:
320,192,193702,1,0,0:0:0:0:
64,192,193879,1,0,0:0:0:0:
448,192,193879,1,0,0:0:0:0:
320,192,194055,1,0,0:0:0:0:
448,192,194232,1,0,0:0:0:0:
320,192,194232,128,0,194408:0:0:0:0:
64,192,194232,128,0,194585:0:0:0:0:
192,192,194408,1,0,0:0:0:0:
448,192,194408,128,0,194585:0:0:0:0:
320,192,194585,1,0,0:0:0:0:
192,192,194761,1,0,0:0:0:0:
320,192,194761,128,0,195290:0:0:0:0:
64,192,194937,1,0,0:0:0:0:
448,192,194937,1,0,0:0:0:0:
192,192,195114,1,0,0:0:0:0:
448,192,195114,128,0,195290:0:0:0:0:
64,192,195290,1,0,0:0:0:0:
192,192,195290,128,0,195643:0:0:0:0:
320,192,195467,1,0,0:0:0:0:
64,192,195643,1,0,0:0:0:0:
448,192,195643,1,0,0:0:0:0:
320,192,195820,1,0,0:0:0:0:
64,192,195996,1,0,0:0:0:0:
448,192,195996,1,0,0:0:0:0:
320,192,196173,1,0,0:0:0:0:
64,192,196349,1,0,0:0:0:0:
448,192,196349,128,0,196702:0:0:0:0:
192,192,196526,1,0,0:0:0:0:
64,192,196702,1,0,0:0:0:0:
320,192,196702,128,0,197055:0:0:0:0:
192,192,196879,1,0,0:0:0:0:
64,192,197055,1,0,0:0:0:0:
448,192,197055,128,0,197408:0:0:0:0:
192,192,197232,1,0,0:0:0:0:
64,192,197408,1,0,0:0:0:0:
320,192,197408,128,0,198114:0:0:0:0:
192,192,197585,1,0,0:0:0:0:
64,192,197761,1,0,0:0:0:0:
448,192,197761,1,0,0:0:0:0:
192,192,197937,1,0,0:0:0:0:
64,192,198114,1,0,0:0:0:0:
448,192,198114,128,0,198467:0:0:0:0:
192,192,198290,1,0,0:0:0:0:
64,192,198467,1,0,0:0:0:0:
192,192,198467,128,0,198820:0:0:0:0:
320,192,198643,1,0,0:0:0:0:
448,192,198820,1,0,0:0:0:0:
320,192,198820,128,0,199173:0:0:0:0:
192,192,198996,1,0,0:0:0:0:
64,192,199173,1,0,0:0:0:0:
448,192,199173,128,0,199526:0:0:0:0:
192,192,199349,1,0,0:0:0:0:
64,192,199526,1,0,0:0:0:0:
320,192,199526,128,0,199879:0:0:0:0:
192,192,199702,1,0,0:0:0:0:
64,192,199879,1,0,0:0:0:0:
448,192,199879,128,0,200232:0:0:0:0:
192,192,200055,1,0,0:0:0:0:
64,192,200232,1,0,0:0:0:0:
320,192,200232,128,0,200585:0:0:0:0:
192,192,200408,1,0,0:0:0:0:
64,192,200585,1,0,0:0:0:0:
448,192,200585,128,0,200937:0:0:0:0:
192,192,200761,1,0,0:0:0:0:
64,192,200937,1,0,0:0:0:0:
320,192,200937,128,0,201820:0:0:0:0:
192,192,201114,1,0,0:0:0:0:
64,192,201290,1,0,0:0:0:0:
448,192,201290,1,0,0:0:0:0:
192,192,201467,1,0,0:0:0:0:
64,192,201643,1,0,0:0:0:0:
448,192,201643,1,0,0:0:0:0:
192,192,201820,1,0,0:0:0:0:
64,192,201996,1,0,0:0:0:0:
192,192,201996,1,0,0:0:0:0:
448,192,202085,1,0,0:0:0:0:
320,192,202085,1,0,0:0:0:0:
192,192,202173,1,0,0:0:0:0:
64,192,202173,1,0,0:0:0:0:
320,192,202261,1,0,0:0:0:0:
448,192,202261,1,0,0:0:0:0:
64,192,202349,1,0,0:0:0:0:
192,192,202349,1,0,0:0:0:0:
320,192,202526,1,0,0:0:0:0:
64,192,202702,1,0,0:0:0:0:
448,192,202702,1,0,0:0:0:0:
192,192,202879,1,0,0:0:0:0:
64,192,203055,1,0,0:0:0:0:
448,192,203055,1,0,0:0:0:0:
320,192,203055,128,0,203761:0:0:0:0:
192,192,203232,1,0,0:0:0:0:
64,192,203408,1,0,0:0:0:0:
448,192,203408,1,0,0:0:0:0:
192,192,203585,1,0,0:0:0:0:
64,192,203761,1,0,0:0:0:0:
448,192,203761,128,0,204467:0:0:0:0:
192,192,203937,1,0,0:0:0:0:
320,192,204114,1,0,0:0:0:0:
64,192,204114,1,0,0:0:0:0:
192,192,204290,1,0,0:0:0:0:
64,192,204467,1,0,0:0:0:0:
320,192,204467,128,0,205173:0:0:0:0:
192,192,204643,1,0,0:0:0:0:
448,192,204820,1,0,0:0:0:0:
192,192,204996,1,0,0:0:0:0:
64,192,205173,1,0,0:0:0:0:
448,192,205173,128,0,207996:0:0:0:0:
192,192,205349,1,0,0:0:0:0:
64,192,205526,1,0,0:0:0:0:
320,192,205526,1,0,0:0:0:0:
192,192,205702,1,0,0:0:0:0:
64,192,205879,1,0,0:0:0:0:
320,192,205879,1,0,0:0:0:0:
192,192,206055,1,0,0:0:0:0:
64,192,206232,1,0,0:0:0:0:
320,192,206232,1,0,0:0:0:0:
192,192,206408,1,0,0:0:0:0:
320,192,206585,1,0,0:0:0:0:
64,192,206585,1,0,0:0:0:0:
192,192,206761,1,0,0:0:0:0:
64,192,206937,1,0,0:0:0:0:
320,192,206937,1,0,0:0:0:0:
192,192,207114,1,0,0:0:0:0:
64,192,207290,1,0,0:0:0:0:
320,192,207290,1,0,0:0:0:0:
192,192,207467,1,0,0:0:0:0:
320,192,207643,1,0,0:0:0:0:
64,192,207643,1,0,0:0:0:0:
192,192,207820,1,0,0:0:0:0:
64,192,207996,1,0,0:0:0:0:
320,192,207996,1,0,0:0:0:0:
192,192,208173,1,0,0:0:0:0:
64,192,208349,1,0,0:0:0:0:
448,192,208349,1,0,0:0:0:0:
320,192,208526,1,0,0:0:0:0:
64,192,208702,1,0,0:0:0:0:
448,192,208702,1,0,0:0:0:0:
192,192,208702,128,0,209408:0:0:0:0:
320,192,208879,1,0,0:0:0:0:
64,192,209055,1,0,0:0:0:0:
448,192,209055,1,0,0:0:0:0:
320,192,209232,1,0,0:0:0:0:
64,192,209408,1,0,0:0:0:0:
448,192,209408,128,0,210114:0:0:0:0:
320,192,209585,1,0,0:0:0:0:
192,192,209761,1,0,0:0:0:0:
64,192,209761,1,0,0:0:0:0:
320,192,209937,1,0,0:0:0:0:
64,192,210114,1,0,0:0:0:0:
320,192,210114,128,0,210820:0:0:0:0:
192,192,210290,1,0,0:0:0:0:
64,192,210467,1,0,0:0:0:0:
448,192,210467,1,0,0:0:0:0:
192,192,210643,1,0,0:0:0:0:
64,192,210820,1,0,0:0:0:0:
448,192,210820,128,0,212232:0:0:0:0:
192,192,210996,1,0,0:0:0:0:
320,192,211173,1,0,0:0:0:0:
64,192,211173,1,0,0:0:0:0:
192,192,211349,1,0,0:0:0:0:
64,192,211526,1,0,0:0:0:0:
320,192,211526,1,0,0:0:0:0:
192,192,211702,1,0,0:0:0:0:
64,192,211879,1,0,0:0:0:0:
320,192,211879,1,0,0:0:0:0:
192,192,212055,1,0,0:0:0:0:
320,192,212232,1,0,0:0:0:0:
192,192,212232,128,0,213290:0:0:0:0:
64,192,212408,1,0,0:0:0:0:
320,192,212585,1,0,0:0:0:0:
448,192,212585,1,0,0:0:0:0:
64,192,212761,1,0,0:0:0:0:
320,192,212937,1,0,0:0:0:0:
448,192,212937,1,0,0:0:0:0:
320,192,213114,1,0,0:0:0:0:
64,192,213290,1,0,0:0:0:0:
448,192,213290,1,0,0:0:0:0:
320,192,213467,1,0,0:0:0:0:
192,192,213555,1,0,0:0:0:0:
448,192,213643,1,0,0:0:0:0:
320,192,213643,1,0,0:0:0:0:
320,192,213820,1,0,0:0:0:0:
320,192,213996,128,0,214702:0:0:0:0:
64,192,213996,1,0,0:0:0:0:
192,192,213996,1,0,0:0:0:0:
448,192,214173,1,0,0:0:0:0:
192,192,214349,1,0,0:0:0:0:
448,192,214526,1,0,0:0:0:0:
192,192,214614,1,0,0:0:0:0:
448,192,214702,1,0,0:0:0:0:
64,192,214702,1,0,0:0:0:0:
320,192,214879,128,0,215408:0:0:0:0:
64,192,215055,1,0,0:0:0:0:
448,192,215055,1,0,0:0:0:0:
192,192,215232,1,0,0:0:0:0:
448,192,215320,1,0,0:0:0:0:
192,192,215408,1,0,0:0:0:0:
64,192,215408,1,0,0:0:0:0:
448,192,215585,1,0,0:0:0:0:
320,192,215761,128,0,216820:0:0:0:0:
192,192,215761,1,0,0:0:0:0:
448,192,215937,1,0,0:0:0:0:
64,192,216114,1,0,0:0:0:0:
192,192,216114,1,0,0:0:0:0:
192,192,216290,1,0,0:0:0:0:
448,192,216467,1,0,0:0:0:0:
64,192,216467,1,0,0:0:0:0:
192,192,216643,1,0,0:0:0:0:
64,192,216820,128,0,217173:0:0:0:0:
448,192,216820,1,0,0:0:0:0:
320,192,216996,1,0,0:0:0:0:
192,192,217173,128,0,217526:0:0:0:0:
448,192,217349,1,0,0:0:0:0:
320,192,217526,128,0,218055:0:0:0:0:
448,192,217614,1,0,0:0:0:0:
64,192,217702,128,0,218055:0:0:0:0:
448,192,217879,1,0,0:0:0:0:
192,192,218055,128,0,218232:0:0:0:0:
448,192,218232,128,0,218408:0:0:0:0:
320,192,218408,128,0,218585:0:0:0:0:
64,192,218585,128,0,218937:0:0:0:0:
448,192,218937,128,0,219643:0:0:0:0:
192,192,219114,1,0,0:0:0:0:
64,192,219290,128,0,219643:0:0:0:0:
320,192,219467,1,0,0:0:0:0:
192,192,219643,128,0,219820:0:0:0:0:
320,192,219820,128,0,220173:0:0:0:0:
448,192,219996,1,0,0:0:0:0:
64,192,220173,128,0,220349:0:0:0:0:
192,192,220349,1,0,0:0:0:0:
448,192,220349,1,0,0:0:0:0:
320,192,220526,128,0,220702:0:0:0:0:
448,192,220702,1,0,0:0:0:0:
64,192,220702,1,0,0:0:0:0:
192,192,220879,128,0,220967:0:0:0:0:
320,192,220967,128,0,221055:0:0:0:0:
64,192,221055,1,0,0:0:0:0:
448,192,221055,128,0,221143:0:0:0:0:
320,192,221232,128,0,221408:0:0:0:0:
64,192,221408,1,0,0:0:0:0:
448,192,221408,1,0,0:0:0:0:
192,192,221585,1,0,0:0:0:0:
448,192,221761,1,0,0:0:0:0:
320,192,221761,1,0,0:0:0:0:
192,192,221937,1,0,0:0:0:0:
64,192,222026,1,0,0:0:0:0:
320,192,222114,128,0,222467:0:0:0:0:
192,192,222114,1,0,0:0:0:0:
448,192,222290,1,0,0:0:0:0:
64,192,222467,128,0,222643:0:0:0:0:
192,192,222467,1,0,0:0:0:0:
448,192,222643,1,0,0:0:0:0:
320,192,222643,1,0,0:0:0:0:
192,192,222732,1,0,0:0:0:0:
320,192,222820,128,0,223349:0:0:0:0:
64,192,222820,1,0,0:0:0:0:
448,192,222996,1,0,0:0:0:0:
192,192,223173,1,0,0:0:0:0:
64,192,223173,1,0,0:0:0:0:
192,192,223349,128,0,224937:0:0:0:0:
64,192,223526,128,0,224937:0:0:0:0:
448,192,223702,1,0,0:0:0:0:
320,192,223879,1,0,0:0:0:0:
448,192,224055,1,0,0:0:0:0:
320,192,224232,1,0,0:0:0:0:
448,192,224408,1,0,0:0:0:0:
320,192,224585,1,2,0:0:0:0:
448,192,224673,1,2,0:0:0:0:
320,192,224761,1,0,0:0:0:0:
448,192,224849,1,2,0:0:0:0:
320,192,224937,128,0,225996:0:0:0:0:
64,192,225114,1,0,0:0:0:0:
448,192,225290,1,0,0:0:0:0:
192,192,225467,1,0,0:0:0:0:
64,192,225643,128,0,226349:0:0:0:0:
448,192,225643,1,0,0:0:0:0:
192,192,225820,1,0,0:0:0:0:
448,192,225996,128,0,226349:0:0:0:0:
192,192,226173,1,0,0:0:0:0:
320,192,226349,128,0,227055:0:0:0:0:
448,192,226526,1,0,0:0:0:0:
192,192,226702,1,0,0:0:0:0:
448,192,226879,1,0,0:0:0:0:
64,192,227055,128,0,227408:0:0:0:0:
192,192,227232,128,0,227408:0:0:0:0:
320,192,227408,128,0,228820:0:0:0:0:
448,192,227585,128,0,227937:0:0:0:0:
192,192,227761,128,0,228114:0:0:0:0:
64,192,227937,1,0,0:0:0:0:
448,192,228114,1,0,0:0:0:0:
192,192,228290,1,0,0:0:0:0:
64,192,228467,128,0,229526:0:0:0:0:
192,192,228643,1,0,0:0:0:0:
448,192,228820,128,0,229173:0:0:0:0:
192,192,228996,1,0,0:0:0:0:
320,192,229173,128,0,230232:0:0:0:0:
448,192,229349,1,0,0:0:0:0:
192,192,229526,128,0,229879:0:0:0:0:
448,192,229702,1,0,0:0:0:0:
64,192,229879,128,0,230937:0:0:0:0:
192,192,230055,1,0,0:0:0:0:
448,192,230232,128,0,230585:0:0:0:0:
192,192,230408,1,0,0:0:0:0:
320,192,230585,128,0,231290:0:0:0:0:
448,192,230761,1,0,0:0:0:0:
192,192,230937,128,0,231996:0:0:0:0:
64,192,231114,1,0,0:0:0:0:
448,192,231290,128,0,231643:0:0:0:0:
64,192,231467,1,0,0:0:0:0:
320,192,231643,128,0,232702:0:0:0:0:
64,192,231820,1,0,0:0:0:0:
448,192,231996,128,0,232349:0:0:0:0:
192,192,232173,1,0,0:0:0:0:
64,192,232349,128,0,233452:0:0:0:0:
192,192,232526,1,0,0:0:0:0:
448,192,232702,128,0,233055:0:0:0:0:
192,192,232879,1,0,0:0:0:0:
320,192,233055,128,0,233761:0:0:0:0:
448,192,233232,1,0,0:0:0:0:
192,192,233408,128,0,234114:0:0:0:0:
64,192,233585,1,0,0:0:0:0:
448,192,233761,128,0,234467:0:0:0:0:
320,192,233937,1,0,0:0:0:0:
64,192,234114,128,0,234820:0:0:0:0:
192,192,234290,1,0,0:0:0:0:
320,192,234467,128,0,235173:0:0:0:0:
448,192,234643,1,0,0:0:0:0:
192,192,234820,128,0,235879:0:0:0:0:
64,192,234996,1,0,0:0:0:0:
448,192,235173,128,0,235526:0:0:0:0:
64,192,235349,1,0,0:0:0:0:
320,192,235526,128,0,236232:0:0:0:0:
448,192,235702,1,0,0:0:0:0:
64,192,235879,128,0,236585:0:0:0:0:
448,192,236055,1,8,0:0:0:0:
448,192,236232,1,8,0:0:0:0:
192,192,236320,128,8,236452:0:0:0:0:
320,192,236452,128,8,236585:0:0:0:0:
448,192,236585,128,2,236937:0:0:0:0:
192,192,236761,128,2,237114:0:0:0:0:
320,192,236937,128,2,237290:0:0:0:0:
64,192,237114,128,2,237467:0:0:0:0:
448,192,237290,128,2,237643:0:0:0:0:
192,192,237467,128,2,237864:0:0:0:0:
320,192,237643,128,2,238040:0:0:0:0:
64,192,237820,128,2,238217:0:0:0:0:
448,192,237996,128,2,238349:0:0:0:0:
192,192,238173,128,2,238526:0:0:0:0:
320,192,238349,128,2,238879:0:0:0:0:
64,192,238526,1,2,0:0:0:0:
192,192,238702,128,2,239232:0:0:0:0:
448,192,238879,1,2,0:0:0:0:
448,192,239055,1,0,0:0:0:0:
320,192,239232,128,2,239585:0:0:0:0:
64,192,239232,1,2,0:0:0:0:
64,192,239408,1,0,0:0:0:0:
192,192,239585,128,2,239937:0:0:0:0:
448,192,239585,1,2,0:0:0:0:
448,192,239761,1,0,0:0:0:0:
320,192,239937,128,2,240290:0:0:0:0:
64,192,239937,1,2,0:0:0:0:
64,192,240114,1,0,0:0:0:0:
192,192,240290,128,2,240643:0:0:0:0:
448,192,240290,1,2,0:0:0:0:
448,192,240467,1,0,0:0:0:0:
320,192,240643,128,2,240996:0:0:0:0:
64,192,240643,1,2,0:0:0:0:
64,192,240732,1,0,0:0:0:0:
448,192,240820,1,0,0:0:0:0:
192,192,240908,1,0,0:0:0:0:
448,192,240996,1,2,0:0:0:0:
64,192,240996,1,2,0:0:0:0:
192,192,241085,1,0,0:0:0:0:
320,192,241173,128,2,241526:0:0:0:0:
64,192,241173,1,2,0:0:0:0:
448,192,241261,1,2,0:0:0:0:
64,192,241349,1,2,0:0:0:0:
448,192,241437,1,2,0:0:0:0:
192,192,241526,128,2,241879:0:0:0:0:
64,192,241614,1,2,0:0:0:0:
448,192,241702,1,2,0:0:0:0:
320,192,241879,1,2,0:0:0:0:
448,192,241967,128,2,242585:0:0:0:0:
64,192,241967,1,2,0:0:0:0:
320,192,242055,1,4,0:0:0:0:
192,192,242055,1,0,0:0:0:0:
64,192,242232,1,0,0:0:0:0:
192,192,242320,1,0,0:0:0:0:
320,192,242408,128,2,242585:0:0:0:0:
192,192,242585,128,2,242937:0:0:0:0:
64,192,242585,1,4,0:0:0:0:
320,192,242937,128,2,243158:0:0:0:0:
448,192,243158,128,2,243511:0:0:0:0:
64,192,243158,1,4,0:0:0:0:
64,192,243511,1,2,0:0:0:0:
320,192,243643,128,2,243996:0:0:0:0:
192,192,243643,1,4,0:0:0:0:
64,192,243996,128,2,244349:0:0:0:0:
448,192,244173,1,2,0:0:0:0:
192,192,244349,128,2,244526:0:0:0:0:
448,192,244526,1,2,0:0:0:0:
320,192,244526,1,2,0:0:0:0:
