osu file format v14

[General]
AudioFilename: audio.mp3
AudioLeadIn: 0
PreviewTime: 152379
Countdown: 0
SampleSet: Soft
StackLeniency: 0.7
Mode: 0
LetterboxInBreaks: 0
WidescreenStoryboard: 1

[Editor]
Bookmarks: 10026,19438,38262,57085,75909,85320,94732,104144,122967,132379,146497,153556,162967,172379,181791,191203,200614,210026
DistanceSpacing: 1.1
BeatDivisor: 8
GridSize: 8
TimelineZoom: 2.1

[Metadata]
Title:Remembrance
TitleUnicode:Remembrance
Artist:MYTH & ROID
ArtistUnicode:MYTH & ROID
Creator:Diriusse
Version:Insane
Source:幼女戦記
Tags:youjo senki movie theme saga tanya the evil degurechaff
BeatmapID:2123190
BeatmapSetID:948950

[Difficulty]
HPDrainRate:6
CircleSize:4
OverallDifficulty:7
ApproachRate:9
SliderMultiplier:2.09999990463257
SliderTickRate:1

[Events]
//Background and Video events
0,0,"67225648_p0_master1200.jpg",0,0
//Break Periods
//Storyboard Layer 0 (Background)
//Storyboard Layer 1 (Fail)
//Storyboard Layer 2 (Pass)
//Storyboard Layer 3 (Foreground)
//Storyboard Layer 4 (Overlay)
//Storyboard Sound Samples

[TimingPoints]
615,588.235294117647,4,2,1,50,1,0
615,-200,4,2,3,20,0,0
3556,-200,4,2,3,5,0,0
3703,-200,4,2,3,20,0,0
5320,-200,4,2,3,25,0,0
8409,-133.333333333333,4,2,3,30,0,0
9585,-133.333333333333,4,2,3,40,0,0
10026,-100,4,2,1,50,0,0
10124,-100,4,2,3,50,0,0
10320,-100,4,2,1,50,0,0
10516,-100,4,2,3,50,0,0
10614,-100,4,2,1,50,0,0
10762,-100,4,2,3,25,0,0
10909,-100,4,2,1,50,0,0
11056,-100,4,2,3,25,0,0
11203,-100,4,2,1,50,0,0
11693,-100,4,2,3,50,0,0
11791,-100,4,2,1,50,0,0
11938,-100,4,2,3,25,0,0
12085,-100,4,2,1,50,0,0
12232,-100,4,2,3,25,0,0
12379,-100,4,2,1,50,0,0
14046,-100,4,2,3,50,0,0
14144,-100,4,2,1,50,0,0
14291,-100,4,2,3,25,0,0
14438,-100,4,2,1,50,0,0
14585,-100,4,2,3,25,0,0
14732,-100,4,2,1,50,0,0
14879,-100,4,2,3,25,0,0
15026,-100,4,2,1,50,0,0
17967,-200,4,2,1,50,0,0
19438,-133.333333333333,4,2,3,40,0,0
19732,-133.333333333333,4,2,3,20,0,0
20026,-133.333333333333,4,2,3,40,0,0
20320,-133.333333333333,4,2,3,20,0,0
20467,-133.333333333333,4,2,3,40,0,0
20909,-133.333333333333,4,2,3,20,0,0
21203,-133.333333333333,4,2,3,40,0,0
21350,-133.333333333333,4,2,3,20,0,0
21497,-133.333333333333,4,2,3,40,0,0
21644,-133.333333333333,4,2,3,20,0,0
21791,-133.333333333333,4,2,3,40,0,0
23409,-133.333333333333,4,2,3,20,0,0
23556,-133.333333333333,4,2,3,40,0,0
23703,-133.333333333333,4,2,3,20,0,0
23850,-133.333333333333,4,2,3,40,0,0
25026,-133.333333333333,4,2,3,20,0,0
25173,-133.333333333333,4,2,3,40,0,0
25614,-133.333333333333,4,2,3,20,0,0
25909,-133.333333333333,4,2,3,40,0,0
26056,-133.333333333333,4,2,3,20,0,0
26203,-133.333333333333,4,2,3,40,0,0
26350,-133.333333333333,4,2,3,20,0,0
26497,-133.333333333333,4,2,3,40,0,0
26791,-133.333333333333,4,2,3,20,0,0
26938,-133.333333333333,4,2,3,40,0,0
27379,-133.333333333333,4,2,3,20,0,0
27526,-133.333333333333,4,2,3,40,0,0
27820,-133.333333333333,4,2,3,20,0,0
27967,-133.333333333333,4,2,3,40,0,0
28114,-133.333333333333,4,2,3,20,0,0
28262,-133.333333333333,4,2,3,40,0,0
29438,-117.647058823529,4,2,3,50,0,0
29732,-117.647058823529,4,2,3,20,0,0
29879,-117.647058823529,4,2,3,50,0,0
30320,-117.647058823529,4,2,3,20,0,0
30614,-117.647058823529,4,2,3,50,0,0
30762,-117.647058823529,4,2,3,20,0,0
30909,-117.647058823529,4,2,3,50,0,0
31056,-117.647058823529,4,2,3,20,0,0
31203,-117.647058823529,4,2,3,50,0,0
32820,-117.647058823529,4,2,3,20,0,0
32967,-117.647058823529,4,2,3,50,0,0
33114,-117.647058823529,4,2,3,20,0,0
33262,-117.647058823529,4,2,3,50,0,0
34438,-117.647058823529,4,2,3,20,0,0
34585,-117.647058823529,4,2,3,50,0,0
35026,-117.647058823529,4,2,3,20,0,0
35173,-117.647058823529,4,2,3,50,0,0
35614,-117.647058823529,4,2,3,20,0,0
35762,-117.647058823529,4,2,3,50,0,0
36056,-117.647058823529,4,2,3,20,0,0
36203,-117.647058823529,4,2,3,50,0,0
36350,-117.647058823529,4,2,3,20,0,0
36497,-117.647058823529,4,2,3,50,0,0
36644,-117.647058823529,4,2,3,20,0,0
36791,-117.647058823529,4,2,3,50,0,0
36938,-117.647058823529,4,2,3,20,0,0
37085,-117.647058823529,4,2,3,50,0,0
38262,-100,4,2,1,50,0,0
38997,-100,4,2,3,25,0,0
39144,-100,4,2,1,50,0,0
39291,-100,4,2,3,25,0,0
39438,-100,4,2,1,50,0,0
39879,-100,4,2,3,25,0,0
40026,-100,4,2,1,50,0,0
40762,-100,4,2,3,25,0,0
40909,-100,4,2,1,50,0,0
41350,-100,4,2,3,25,0,0
41497,-100,4,2,1,50,0,0
41791,-100,4,2,3,25,0,0
42085,-100,4,2,1,50,0,0
42820,-100,4,2,3,25,0,0
42967,-100,4,2,1,50,0,0
43703,-100,4,2,3,25,0,0
43850,-100,4,2,1,50,0,0
44438,-100,4,2,3,25,0,0
44732,-100,4,2,1,50,0,0
45467,-100,4,2,3,25,0,0
45614,-100,4,2,1,50,0,0
46056,-100,4,2,3,25,0,0
46203,-100,4,2,1,50,0,0
46350,-100,4,2,3,25,0,0
46497,-100,4,2,1,50,0,0
46644,-100,4,2,3,25,0,0
46791,-100,4,2,1,50,0,0
48409,-100,4,2,3,25,0,0
48556,-100,4,2,1,50,0,0
48703,-100,4,2,3,25,0,0
48850,-100,4,2,1,50,0,0
49144,-100,4,2,3,25,0,0
49438,-100,4,2,1,50,0,0
50173,-100,4,2,3,25,0,0
50320,-100,4,2,1,50,0,0
51350,-100,4,2,3,25,0,0
51497,-100,4,2,1,50,0,0
51791,-100,4,2,3,25,0,0
52085,-100,4,2,1,50,0,0
53114,-100,4,2,3,25,0,0
53262,-100,4,2,1,50,0,0
53997,-100,4,2,3,25,0,0
54144,-100,4,2,1,50,0,0
54291,-100,4,2,3,25,0,0
54438,-100,4,2,1,50,0,0
55320,-100,4,2,3,25,0,0
55909,-200,4,2,3,50,0,0
56203,-200,4,2,1,50,0,0
57085,-76.9230769230769,4,2,1,70,0,1
57232,-76.9230769230769,4,2,3,40,0,1
57379,-76.9230769230769,4,2,1,70,0,1
57526,-76.9230769230769,4,2,3,40,0,1
57673,-76.9230769230769,4,2,1,70,0,1
59585,-76.9230769230769,4,2,3,40,0,1
59732,-76.9230769230769,4,2,1,70,0,1
59879,-76.9230769230769,4,2,3,40,0,1
60026,-76.9230769230769,4,2,1,70,0,1
60173,-76.9230769230769,4,2,3,40,0,1
60320,-76.9230769230769,4,2,1,70,0,1
60467,-76.9230769230769,4,2,3,40,0,1
60614,-76.9230769230769,4,2,1,70,0,1
60762,-76.9230769230769,4,2,3,40,0,1
60909,-76.9230769230769,4,2,1,70,0,1
61938,-76.9230769230769,4,2,3,40,0,1
62085,-76.9230769230769,4,2,1,70,0,1
62232,-76.9230769230769,4,2,3,40,0,1
62379,-76.9230769230769,4,2,1,70,0,1
62526,-76.9230769230769,4,2,3,40,0,1
62673,-76.9230769230769,4,2,1,70,0,1
62820,-76.9230769230769,4,2,3,40,0,1
62967,-76.9230769230769,4,2,1,70,0,1
63114,-76.9230769230769,4,2,3,40,0,1
63262,-76.9230769230769,4,2,1,70,0,1
63703,-76.9230769230769,4,2,3,40,0,1
63850,-76.9230769230769,4,2,1,70,0,1
64291,-76.9230769230769,4,2,3,40,0,1
64438,-76.9230769230769,4,2,1,70,0,1
64585,-76.9230769230769,4,2,3,40,0,1
64732,-76.9230769230769,4,2,1,70,0,1
64879,-76.9230769230769,4,2,3,40,0,1
65026,-76.9230769230769,4,2,1,70,0,1
65173,-76.9230769230769,4,2,3,40,0,1
65320,-76.9230769230769,4,2,1,70,0,1
66056,-76.9230769230769,4,2,3,40,0,1
66203,-76.9230769230769,4,2,1,70,0,1
66644,-76.9230769230769,4,2,3,40,0,1
66791,-76.9230769230769,4,2,1,70,0,1
66938,-76.9230769230769,4,2,3,40,0,1
67085,-76.9230769230769,4,2,1,70,0,1
68997,-76.9230769230769,4,2,3,40,0,1
69144,-76.9230769230769,4,2,1,70,0,1
69291,-76.9230769230769,4,2,3,40,0,1
69438,-76.9230769230769,4,2,1,70,0,1
69585,-76.9230769230769,4,2,3,40,0,1
69732,-76.9230769230769,4,2,1,70,0,1
69879,-76.9230769230769,4,2,3,40,0,1
70026,-76.9230769230769,4,2,1,70,0,1
70173,-76.9230769230769,4,2,3,40,0,1
70320,-76.9230769230769,4,2,1,70,0,1
71350,-76.9230769230769,4,2,3,40,0,1
71497,-76.9230769230769,4,2,1,70,0,1
71644,-76.9230769230769,4,2,3,40,0,1
71791,-76.9230769230769,4,2,1,70,0,1
72526,-76.9230769230769,4,2,3,40,0,1
72673,-76.9230769230769,4,2,1,70,0,1
73114,-76.9230769230769,4,2,3,40,0,1
73262,-76.9230769230769,4,2,1,70,0,1
73703,-76.9230769230769,4,2,3,40,0,1
73850,-76.9230769230769,4,2,1,70,0,1
73997,-76.9230769230769,4,2,3,40,0,1
74144,-76.9230769230769,4,2,1,70,0,1
74291,-76.9230769230769,4,2,3,40,0,1
74438,-76.9230769230769,4,2,1,70,0,1
74585,-76.9230769230769,4,2,3,40,0,1
74732,-76.9230769230769,4,2,1,70,0,1
74879,-76.9230769230769,4,2,3,40,0,1
75026,-76.9230769230769,4,2,1,70,0,1
75173,-76.9230769230769,4,2,3,40,0,1
75320,-76.9230769230769,4,2,1,70,0,1
75614,-76.9230769230769,4,2,3,40,0,1
75909,-100,4,2,1,50,0,0
77232,-100,4,2,3,25,0,0
77379,-100,4,2,1,50,0,0
77820,-100,4,2,3,25,0,0
77967,-100,4,2,1,50,0,0
78409,-100,4,2,3,25,0,0
78556,-100,4,2,1,50,0,0
78997,-100,4,2,3,25,0,0
79144,-100,4,2,1,50,0,0
79585,-100,4,2,3,25,0,0
79732,-100,4,2,1,50,0,0
79928,-100,4,2,3,50,0,0
80026,-100,4,2,1,50,0,0
80173,-100,4,2,3,25,0,0
80320,-100,4,2,1,50,0,0
80467,-100,4,2,3,25,0,0
80614,-100,4,2,1,50,0,0
80762,-100,4,2,3,25,0,0
80909,-100,4,2,1,50,0,0
81350,-100,4,2,3,25,0,0
81497,-100,4,2,1,50,0,0
82526,-100,4,2,3,25,0,0
82673,-100,4,2,1,50,0,0
83850,-200,4,2,1,50,0,0
85320,-100,4,2,3,50,0,0
86056,-100,4,2,3,20,0,0
86203,-100,4,2,3,50,0,0
86350,-100,4,2,3,20,0,0
86497,-100,4,2,3,50,0,0
87820,-100,4,2,3,20,0,0
87967,-100,4,2,3,50,0,0
88114,-100,4,2,3,20,0,0
88262,-100,4,2,3,50,0,0
89879,-100,4,2,3,20,0,0
90026,-100,4,2,3,50,0,0
90173,-100,4,2,3,20,0,0
90320,-100,4,2,3,50,0,0
90467,-100,4,2,3,20,0,0
90614,-100,4,2,3,50,0,0
92526,-100,4,2,3,20,0,0
92673,-100,4,2,3,50,0,0
92820,-100,4,2,3,20,0,0
92967,-100,4,2,3,50,0,0
94732,-100,4,2,1,50,0,0
95467,-100,4,2,3,25,0,0
95614,-100,4,2,1,50,0,0
95762,-100,4,2,3,25,0,0
95909,-100,4,2,1,50,0,0
97232,-100,4,2,3,25,0,0
97379,-100,4,2,1,50,0,0
98409,-100,4,2,3,25,0,0
98556,-100,4,2,1,50,0,0
98850,-100,4,2,3,25,0,0
99144,-100,4,2,1,50,0,0
100173,-100,4,2,3,25,0,0
100320,-100,4,2,1,50,0,0
101056,-100,4,2,3,25,0,0
101203,-100,4,2,1,50,0,0
101350,-100,4,2,3,25,0,0
101497,-100,4,2,1,50,0,0
102379,-100,4,2,3,25,0,0
102967,-200,4,2,3,50,0,0
103262,-200,4,2,1,50,0,0
104144,-76.9230769230769,4,2,1,70,0,1
104291,-76.9230769230769,4,2,3,40,0,1
104438,-76.9230769230769,4,2,1,70,0,1
104585,-76.9230769230769,4,2,3,40,0,1
104732,-76.9230769230769,4,2,1,70,0,1
106644,-76.9230769230769,4,2,3,40,0,1
106791,-76.9230769230769,4,2,1,70,0,1
106938,-76.9230769230769,4,2,3,40,0,1
107085,-76.9230769230769,4,2,1,70,0,1
107232,-76.9230769230769,4,2,3,40,0,1
107379,-76.9230769230769,4,2,1,70,0,1
107526,-76.9230769230769,4,2,3,40,0,1
107673,-76.9230769230769,4,2,1,70,0,1
107820,-76.9230769230769,4,2,3,40,0,1
107967,-76.9230769230769,4,2,1,70,0,1
108997,-76.9230769230769,4,2,3,40,0,1
109144,-76.9230769230769,4,2,1,70,0,1
109291,-76.9230769230769,4,2,3,40,0,1
109438,-76.9230769230769,4,2,1,70,0,1
109585,-76.9230769230769,4,2,3,40,0,1
109732,-76.9230769230769,4,2,1,70,0,1
109879,-76.9230769230769,4,2,3,40,0,1
110026,-76.9230769230769,4,2,1,70,0,1
110173,-76.9230769230769,4,2,3,40,0,1
110320,-76.9230769230769,4,2,1,70,0,1
110762,-76.9230769230769,4,2,3,40,0,1
110909,-76.9230769230769,4,2,1,70,0,1
111350,-76.9230769230769,4,2,3,40,0,1
111497,-76.9230769230769,4,2,1,70,0,1
111644,-76.9230769230769,4,2,3,40,0,1
111791,-76.9230769230769,4,2,1,70,0,1
111938,-76.9230769230769,4,2,3,40,0,1
112085,-76.9230769230769,4,2,1,70,0,1
112232,-76.9230769230769,4,2,3,40,0,1
112379,-76.9230769230769,4,2,1,70,0,1
113114,-76.9230769230769,4,2,3,40,0,1
113262,-76.9230769230769,4,2,1,70,0,1
113703,-76.9230769230769,4,2,3,40,0,1
113850,-76.9230769230769,4,2,1,70,0,1
113997,-76.9230769230769,4,2,3,40,0,1
114144,-76.9230769230769,4,2,1,70,0,1
116056,-76.9230769230769,4,2,3,40,0,1
116203,-76.9230769230769,4,2,1,70,0,1
116350,-76.9230769230769,4,2,3,40,0,1
116497,-76.9230769230769,4,2,1,70,0,1
116644,-76.9230769230769,4,2,3,40,0,1
116791,-76.9230769230769,4,2,1,70,0,1
116938,-76.9230769230769,4,2,3,40,0,1
117085,-76.9230769230769,4,2,1,70,0,1
117232,-76.9230769230769,4,2,3,40,0,1
117379,-76.9230769230769,4,2,1,70,0,1
118409,-76.9230769230769,4,2,3,40,0,1
118556,-76.9230769230769,4,2,1,70,0,1
118703,-76.9230769230769,4,2,3,40,0,1
118850,-76.9230769230769,4,2,1,70,0,1
119585,-76.9230769230769,4,2,3,40,0,1
119732,-76.9230769230769,4,2,1,70,0,1
120173,-76.9230769230769,4,2,3,40,0,1
120320,-76.9230769230769,4,2,1,70,0,1
120762,-76.9230769230769,4,2,3,40,0,1
120909,-76.9230769230769,4,2,1,70,0,1
121056,-76.9230769230769,4,2,3,40,0,1
121203,-76.9230769230769,4,2,1,70,0,1
121350,-76.9230769230769,4,2,3,40,0,1
121497,-76.9230769230769,4,2,1,70,0,1
121644,-76.9230769230769,4,2,3,40,0,1
121791,-76.9230769230769,4,2,1,70,0,1
121938,-76.9230769230769,4,2,3,40,0,1
122085,-76.9230769230769,4,2,1,70,0,1
122232,-76.9230769230769,4,2,3,40,0,1
122379,-76.9230769230769,4,2,1,70,0,1
122673,-76.9230769230769,4,2,3,40,0,1
122967,-166.666666666667,4,2,3,40,0,0
127967,-166.666666666667,4,2,3,15,0,0
128262,-166.666666666667,4,2,3,40,0,0
129144,-166.666666666667,4,2,3,15,0,0
129438,-166.666666666667,4,2,3,40,0,0
130320,-166.666666666667,4,2,3,40,0,0
133262,-166.666666666667,4,2,3,15,0,0
133556,-166.666666666667,4,2,3,40,0,0
134144,-166.666666666667,4,2,3,15,0,0
134438,-166.666666666667,4,2,3,40,0,0
135614,-166.666666666667,4,2,3,15,0,0
135909,-166.666666666667,4,2,3,40,0,0
136350,-166.666666666667,4,2,3,15,0,0
136497,-166.666666666667,4,2,3,40,0,0
140026,-133.333333333333,4,2,3,40,0,0
140467,-166.666666666667,4,2,3,15,0,0
140614,-133.333333333333,4,2,3,40,0,0
141791,-133.333333333333,4,2,3,50,0,0
142673,-133.333333333333,4,2,3,15,0,0
142967,-133.333333333333,4,2,3,50,0,0
143556,-133.333333333333,4,2,3,15,0,0
143850,-133.333333333333,4,2,3,50,0,0
144438,-133.333333333333,4,2,3,15,0,0
144732,-133.333333333333,4,2,3,50,0,0
145026,-133.333333333333,4,2,3,15,0,0
145320,-133.333333333333,4,2,3,50,0,0
145614,-133.333333333333,4,2,3,15,0,0
145909,-133.333333333333,4,2,3,50,0,0
146497,-100,4,2,1,50,0,0
146644,-100,4,2,3,20,0,0
146791,-100,4,2,1,50,0,0
146938,-100,4,2,3,20,0,0
147085,-100,4,2,1,50,0,0
147820,-100,4,2,3,20,0,0
147967,-100,4,2,1,50,0,0
148114,-100,4,2,3,20,0,0
148262,-100,4,2,1,50,0,0
148409,-100,4,2,3,20,0,0
148556,-100,4,2,1,50,0,0
148850,-133.333333333333,4,2,1,50,0,0
150320,-200,4,2,1,40,0,0
151203,-200,4,2,1,20,0,0
151350,-500,4,2,3,30,0,0
152232,-500,4,2,3,5,0,0
152379,-80,4,2,3,60,0,0
152820,-500,4,2,3,30,0,0
152967,-66.6666666666667,4,2,3,70,0,0
153409,-500,4,2,3,30,0,0
153556,-57.1428571428571,4,2,1,80,0,1
153997,-100,4,2,3,40,0,1
154144,-66.6666666666667,4,2,1,80,0,1
154585,-100,4,2,3,40,0,1
154732,-68.9655172413793,4,2,1,80,0,1
154879,-100,4,2,3,40,0,1
155026,-71.4285714285714,4,2,1,80,0,1
155909,-57.1428571428571,4,2,1,80,0,1
156350,-100,4,2,3,40,0,1
156497,-66.6666666666667,4,2,1,80,0,1
156938,-100,4,2,3,40,0,1
157085,-76.9230769230769,4,2,1,80,0,1
157232,-100,4,2,3,40,0,1
157379,-76.9230769230769,4,2,1,80,0,1
157673,-100,4,2,3,40,0,1
157820,-76.9230769230769,4,2,1,80,0,1
158114,-100,4,2,3,40,0,1
158262,-66.6666666666667,4,2,1,80,0,1
158997,-100,4,2,3,40,0,1
159144,-66.6666666666667,4,2,1,80,0,1
159291,-100,4,2,3,40,0,1
159438,-66.6666666666667,4,2,1,80,0,1
159732,-100,4,2,3,40,0,1
160026,-80,4,2,1,80,0,1
160467,-100,4,2,3,40,0,1
160614,-66.6666666666667,4,2,1,80,0,1
161056,-100,4,2,3,40,0,1
161203,-71.4285714285714,4,2,1,80,0,1
161350,-100,4,2,3,40,0,1
161497,-71.4285714285714,4,2,1,80,0,1
161644,-100,4,2,3,40,0,1
161791,-153.846153846153,4,2,1,80,0,1
162967,-76.9230769230769,4,2,1,80,0,1
163114,-76.9230769230769,4,2,3,40,0,1
163262,-76.9230769230769,4,2,1,80,0,1
163409,-76.9230769230769,4,2,3,40,0,1
163556,-76.9230769230769,4,2,1,80,0,1
165467,-76.9230769230769,4,2,3,40,0,1
165614,-76.9230769230769,4,2,1,80,0,1
165762,-76.9230769230769,4,2,3,40,0,1
165909,-76.9230769230769,4,2,1,80,0,1
166056,-76.9230769230769,4,2,3,40,0,1
166203,-76.9230769230769,4,2,1,80,0,1
166350,-76.9230769230769,4,2,3,40,0,1
166497,-76.9230769230769,4,2,1,80,0,1
167820,-76.9230769230769,4,2,3,40,0,1
167967,-76.9230769230769,4,2,1,80,0,1
168114,-76.9230769230769,4,2,3,40,0,1
168262,-76.9230769230769,4,2,1,80,0,1
168997,-76.9230769230769,4,2,3,40,0,1
169144,-76.9230769230769,4,2,1,80,0,1
169585,-76.9230769230769,4,2,3,40,0,1
169732,-76.9230769230769,4,2,1,80,0,1
170173,-76.9230769230769,4,2,3,40,0,1
170320,-76.9230769230769,4,2,1,80,0,1
170467,-76.9230769230769,4,2,3,40,0,1
170614,-76.9230769230769,4,2,1,80,0,1
170762,-76.9230769230769,4,2,3,40,0,1
170909,-76.9230769230769,4,2,1,80,0,1
171056,-76.9230769230769,4,2,3,40,0,1
171203,-76.9230769230769,4,2,1,80,0,1
171350,-76.9230769230769,4,2,3,40,0,1
171497,-76.9230769230769,4,2,1,80,0,1
172379,-71.4285714285714,4,2,1,70,0,1
172526,-71.4285714285714,4,2,3,40,0,1
172673,-71.4285714285714,4,2,1,70,0,1
173114,-71.4285714285714,4,2,3,40,0,1
173262,-71.4285714285714,4,2,1,70,0,1
173409,-71.4285714285714,4,2,3,40,0,1
173556,-71.4285714285714,4,2,1,70,0,1
173703,-71.4285714285714,4,2,3,40,0,1
173850,-71.4285714285714,4,2,1,70,0,1
174879,-71.4285714285714,4,2,3,40,0,1
175026,-71.4285714285714,4,2,1,70,0,1
175467,-71.4285714285714,4,2,3,40,0,1
175614,-71.4285714285714,4,2,1,70,0,1
175762,-71.4285714285714,4,2,3,40,0,1
175909,-71.4285714285714,4,2,1,70,0,1
176056,-71.4285714285714,4,2,3,40,0,1
176203,-71.4285714285714,4,2,1,70,0,1
176350,-71.4285714285714,4,2,3,40,0,1
176497,-71.4285714285714,4,2,1,70,0,1
176791,-71.4285714285714,4,2,3,40,0,1
177085,-71.4285714285714,4,2,1,70,0,1
177232,-71.4285714285714,4,2,3,40,0,1
177379,-71.4285714285714,4,2,1,70,0,1
177820,-71.4285714285714,4,2,3,40,0,1
177967,-71.4285714285714,4,2,1,70,0,1
178114,-71.4285714285714,4,2,3,40,0,1
178262,-71.4285714285714,4,2,1,70,0,1
178409,-71.4285714285714,4,2,3,40,0,1
178556,-71.4285714285714,4,2,1,70,0,1
179585,-71.4285714285714,4,2,3,40,0,1
179732,-71.4285714285714,4,2,1,70,0,1
180173,-71.4285714285714,4,2,3,40,0,1
180320,-71.4285714285714,4,2,1,70,0,1
180467,-71.4285714285714,4,2,3,40,0,1
180614,-71.4285714285714,4,2,1,70,0,1
180762,-71.4285714285714,4,2,3,40,0,1
180909,-71.4285714285714,4,2,1,70,0,1
181056,-71.4285714285714,4,2,3,40,0,1
181203,-71.4285714285714,4,2,1,70,0,1
181644,-71.4285714285714,4,2,3,40,0,1
181791,-71.4285714285714,4,2,1,70,0,1
181938,-71.4285714285714,4,2,3,40,0,1
182085,-71.4285714285714,4,2,1,70,0,1
182526,-71.4285714285714,4,2,3,40,0,1
182673,-71.4285714285714,4,2,1,70,0,1
182820,-71.4285714285714,4,2,3,40,0,1
182967,-71.4285714285714,4,2,1,70,0,1
183114,-71.4285714285714,4,2,3,40,0,1
183262,-71.4285714285714,4,2,1,70,0,1
184291,-71.4285714285714,4,2,3,40,0,1
184438,-71.4285714285714,4,2,1,70,0,1
184879,-71.4285714285714,4,2,3,40,0,1
185026,-71.4285714285714,4,2,1,70,0,1
185173,-71.4285714285714,4,2,3,40,0,1
185320,-71.4285714285714,4,2,1,70,0,1
185467,-71.4285714285714,4,2,3,40,0,1
185614,-71.4285714285714,4,2,1,70,0,1
185762,-71.4285714285714,4,2,3,40,0,1
185909,-71.4285714285714,4,2,1,70,0,1
186203,-71.4285714285714,4,2,3,40,0,1
186497,-71.4285714285714,4,2,1,70,0,1
186644,-71.4285714285714,4,2,3,40,0,1
186791,-71.4285714285714,4,2,1,70,0,1
187232,-71.4285714285714,4,2,3,40,0,1
187379,-71.4285714285714,4,2,1,70,0,1
187526,-71.4285714285714,4,2,3,40,0,1
187673,-71.4285714285714,4,2,1,70,0,1
187820,-71.4285714285714,4,2,3,40,0,1
187967,-71.4285714285714,4,2,1,70,0,1
188997,-71.4285714285714,4,2,3,40,0,1
189144,-71.4285714285714,4,2,1,70,0,1
189585,-71.4285714285714,4,2,3,40,0,1
189732,-71.4285714285714,4,2,1,70,0,1
189879,-71.4285714285714,4,2,3,40,0,1
190026,-71.4285714285714,4,2,1,70,0,1
190173,-71.4285714285714,4,2,3,40,0,1
190320,-71.4285714285714,4,2,1,70,0,1
190467,-71.4285714285714,4,2,3,40,0,1
190614,-71.4285714285714,4,2,1,70,0,1
191056,-71.4285714285714,4,2,3,30,0,1
191203,-133.333333333333,4,2,3,50,0,0
191497,-133.333333333333,4,2,3,15,0,0
191791,-133.333333333333,4,2,3,50,0,0
192085,-133.333333333333,4,2,3,15,0,0
192379,-133.333333333333,4,2,3,50,0,0
192526,-133.333333333333,4,2,3,15,0,0
192673,-133.333333333333,4,2,3,50,0,0
192967,-133.333333333333,4,2,3,15,0,0
193262,-133.333333333333,4,2,3,50,0,0
193409,-133.333333333333,4,2,3,15,0,0
193556,-333.333333333333,4,2,3,50,0,0
195909,-133.333333333333,4,2,3,15,0,0
196203,-333.333333333333,4,2,3,50,0,0
198262,-133.333333333333,4,2,3,15,0,0
198556,-333.333333333333,4,2,3,50,0,0
200026,-133.333333333333,4,2,3,15,0,0
200320,-133.333333333333,4,2,3,50,0,0
200467,-133.333333333333,4,2,3,15,0,0
200614,-166.666666666667,4,2,3,50,0,0
200909,-166.666666666667,4,2,3,15,0,0
201203,-166.666666666667,4,2,3,50,0,0
201497,-166.666666666667,4,2,3,15,0,0
201791,-166.666666666667,4,2,3,50,0,0
201938,-166.666666666667,4,2,3,15,0,0
202085,-166.666666666667,4,2,3,50,0,0
202379,-166.666666666667,4,2,3,15,0,0
202526,-166.666666666667,4,2,3,50,0,0
202820,-166.666666666667,4,2,3,15,0,0
202967,-500,4,2,3,50,0,0
205320,-166.666666666667,4,2,3,15,0,0
205614,-500,4,2,3,50,0,0
207673,-166.666666666667,4,2,3,15,0,0
207967,-500,4,2,3,50,0,0
209438,-166.666666666667,4,2,3,15,0,0
209732,-133.333333333333,4,2,3,50,0,0
210026,-100,4,2,3,15,0,0

[Colours]
Combo1 : 193,63,0
Combo2 : 187,187,0
Combo3 : 163,158,124
Combo4 : 143,71,71
Combo5 : 228,213,124

[HitObjects]
127,54,615,6,0,P|173:46|209:54,1,78.7499964237214
312,137,1350,2,0,L|306:199,1,52.4999976158142
265,221,1791,2,0,L|269:306,1,78.7499964237214
172,197,2526,1,0,0:0:0:0:
207,362,2967,2,0,P|153:349|136:273,1,131.249994039536
440,173,5320,6,0,L|436:254,1,78.7499964237214
352,157,6056,2,0,P|317:149|290:153,1,52.4999976158142
272,180,6497,2,0,P|234:187|187:175,1,78.7499964237214
105,90,7232,2,0,P|104:63|111:38,1,52.4999976158142
156,17,7673,6,0,L|263:23,1,104.999995231628
297,33,8409,2,0,P|347:74|345:134,2,118.124999141693
272,108,9585,1,0,0:0:0:0:
72,246,10026,6,0,P|123:263|180:253,1,104.999995231629,2|0,3:2|3:0,0:0:0:0:
351,196,10516,5,2,0:0:0:0:
351,196,10614,2,0,L|297:169,1,52.4999976158143,12|0,0:0|0:0,0:0:0:0:
308,309,10909,2,0,L|358:275,1,52.4999976158143,2|0,0:0|0:0,0:0:0:0:
231,215,11203,2,0,L|232:331,1,104.999995231629,2|0,0:0|3:0,0:0:0:0:
484,194,11693,5,2,0:0:0:0:
484,194,11791,2,0,P|488:154|482:126,1,52.4999976158143,12|0,0:2|0:0,0:0:0:0:
412,93,12085,2,0,P|404:127|408:156,1,52.4999976158143,2|0,0:0|0:0,0:0:0:0:
344,19,12379,5,2,3:2:0:0:
154,39,12673,1,0,3:0:0:0:
344,19,12967,1,12,0:2:0:0:
297,151,13262,1,0,0:0:0:0:
154,39,13556,6,0,L|149:149,1,104.999995231629,2|0,0:0|3:0,0:0:0:0:
45,295,14046,1,2,0:0:0:0:
45,295,14144,2,0,L|41:242,1,52.4999976158143,12|0,0:0|0:0,0:0:0:0:
140,279,14438,2,0,L|143:331,1,52.4999976158143,2|0,0:0|0:0,0:0:0:0:
234,267,14732,2,0,L|230:214,1,52.4999976158143,2|0,3:2|0:0,0:0:0:0:
331,111,15026,5,0,3:0:0:0:
234,267,15320,1,12,0:0:0:0:
248,132,15614,1,0,0:0:0:0:
393,176,15909,1,0,0:0:0:0:
99,84,16203,1,0,3:0:0:0:
234,267,16497,6,0,P|281:279|339:267,1,104.999995231629,14|0,0:0|0:0,0:0:0:0:
499,138,17085,1,2,3:2:0:0:
283,145,17379,1,0,3:0:0:0:
499,138,17673,1,12,0:0:0:0:
499,138,17967,6,0,L|499:198,2,52.4999976158143
267,31,18850,2,0,L|268:84,1,52.4999976158143,12|0,0:0|0:0,0:0:0:0:
303,365,19438,6,0,L|294:272,1,78.7499994277954
216,152,20026,2,0,P|171:140|130:150,1,78.7499994277954
81,221,20467,1,0,0:0:0:0:
81,221,20614,2,0,L|75:314,1,78.7499994277954
228,318,21203,6,0,L|224:278,1,39.3749997138977
311,300,21497,2,0,L|308:261,1,39.3749997138977
390,273,21791,2,0,P|367:201|280:181,1,157.499998855591
147,154,22673,6,0,P|105:151|65:120,1,78.7499994277954
265,28,23262,6,0,L|225:32,1,39.3749997138977
330,103,23556,2,0,L|284:101,1,39.3749997138977
376,29,23850,2,0,P|414:35|447:57,1,78.7499994277954
447,57,24732,6,0,L|440:149,1,78.7499994277954
393,215,25173,1,0,0:0:0:0:
393,215,25320,2,0,L|400:307,1,78.7499994277954
193,346,25909,6,0,L|195:306,1,39.3749997138977
202,228,26203,2,0,L|205:188,1,39.3749997138977
121,237,26497,2,0,B|83:256|83:256|38:255,1,78.7499994277954
52,128,26938,1,0,0:0:0:0:
52,128,27085,2,0,B|90:109|90:109|135:110,1,78.7499994277954
235,74,27526,6,0,L|234:114,2,39.3749997138977
330,89,27967,2,0,L|330:50,1,39.3749997138977
427,28,28262,2,0,P|438:66|426:117,2,78.7499994277954
155,339,29438,6,0,L|160:249,1,89.2499976491928,4|0,0:0|0:0,0:0:0:0:
120,182,29879,1,0,0:0:0:0:
120,182,30026,2,0,P|168:172|218:196,1,89.2499976491928
338,307,30614,6,0,L|341:357,1,44.6249988245964,4|0,0:0|0:0,0:0:0:0:
413,284,30908,2,0,L|416:333,1,44.6249988245964
490,261,31203,2,0,P|440:207|341:248,1,178.499995298386,0|4,0:0|0:0,0:0:0:0:
219,352,32085,6,0,B|173:363|173:363|117:355,1,89.2499976491928
24,224,32673,2,0,L|21:179,1,44.6249988245964
115,220,32967,2,0,L|113:175,1,44.6249988245964,4|0,0:0|0:0,0:0:0:0:
212,219,33262,2,0,L|206:115,1,89.2499976491928
206,129,34144,6,0,B|256:129|256:129|300:156,1,89.2499976491928,4|0,0:0|0:0,0:0:0:0:
357,218,34585,1,0,0:0:0:0:
357,218,34732,2,0,B|391:239|391:239|441:239,1,89.2499976491928
310,305,35173,1,0,0:0:0:0:
309,305,35320,2,0,B|275:325|275:325|225:325,1,89.2499976491928,4|0,0:0|0:0,0:0:0:0:
403,337,35762,6,0,L|403:381,2,44.6249988245964
441,239,36203,2,0,L|443:193,1,44.6249988245964
349,137,36497,6,0,L|345:184,1,44.6249988245964,4|0,0:0|0:0,0:0:0:0:
450,107,36791,2,0,L|452:56,1,44.6249988245964
307,23,37085,2,0,P|253:89|259:188,1,178.499995298386,0|4,0:0|0:0,0:0:0:0:
33,365,38262,6,0,P|23:317|48:257,1,104.999995231629,2|0,0:0|0:0,0:0:0:0:
114,198,38703,1,4,0:0:0:0:
186,256,38850,2,0,P|216:262|255:255,1,52.4999976158143,2|0,0:0|0:0,0:0:0:0:
314,207,39144,2,0,L|315:275,1,52.4999976158143,4|0,3:2|0:0,0:0:0:0:
390,340,39438,2,0,L|400:183,1,157.499992847443,2|0,0:0|0:0,0:0:0:0:
358,72,40026,6,0,B|414:87|414:87|468:74,1,104.999995231629
301,19,40467,1,6,0:0:0:0:
301,19,40614,2,0,L|248:17,1,52.4999976158143,2|0,3:2|0:0,0:0:0:0:
156,19,40909,1,8,0:0:0:0:
175,99,41056,1,4,0:0:0:0:
78,36,41203,2,0,L|81:97,1,52.4999976158143,2|0,0:0|0:0,0:0:0:0:
126,178,41497,2,0,P|173:187|245:165,1,104.999995231629,4|0,0:0|0:0,0:0:0:0:
128,326,42085,6,0,P|76:331|26:317,1,104.999995231629,6|0,0:0|0:0,0:0:0:0:
272,296,42673,2,0,L|273:353,1,52.4999976158143,2|0,0:2|0:0,0:0:0:0:
321,225,42967,2,0,P|373:205|441:215,1,104.999995231629,2|0,3:2|0:0,0:0:0:0:
492,264,43409,2,0,L|495:316,2,52.4999976158143,4|0|0,0:0|0:0|0:0,0:0:0:0:
484,155,43850,6,0,P|471:121|452:98,1,52.4999976158143,4|0,3:2|0:0,0:0:0:0:
310,48,44144,2,0,L|414:46,1,104.999995231629,2|0,0:2|0:0,0:0:0:0:
192,210,44732,6,0,B|190:155|190:155|157:91,1,104.999995231629,2|0,0:0|0:0,0:0:0:0:
86,20,45173,1,4,0:0:0:0:
86,20,45320,2,0,L|24:22,1,52.4999976158143,2|0,3:2|0:0,0:0:0:0:
18,106,45614,1,8,0:0:0:0:
91,147,45762,1,4,0:0:0:0:
166,110,45909,2,0,L|170:51,1,52.4999976158143
91,147,46203,2,0,L|87:199,1,52.4999976158143,4|0,0:0|0:0,0:0:0:0:
133,292,46497,2,0,P|163:299|191:295,1,52.4999976158143
64,354,46791,5,2,0:0:0:0:
173,209,47085,1,2,0:0:0:0:
292,348,47379,1,2,0:0:0:0:
467,178,47673,6,0,P|431:215|381:226,1,104.999995231629,2|0,3:2|0:0,0:0:0:0:
390,135,48114,1,4,0:0:0:0:
390,135,48262,2,0,L|395:77,1,52.4999976158143,2|0,0:2|0:0,0:0:0:0:
304,148,48556,2,0,L|300:200,1,52.4999976158143,4|0,3:2|0:2,0:2:0:0:
467,178,48850,2,0,L|474:73,1,104.999995231629,2|0,0:2|0:0,0:0:0:0:
268,42,49438,6,0,P|220:55|153:44,1,104.999995231629,2|0,0:2|0:0,0:0:0:0:
70,15,49879,1,4,0:0:0:0:
70,15,50026,2,0,L|71:75,1,52.4999976158143,6|0,3:2|0:2,0:2:0:0:
102,166,50320,1,8,0:0:0:0:
11,146,50467,1,4,0:0:0:0:
43,242,50614,2,0,P|94:261|157:249,1,104.999995231629,0|4,0:0|0:0,0:0:0:0:
339,209,51203,6,0,L|334:273,1,52.4999976158143
251,176,51497,2,0,L|253:236,2,52.4999976158143,2|4|0,0:0|0:0|0:0,0:0:0:0:
335,370,52085,5,2,0:0:0:0:
387,312,52232,1,0,0:0:0:0:
443,359,52379,2,0,L|451:240,1,104.999995231629,2|0,3:2|0:0,0:0:0:0:
509,192,52820,2,0,P|463:172|409:180,1,104.999995231629,4|0,0:0|0:0,0:0:0:0:
322,277,53262,5,0,3:0:0:0:
253,317,53409,1,0,0:0:0:0:
253,232,53556,2,0,P|183:186|110:228,1,157.499992847443,2|0,0:2|0:0,0:0:0:0:
60,277,54144,2,0,P|35:283|3:279,1,52.4999976158143,2|0,0:0|0:0,0:0:0:0:
205,367,54438,5,0,0:0:0:0:
130,332,54585,1,4,0:0:0:0:
179,267,54732,2,0,L|172:142,1,104.999995231629,0|8,3:0|0:0,0:0:0:0:
96,79,55173,2,0,L|91:133,1,52.4999976158143,4|0,0:0|0:0,0:0:0:0:
314,41,55909,6,0,L|366:46,1,52.4999976158143
446,59,56497,1,0,0:0:0:0:
446,59,56791,1,0,0:0:0:0:
100,144,57085,6,0,P|140:141|184:156,1,68.2499937763218,2|0,3:2|0:0,0:0:0:0:
238,215,57379,2,0,P|271:222|305:218,1,68.2499937763218,0|0,3:2|0:0,0:0:0:0:
411,165,57673,2,0,P|391:223|393:312,1,136.499987552644,12|4,0:0|0:0,0:0:0:0:
280,34,58262,6,0,L|276:115,1,68.2499937763218,6|0,0:2|0:0,0:0:0:0:
238,215,58556,1,0,3:0:0:0:
165,129,58703,2,0,L|161:60,1,68.2499937763218,0|12,0:0|0:0,0:0:0:0:
4,215,58997,1,0,0:0:0:0:
77,111,59144,2,0,L|74:43,1,68.2499937763218
109,300,59438,6,0,P|152:305|199:291,1,68.2499937763218,2|0,3:2|0:0,0:0:0:0:
167,147,59732,2,0,P|141:181|129:229,1,68.2499937763218,0|0,3:2|0:0,0:0:0:0:
271,273,60026,2,0,P|253:233|218:199,1,68.2499937763218,12|0,0:2|0:0,0:0:0:0:
290,370,60320,6,0,L|361:364,1,68.2499937763218,4|0,0:0|0:0,0:0:0:0:
422,307,60614,2,0,L|490:301,1,68.2499937763218,6|0,0:0|0:0,0:0:0:0:
416,107,60909,1,0,3:0:0:0:
486,216,61056,2,0,L|418:213,1,68.2499937763218,0|12,0:0|0:0,0:0:0:0:
214,67,61350,1,0,0:0:0:0:
325,154,61497,2,0,L|328:86,1,68.2499937763218
256,287,61791,6,0,P|217:296|177:290,1,68.2499937763218,2|0,3:2|0:0,0:0:0:0:
326,245,62085,2,0,P|336:285|330:325,1,68.2499937763218,0|0,3:0|0:0,0:0:0:0:
216,215,62379,2,0,L|220:139,1,68.2499937763218,12|0,0:0|0:0,0:0:0:0:
134,157,62673,2,0,L|138:80,1,68.2499937763218,4|0,0:0|0:0,0:0:0:0:
52,99,62967,2,0,L|58:21,1,68.2499937763218,6|0,0:0|0:0,0:0:0:0:
96,261,63262,5,0,3:0:0:0:
57,350,63409,1,0,0:0:0:0:
96,261,63556,2,0,P|56:251|16:257,1,68.2499937763218,12|0,0:0|0:0,0:0:0:0:
194,345,63850,1,0,0:0:0:0:
233,256,63997,1,0,0:0:0:0:
194,345,64144,6,0,P|234:355|274:349,1,68.2499937763218,2|0,3:2|0:0,0:0:0:0:
406,284,64438,2,0,P|373:275|340:277,1,68.2499937763218,0|0,3:2|0:0,0:0:0:0:
496,332,64732,2,0,L|490:256,1,68.2499937763218,12|0,0:2|0:0,0:0:0:0:
400,125,65026,6,0,L|404:193,1,68.2499937763218,4|0,0:0|0:0,0:0:0:0:
485,89,65320,2,0,B|426:49|426:49|356:49,1,136.499987552644,6|0,0:0|0:0,0:0:0:0:
356,303,65909,6,0,L|351:235,1,68.2499937763218,12|0,0:2|0:0,0:0:0:0:
280,359,66203,1,0,0:0:0:0:
280,359,66350,1,0,0:0:0:0:
128,251,66497,6,0,P|87:245|44:258,1,68.2499937763218,2|0,3:2|0:0,0:0:0:0:
201,278,66791,2,0,P|207:237|194:194,1,68.2499937763218,0|0,3:2|0:0,0:0:0:0:
48,114,67085,2,0,L|60:249,1,136.499987552644,12|4,0:0|0:0,0:0:0:0:
270,86,67673,6,0,L|271:17,1,68.2499937763218,6|0,0:2|0:0,0:0:0:0:
356,135,67967,1,0,3:0:0:0:
439,77,68114,1,0,0:0:0:0:
398,222,68262,1,12,0:0:0:0:
398,222,68409,1,0,0:0:0:0:
482,184,68556,2,0,P|490:221|484:257,1,68.2499937763218
166,153,68850,6,0,L|235:158,1,68.2499937763218,2|0,3:2|0:0,0:0:0:0:
220,289,69144,2,0,L|190:228,1,68.2499937763218,0|0,3:0|0:0,3:0:0:0:
310,174,69438,2,0,L|274:232,1,68.2499937763218,12|0,0:2|0:0,3:0:0:0:
471,316,69732,6,0,L|476:248,1,68.2499937763218,4|0,0:0|0:0,0:0:0:0:
386,312,70026,2,0,L|380:243,1,68.2499937763218,6|0,0:0|0:0,0:0:0:0:
219,288,70320,1,0,3:0:0:0:
259,377,70467,2,0,L|190:371,1,68.2499937763218,0|12,0:0|0:0,0:0:0:0:
40,250,70762,1,0,0:0:0:0:
0,339,70909,2,0,L|69:333,1,68.2499937763218,0|0,0:0|0:0,0:0:0:0:
81,175,71203,6,0,P|41:166|6:172,1,68.2499937763218,2|0,3:2|0:0,0:0:0:0:
158,221,71497,2,0,P|167:188|163:154,1,68.2499937763218,0|0,3:2|0:0,0:0:0:0:
79,47,71791,2,0,L|214:61,1,136.499987552644,12|4,0:0|0:0,0:0:0:0:
413,296,72379,6,0,L|408:227,1,68.2499937763218,6|0,0:0|0:0,0:0:0:0:
318,183,72673,1,0,3:0:0:0:
381,112,72820,1,0,0:0:0:0:
277,28,72967,2,0,L|271:96,1,68.2499937763218,12|0,0:0|0:0,0:0:0:0:
178,184,73262,1,0,0:0:0:0:
135,107,73409,1,0,0:0:0:0:
11,168,73556,6,0,L|80:174,1,68.2499937763218,2|0,3:2|0:0,0:0:0:0:
152,264,73850,2,0,L|84:257,1,68.2499937763218,0|0,3:0|0:0,0:0:0:0:
224,354,74144,2,0,L|156:347,1,68.2499937763218,12|0,0:0|0:0,0:0:0:0:
377,235,74438,6,0,P|386:274|383:306,1,68.2499937763218,4|0,0:0|0:0,0:0:0:0:
302,264,74732,2,0,P|292:224|298:188,1,68.2499937763218,6|0,0:0|0:0,0:0:0:0:
337,100,75026,2,0,P|297:91|261:99,1,68.2499937763218
402,164,75320,2,0,P|420:89|390:32,1,136.499987552644,12|0,0:0|0:0,0:0:0:0:
270,95,75909,5,2,3:2:0:0:
480,29,76203,1,0,3:0:0:0:
270,95,76497,1,12,0:0:0:0:
314,11,76791,1,0,0:0:0:0:
274,193,77085,6,0,L|275:260,1,52.4999976158143,2|0,0:0|0:0,0:0:0:0:
398,358,77379,1,0,3:0:0:0:
246,159,77673,2,0,L|246:211,1,52.4999976158143,12|0,0:0|0:0,0:0:0:0:
248,318,77967,1,0,0:0:0:0:
224,47,78262,6,0,L|158:50,1,52.4999976158143,2|0,3:2|0:0,0:0:0:0:
7,135,78556,1,0,3:0:0:0:
267,19,78850,2,0,L|214:22,1,52.4999976158143,12|0,0:0|0:0,0:0:0:0:
116,29,79144,1,0,0:0:0:0:
116,266,79438,6,0,P|122:240|124:214,1,52.4999976158143,2|0,0:0|0:0,0:0:0:0:
40,359,79732,1,0,3:0:0:0:
225,358,79928,1,2,0:0:0:0:
237,352,80026,2,0,P|261:343|281:326,1,52.4999976158143,12|0,0:0|0:0,0:0:0:0:
276,220,80320,2,0,P|251:229|231:246,1,52.4999976158143,2|0,0:0|0:0,0:0:0:0:
409,318,80614,6,0,P|415:288|414:254,1,52.4999976158143,2|0,3:2|0:0,0:0:0:0:
351,113,80909,1,0,3:0:0:0:
458,349,81203,2,0,P|464:319|463:285,1,52.4999976158143,12|0,0:2|0:0,0:0:0:0:
407,184,81497,1,0,0:0:0:0:
484,80,81791,1,0,0:0:0:0:
231,245,82085,5,0,3:0:0:0:
250,12,82379,2,0,L|225:73,1,52.4999976158143,14|0,0:2|0:0,0:0:0:0:
192,137,82673,1,0,0:0:0:0:
31,27,82967,5,2,3:2:0:0:
136,275,83262,1,0,3:0:0:0:
31,27,83556,1,12,0:0:0:0:
31,27,83850,6,0,L|26:90,2,52.4999976158143
140,222,84732,2,0,L|136:274,1,52.4999976158143,12|0,0:0|0:0,0:0:0:0:
311,274,85320,6,0,B|362:291|362:291|436:287,1,104.999995231629,2|0,0:0|0:0,0:0:0:0:
311,274,85909,2,0,L|306:334,1,52.4999976158143,2|0,0:0|0:0,0:0:0:0:
201,343,86203,2,0,L|200:283,1,52.4999976158143
254,185,86497,2,0,P|304:172|355:182,1,104.999995231629,2|0,0:0|0:0,0:0:0:0:
108,348,87085,6,0,L|99:243,1,104.999995231629
35,135,87526,1,2,0:0:0:0:
35,135,87673,2,0,L|28:195,1,52.4999976158143,2|0,0:0|0:0,0:0:0:0:
125,156,87967,2,0,L|130:103,1,52.4999976158143
204,30,88262,2,0,P|220:90|214:154,1,104.999995231629,2|0,0:0|0:0,0:0:0:0:
468,72,89144,6,0,P|421:56|357:69,1,104.999995231629,2|0,0:0|0:0,0:0:0:0:
259,248,89732,2,0,P|288:253|320:248,1,52.4999976158143,2|0,0:0|0:0,0:0:0:0:
404,230,90026,2,0,L|405:177,1,52.4999976158143,2|0,0:0|0:0,0:0:0:0:
261,195,90320,2,0,L|258:247,1,52.4999976158143
348,327,90614,2,0,P|410:340|459:327,1,104.999995231629
127,346,91203,6,0,P|69:323|51:276,1,104.999995231629,2|0,0:0|0:0,0:0:0:0:
144,135,91791,2,0,L|137:248,1,104.999995231629,2|0,0:0|0:0,0:0:0:0:
51,216,92232,1,0,0:0:0:0:
51,216,92379,2,0,L|56:159,1,52.4999976158143,2|0,0:0|0:0,0:0:0:0:
31,65,92673,2,0,L|83:68,1,52.4999976158143
178,66,92967,2,0,P|230:71|285:56,2,104.999995231629
348,20,93850,5,2,0:0:0:0:
348,20,94144,1,2,0:0:0:0:
348,20,94438,1,2,0:0:0:0:
201,224,94732,6,0,B|248:239|248:239|303:237,1,104.999995231629,2|0,3:2|0:0,0:0:0:0:
388,166,95173,1,4,0:0:0:0:
299,142,95320,2,0,L|246:143,1,52.4999976158143,2|0,0:0|0:0,0:0:0:0:
128,169,95614,2,0,L|125:222,1,52.4999976158143,0|0,3:0|0:0,0:0:0:0:
180,106,95909,2,0,P|116:89|64:109,1,104.999995231629,2|0,0:0|0:0,0:0:0:0:
274,351,96497,6,0,P|323:367|374:358,1,104.999995231629,2|0,0:0|0:0,0:0:0:0:
439,270,96938,1,0,0:0:0:0:
333,288,97085,2,0,L|338:226,1,52.4999976158143,2|0,3:2|0:0,0:0:0:0:
350,141,97379,1,8,0:0:0:0:
448,179,97526,1,4,0:0:0:0:
448,179,97673,2,0,L|445:74,1,104.999995231629,0|4,0:0|0:0,0:0:0:0:
221,40,98262,6,0,L|221:100,1,52.4999976158143
122,19,98556,2,0,L|123:71,2,52.4999976158143,0|4|0,3:0|0:0|0:0,0:0:0:0:
86,324,99144,5,0,0:0:0:0:
149,259,99291,1,0,0:0:0:0:
177,348,99438,2,0,P|231:361|292:348,1,104.999995231629,0|0,3:0|0:0,0:0:0:0:
348,262,99879,2,0,P|297:250|245:258,1,104.999995231629,4|4,0:0|0:0,0:0:0:0:
512,270,100320,5,0,3:0:0:0:
445,325,100467,1,0,0:0:0:0:
454,207,100614,2,0,B|433:134|433:134|434:52,1,157.499992847443,2|0,0:0|0:0,0:0:0:0:
345,58,101203,2,0,P|319:61|292:58,1,52.4999976158143,2|0,0:0|0:0,0:0:0:0:
164,294,101497,5,0,0:0:0:0:
153,205,101644,1,0,0:0:0:0:
245,258,101791,2,0,L|236:137,1,104.999995231629,0|8,3:0|0:0,0:0:0:0:
188,85,102232,2,0,L|192:27,1,52.4999976158143,4|0,0:0|0:0,0:0:0:0:
70,335,102967,6,0,L|69:282,1,52.4999976158143
69,206,103556,1,0,0:0:0:0:
69,206,103850,1,0,0:0:0:0:
337,213,104144,6,0,P|342:178|335:145,1,68.2499937763218,2|0,3:2|0:0,0:0:0:0:
302,288,104438,2,0,P|335:294|369:287,1,68.2499937763218,0|0,3:0|0:0,0:0:0:0:
268,183,104732,2,0,P|205:174|111:206,1,136.499987552644,12|4,0:0|0:0,0:0:0:0:
466,238,105320,6,0,L|469:170,1,68.2499937763218,6|0,0:0|0:0,0:0:0:0:
392,39,105614,1,0,3:0:0:0:
478,79,105762,1,0,0:0:0:0:
361,149,105909,1,12,0:0:0:0:
361,149,106056,1,0,0:0:0:0:
273,45,106203,2,0,L|270:114,1,68.2499937763218
171,281,106497,6,0,P|134:285|91:276,1,68.2499937763218,2|0,3:2|0:0,0:0:0:0:
261,294,106791,2,0,P|244:330|220:359,1,68.2499937763218,0|0,3:0|0:0,0:0:0:0:
317,222,107085,2,0,P|340:252|351:288,1,68.2499937763218,12|0,0:0|0:0,0:0:0:0:
171,281,107379,6,0,L|163:204,1,68.2499937763218,4|0,0:0|0:0,0:0:0:0:
144,143,107673,2,0,L|137:210,1,68.2499937763218,6|0,0:0|0:0,0:0:0:0:
213,9,107967,1,0,3:0:0:0:
45,63,108114,2,0,L|113:68,1,68.2499937763218,0|12,0:0|0:0,0:0:0:0:
326,43,108409,1,0,0:0:0:0:
267,202,108556,2,0,L|262:133,1,68.2499937763218
438,325,108850,6,0,P|399:331|359:322,1,68.2499937763218,2|0,3:2|0:0,0:0:0:0:
296,286,109144,2,0,P|262:281|228:287,1,68.2499937763218,0|0,3:0|0:0,0:0:0:0:
36,355,109438,2,0,L|104:356,1,68.2499937763218,12|0,0:0|0:0,0:0:0:0:
153,276,109732,2,0,L|84:274,1,68.2499937763218,4|0,0:0|0:0,0:0:0:0:
21,192,110026,2,0,L|95:194,1,68.2499937763218,6|0,0:0|0:0,0:0:0:0:
260,165,110320,5,0,3:0:0:0:
299,100,110467,1,0,0:0:0:0:
251,41,110614,2,0,P|219:35|175:36,1,68.2499937763218,12|0,0:0|0:0,0:0:0:0:
260,165,110909,1,0,0:0:0:0:
325,204,111056,1,0,0:0:0:0:
384,156,111203,6,0,P|390:117|389:85,1,68.2499937763218,2|0,3:2|0:0,0:0:0:0:
401,234,111497,2,0,P|440:219|470:196,1,68.2499937763218,0|0,3:2|0:0,0:0:0:0:
341,287,111791,2,0,P|367:312|406:329,1,68.2499937763218,12|0,0:0|0:0,0:0:0:0:
161,238,112085,6,0,L|148:314,1,68.2499937763218,4|0,0:0|0:0,0:0:0:0:
119,372,112379,2,0,L|103:206,1,136.499987552644,6|0,0:0|0:0,0:0:0:0:
395,326,112967,6,0,P|430:329|474:318,1,68.2499937763218,12|0,0:0|0:0,0:0:0:0:
423,242,113262,1,0,0:0:0:0:
423,242,113409,1,0,0:0:0:0:
267,320,113556,6,0,P|261:281|266:246,1,68.2499937763218,2|0,3:2|0:0,0:0:0:0:
308,146,113850,2,0,P|313:112|306:78,1,68.2499937763218,0|0,3:0|0:0,0:0:0:0:
175,152,114144,2,0,P|241:162|307:145,1,136.499987552644,12|4,0:0|0:0,0:0:0:0:
82,40,114732,6,0,L|76:112,1,68.2499937763218,6|0,0:0|0:0,0:0:0:0:
63,226,115026,1,0,3:0:0:0:
0,151,115173,1,0,0:0:0:0:
167,114,115320,1,12,0:0:0:0:
167,114,115467,1,0,0:0:0:0:
172,229,115614,2,0,L|175:307,1,68.2499937763218
364,182,115909,6,0,P|402:177|443:185,1,68.2499937763218,2|0,3:2|0:0,0:0:0:0:
295,213,116203,2,0,P|290:179|294:145,1,68.2499937763218,0|0,3:0|0:0,0:0:0:0:
402,252,116497,2,0,P|409:283|403:320,1,68.2499937763218,12|0,0:0|0:0,0:0:0:0:
294,145,116791,6,0,L|213:137,1,68.2499937763218,4|0,0:0|0:0,0:0:0:0:
276,99,117085,2,0,L|350:90,1,68.2499937763218,6|0,0:0|0:0,0:0:0:0:
101,15,117379,1,0,3:0:0:0:
139,106,117526,2,0,P|105:109|71:104,1,68.2499937763218,0|12,0:0|0:0,0:0:0:0:
197,255,117820,1,0,0:0:0:0:
106,217,117967,2,0,P|102:252|109:287,1,68.2499937763218
331,273,118262,6,0,L|407:276,1,68.2499937763218,2|0,3:2|0:0,0:0:0:0:
478,351,118556,2,0,L|409:347,1,68.2499937763218,0|0,3:2|0:0,0:0:0:0:
295,193,118850,2,0,L|446:197,1,136.499987552644,12|4,0:0|0:0,0:0:0:0:
223,32,119438,6,0,L|218:107,1,68.2499937763218,6|0,0:0|0:0,0:0:0:0:
250,285,119732,1,0,3:0:0:0:
295,193,119879,1,0,0:0:0:0:
193,222,120026,2,0,P|153:226|114:216,1,68.2499937763218,12|0,0:0|0:0,0:0:0:0:
0,185,120320,1,0,0:0:0:0:
49,258,120467,1,0,0:0:0:0:
77,127,120614,6,0,L|81:49,1,68.2499937763218,2|0,3:2|0:0,0:0:0:0:
252,27,120909,2,0,L|184:23,1,68.2499937763218,0|0,3:2|0:0,0:0:0:0:
221,126,121203,2,0,L|299:122,1,68.2499937763218,12|0,0:0|0:0,0:0:0:0:
193,222,121497,6,0,P|185:263|190:301,1,68.2499937763218,4|0,0:0|0:0,0:0:0:0:
264,358,121791,2,0,P|272:318|268:278,1,68.2499937763218,6|0,0:0|0:0,0:0:0:0:
119,359,122085,2,0,P|158:368|199:362,1,68.2499937763218
270,215,122379,2,0,P|348:203|418:230,1,136.499987552644,12|0,0:0|0:0,0:0:0:0:
221,126,122967,5,0,0:0:0:0:
41,270,123262,6,0,L|40:335,2,62.9999952163698
46,157,124144,2,0,P|105:173|168:157,1,125.99999043274,2|0,0:0|0:0,0:0:0:0:
313,86,125026,6,0,L|351:87,1,31.4999976081849,2|2,0:0|0:0,0:0:0:0:
398,98,125320,2,0,P|412:125|416:156,2,62.9999952163698,2|0|0,0:0|0:0|0:0,0:0:0:0:
375,290,126203,6,0,P|363:268|355:225,2,62.9999952163698
436,348,127085,5,2,0:0:0:0:
497,199,127379,1,2,0:0:0:0:
332,152,127673,2,0,L|264:152,1,62.9999952163698,2|0,0:0|0:0,0:0:0:0:
76,36,128262,5,2,0:0:0:0:
15,185,128556,1,2,0:0:0:0:
180,232,128850,2,0,L|248:232,1,62.9999952163698,2|0,0:0|0:0,0:0:0:0:
119,139,129438,5,2,0:0:0:0:
266,333,129732,1,2,0:0:0:0:
62,338,130026,1,0,0:0:0:0:
271,155,130320,5,2,0:0:0:0:
396,301,130614,1,2,0:0:0:0:
391,96,130909,1,2,0:0:0:0:
479,242,131203,1,2,0:0:0:0:
284,250,131497,1,2,0:0:0:0:
474,140,131791,1,2,0:0:0:0:
464,361,132085,1,2,0:0:0:0:
313,129,132379,6,0,B|223:90|219:171|132:132,1,188.999985649109,2|0,0:0|0:0,0:0:0:0:
66,67,133556,2,0,P|44:123|63:197,1,125.99999043274,2|0,0:0|0:0,0:0:0:0:
164,335,134438,6,0,L|172:302,1,31.4999976081849,2|2,0:0|0:0,0:0:0:0:
191,263,134732,2,0,B|281:224|285:305|372:266,1,188.999985649109,2|0,0:0|0:0,0:0:0:0:
440,197,135909,2,0,P|454:142|438:97,1,94.4999928245547
401,39,136497,1,2,0:0:0:0:
252,160,136791,6,0,L|249:128,1,31.4999976081849
235,94,137085,2,0,P|198:101|161:92,1,62.9999952163698,2|2,0:0|0:0,0:0:0:0:
104,65,137526,1,2,0:0:0:0:
104,65,137673,1,2,0:0:0:0:
69,252,137967,6,0,L|100:249,1,31.4999976081849
145,219,138262,2,0,L|213:223,1,62.9999952163698,2|2,0:0|0:0,0:0:0:0:
273,294,138703,1,2,0:0:0:0:
273,294,138850,1,2,0:0:0:0:
495,336,139144,6,0,L|492:304,1,31.4999976081849
484,250,139438,2,0,P|452:256|412:252,1,62.9999952163698,2|2,0:0|0:0,0:0:0:0:
336,206,139879,1,2,0:0:0:0:
336,206,140026,2,0,L|334:82,1,118.124999141693,2|0,0:0|0:0,0:0:0:0:
277,32,140614,5,2,0:0:0:0:
232,192,140909,1,2,0:0:0:0:
93,47,141203,1,2,0:0:0:0:
50,234,141497,1,2,0:0:0:0:
296,149,141791,6,0,P|300:237|177:253,1,236.249998283386,2|0,0:0|0:0,0:0:0:0:
234,90,142967,2,0,P|309:71|375:115,1,157.499998855591,2|0,0:0|0:0,0:0:0:0:
464,258,143850,5,2,0:0:0:0:
464,258,143997,1,2,0:0:0:0:
475,152,144144,2,0,L|475:73,1,78.7499994277954,2|0,0:0|0:0,0:0:0:0:
234,90,144732,6,0,L|233:182,1,78.7499994277954
160,250,145320,2,0,L|156:171,1,78.7499994277954
128,85,145909,1,0,0:0:0:0:
64,280,146203,5,2,0:0:0:0:
64,280,146350,1,2,0:0:0:0:
159,334,146497,2,0,L|212:334,1,52.4999976158143,2|0,3:2|0:2,0:2:0:0:
324,260,146791,2,0,L|271:260,1,52.4999976158143,0|0,0:0|0:2,0:2:0:0:
392,306,147085,2,0,P|405:249|385:197,1,104.999995231629,12|4,0:0|0:0,0:0:0:0:
268,52,147673,6,0,L|271:113,1,52.4999976158143,4|0,0:0|0:2,0:2:0:0:
182,32,147967,2,0,L|185:84,1,52.4999976158143,0|0,3:0|0:2,0:2:0:0:
351,27,148262,2,0,L|353:85,1,52.4999976158143,12|0,0:0|0:2,0:2:0:0:
383,182,148556,1,2,0:0:0:0:
383,182,148703,1,4,0:0:0:0:
283,250,148850,6,0,P|238:258|193:248,2,78.7499994277954,2|0|12,3:2|3:0|0:0,0:0:0:0:
242,172,149732,1,0,0:0:0:0:
242,342,150026,1,12,0:0:0:0:
242,342,150320,6,0,L|241:280,3,52.4999976158143
205,251,151350,2,0,P|174:245|144:251,1,62.9999971389771
96,301,152379,6,0,P|124:209|67:111,1,196.874991059303
31,91,152967,2,0,P|155:121|268:58,1,236.249998283386
298,12,153556,6,0,L|317:295,1,275.62499011159,2|0,3:2|0:0,0:0:0:0:
347,369,154144,2,0,L|364:131,1,236.249998283386,0|0,3:2|0:0,0:0:0:0:
305,27,154732,6,0,P|268:20|231:27,1,76.1249988660813,14|0,0:0|0:0,0:0:0:0:
85,109,155026,1,0,0:0:0:0:
216,123,155173,1,0,0:0:0:0:
136,180,155320,1,4,0:0:0:0:
147,39,155467,1,0,0:0:0:0:
291,137,155614,2,0,P|327:140|363:133,1,73.4999944190981
157,284,155909,6,0,B|189:316|221:316|253:316|285:284|285:284|317:252|349:252|381:252|413:284,1,275.62499011159,6|0,3:2|0:0,0:0:0:0:
349,340,156497,2,0,B|360:104,1,236.249998283386,0|0,3:0|0:0,0:0:0:0:
231,56,157085,6,0,L|233:139,1,68.2499937763218,14|0,0:0|0:0,0:0:0:0:
145,214,157379,1,0,0:0:0:0:
145,214,157526,2,0,L|141:145,1,68.2499937763218
38,40,157820,1,0,0:0:0:0:
38,40,157967,2,0,L|40:130,1,68.2499937763218
97,281,158262,6,0,B|121:305|153:305|185:305|209:281|209:281|233:257|265:257|297:257|321:281,1,236.249998283386,2|0,3:2|0:0,0:0:0:0:
97,281,158850,2,0,P|91:236|103:189,1,78.7499994277954,0|0,3:0|0:0,0:0:0:0:
205,76,159144,2,0,P|211:125|196:168,1,78.7499994277954
32,332,159438,2,0,P|18:246|35:158,1,157.499998855591,14|0,0:0|0:0,0:0:0:0:
491,208,160026,6,0,P|417:269|348:201,1,196.874991059303,4|0,0:0|0:0,0:0:0:0:
300,112,160614,2,0,P|217:41|139:115,1,236.249998283386,6|0,0:0|0:0,0:0:0:0:
89,201,161203,2,0,P|50:209|14:201,1,73.4999944190981,0|0,3:0|0:0,0:0:0:0:
221,124,161497,2,0,L|227:212,1,73.4999944190981
421,193,161791,6,0,L|426:56,1,136.499987552644,14|0,0:0|0:0,0:0:0:0:
409,355,162673,5,0,0:0:0:0:
409,355,162820,1,0,0:0:0:0:
310,293,162967,6,0,P|272:288|236:297,1,68.2499937763218,2|0,3:2|0:0,0:0:0:0:
172,330,163262,2,0,P|138:335|105:330,1,68.2499937763218,0|0,3:2|0:0,0:0:0:0:
249,213,163556,2,0,P|260:147|244:81,1,136.499987552644,12|4,0:0|0:0,0:0:0:0:
14,151,164144,6,0,P|58:156|114:154,1,68.2499937763218,6|0,0:0|0:0,0:0:0:0:
184,145,164438,1,0,3:0:0:0:
106,79,164585,1,0,0:0:0:0:
149,230,164732,1,12,0:0:0:0:
149,230,164879,1,0,0:0:0:0:
266,182,165026,2,0,P|270:143|259:100,1,68.2499937763218
477,81,165320,6,0,P|490:124|485:177,1,68.2499937763218,2|0,3:2|0:0,0:0:0:0:
341,185,165614,2,0,P|372:150|407:132,1,68.2499937763218,0|0,3:0|0:0,0:0:0:0:
498,250,165909,2,0,P|456:240|414:217,1,68.2499937763218,12|0,0:0|0:0,0:0:0:0:
194,306,166203,6,0,L|272:303,1,68.2499937763218,4|0,0:0|0:0,0:0:0:0:
228,356,166497,2,0,L|160:359,1,68.2499937763218,6|0,0:0|0:0,0:0:0:0:
322,212,166791,1,0,3:0:0:0:
227,221,166938,1,0,0:0:0:0:
338,352,167085,1,12,0:0:0:0:
338,352,167232,1,0,0:0:0:0:
404,264,167379,2,0,L|400:187,1,68.2499937763218
301,73,167673,6,0,P|262:80|220:77,1,68.2499937763218,2|0,3:2|0:0,0:0:0:0:
91,29,167967,2,0,P|124:24|158:31,1,68.2499937763218,0|0,3:0|0:0,0:0:0:0:
175,152,168262,2,0,P|101:177|34:150,1,136.499987552644,12|4,0:0|0:0,0:0:0:0:
256,230,168850,6,0,L|253:309,1,68.2499937763218,6|0,0:0|0:0,0:0:0:0:
184,360,169144,1,0,3:0:0:0:
306,355,169291,1,0,0:0:0:0:
184,360,169438,2,0,P|147:353|121:337,1,68.2499937763218,12|0,0:0|0:0,0:0:0:0:
51,235,169732,1,0,0:0:0:0:
174,271,169879,1,0,0:0:0:0:
51,235,170026,6,0,L|53:166,1,68.2499937763218,2|0,3:2|0:0,0:0:0:0:
124,35,170320,2,0,L|126:104,1,68.2499937763218,0|0,3:0|0:0,0:0:0:0:
174,271,170614,2,0,L|177:200,1,68.2499937763218,12|0,0:0|0:0,0:0:0:0:
254,1,170909,2,0,L|258:77,1,68.2499937763218,4|0,0:0|0:0,0:0:0:0:
299,306,171203,2,0,L|302:237,1,68.2499937763218,6|0,0:0|0:0,0:0:0:0:
417,113,171497,5,0,0:0:0:0:
417,113,171644,1,0,0:0:0:0:
483,172,171791,2,0,P|411:194|342:164,1,136.499987552644,12|0,0:0|0:0,0:0:0:0:
174,271,172379,6,0,L|171:348,1,73.4999944190981,2|0,3:2|0:0,0:0:0:0:
271,250,172673,1,0,3:0:0:0:
189,172,172820,1,0,0:0:0:0:
295,136,172967,2,0,L|384:140,1,73.4999944190981,12|0,0:0|0:0,0:0:0:0:
200,32,173262,6,0,P|163:27|127:33,1,73.4999944190981,4|0,0:0|0:0,0:0:0:0:
88,103,173556,2,0,P|126:109|172:96,1,73.4999944190981,6|0,0:0|0:0,0:0:0:0:
45,238,173850,6,0,L|46:317,1,73.4999944190981,0|0,3:0|0:0,0:0:0:0:
166,350,174144,1,12,0:0:0:0:
156,250,174291,1,0,0:0:0:0:
320,250,174438,1,0,0:0:0:0:
246,301,174585,1,0,0:0:0:0:
287,168,174732,6,0,P|326:161|372:174,1,73.4999944190981,2|0,3:2|0:0,0:0:0:0:
459,231,175026,1,0,3:0:0:0:
459,231,175173,1,0,0:0:0:0:
497,140,175320,2,0,P|501:103|496:67,1,73.4999944190981,12|0,0:0|0:0,0:0:0:0:
231,40,175614,6,0,P|225:77|231:125,1,73.4999944190981,4|0,0:0|0:0,0:0:0:0:
384,112,175909,2,0,P|391:68|381:25,1,73.4999944190981,6|0,0:0|0:0,0:0:0:0:
309,81,176203,2,0,L|308:167,1,73.4999944190981,0|0,3:0|0:0,0:0:0:0:
231,39,176497,2,0,P|162:17|97:46,1,146.999988838196,12|0,0:0|0:0,0:0:0:0:
36,365,177085,6,0,L|41:289,1,73.4999944190981,2|0,3:2|0:0,0:0:0:0:
67,177,177379,1,0,3:0:0:0:
145,270,177526,1,0,0:0:0:0:
206,180,177673,2,0,P|246:173|295:183,1,73.4999944190981,12|0,0:0|0:0,0:0:0:0:
461,231,177967,6,0,L|464:143,1,73.4999944190981,4|0,0:0|0:0,0:0:0:0:
408,214,178262,2,0,L|410:288,1,73.4999944190981,6|0,0:0|0:0,0:0:0:0:
222,364,178556,6,0,P|214:322|221:279,1,73.4999944190981,0|0,3:0|0:0,0:0:0:0:
280,182,178850,1,12,0:0:0:0:
299,287,178997,1,0,0:0:0:0:
182,154,179144,1,0,0:0:0:0:
147,237,179291,1,0,0:0:0:0:
362,199,179438,6,0,P|362:159|346:108,1,73.4999944190981,2|0,3:2|0:0,0:0:0:0:
315,17,179732,1,0,3:0:0:0:
315,17,179879,1,0,0:0:0:0:
204,65,180026,2,0,P|166:69|115:58,1,73.4999944190981,12|0,0:0|0:0,0:0:0:0:
151,226,180320,6,0,L|156:310,1,73.4999944190981,4|0,0:0|0:0,0:0:0:0:
50,227,180614,2,0,L|40:312,1,73.4999944190981,6|0,0:0|0:0,0:0:0:0:
252,221,180909,2,0,L|258:301,1,73.4999944190981,0|0,3:0|0:0,0:0:0:0:
248,79,181203,2,0,P|358:56|333:142,1,220.499983257294,12|0,0:0|0:0,0:0:0:0:
257,294,181791,6,0,P|220:298|184:291,1,73.4999944190981,2|0,3:2|0:0,0:0:0:0:
94,256,182085,1,0,0:0:0:0:
120,353,182232,1,0,0:0:0:0:
219,221,182379,2,0,P|225:180|216:135,1,73.4999944190981,12|0,0:0|0:0,0:0:0:0:
34,21,182673,6,0,L|24:105,1,73.4999944190981,4|0,0:0|0:0,0:0:0:0:
122,28,182967,2,0,L|127:108,1,73.4999944190981,6|0,0:0|0:0,0:0:0:0:
289,57,183262,6,0,P|335:52|381:70,1,73.4999944190981,0|0,3:0|0:0,0:0:0:0:
457,156,183556,1,12,0:0:0:0:
447,63,183703,1,0,0:0:0:0:
361,219,183850,1,0,0:0:0:0:
325,139,183997,1,0,0:0:0:0:
269,288,184144,6,0,P|229:301|181:296,1,73.4999944190981,2|0,3:2|0:0,0:0:0:0:
102,253,184438,1,0,3:0:0:0:
102,253,184585,1,0,0:0:0:0:
215,153,184732,2,0,L|219:227,1,73.4999944190981,12|0,0:0|0:0,0:0:0:0:
361,335,185026,6,0,P|399:341|452:330,1,73.4999944190981,4|0,0:0|0:0,0:0:0:0:
398,192,185320,2,0,P|393:234|400:273,1,73.4999944190981,6|0,0:0|0:0,0:0:0:0:
435,125,185614,2,0,P|393:117|349:129,1,73.4999944190981,0|0,3:0|0:0,0:0:0:0:
239,216,185909,2,0,P|167:231|88:211,1,146.999988838196,12|0,0:0|0:0,0:0:0:0:
173,60,186497,6,0,L|170:146,1,73.4999944190981,2|0,3:2|0:0,0:0:0:0:
96,215,186791,1,0,0:0:0:0:
17,158,186938,1,0,0:0:0:0:
57,285,187085,2,0,P|97:293|140:284,1,73.4999944190981,12|0,0:0|0:0,0:0:0:0:
402,290,187379,6,0,P|410:326|407:370,1,73.4999944190981,4|0,0:0|0:0,0:0:0:0:
318,323,187673,2,0,P|310:286|312:251,1,73.4999944190981,6|0,0:0|0:0,0:0:0:0:
454,89,187967,6,0,L|381:92,1,73.4999944190981,0|0,3:0|0:0,0:0:0:0:
245,133,188262,1,12,0:0:0:0:
309,56,188409,1,0,0:0:0:0:
263,257,188556,1,0,0:0:0:0:
182,205,188703,1,0,0:0:0:0:
334,222,188850,6,0,P|344:262|338:307,1,73.4999944190981,2|0,3:2|0:0,0:0:0:0:
283,371,189144,1,0,3:0:0:0:
283,371,189291,1,0,0:0:0:0:
402,364,189438,2,0,L|490:359,1,73.4999944190981,12|0,0:0|0:0,0:0:0:0:
334,222,189732,6,0,L|246:220,1,73.4999944190981,4|0,0:0|0:0,0:0:0:0:
88,306,190026,2,0,L|177:308,1,73.4999944190981,4|0,0:0|0:0,0:0:0:0:
213,137,190320,2,0,L|134:139,1,73.4999944190981,0|0,3:0|0:0,0:0:0:0:
341,302,190614,2,0,P|410:199|340:140,1,220.499983257294,12|0,0:0|0:0,0:0:0:0:
290,98,191203,6,0,P|282:59|287:20,1,78.7499994277954
207,70,191791,2,0,P|167:78|120:66,1,78.7499994277954
43,139,192379,2,0,L|47:181,1,39.3749997138977
83,268,192673,2,0,L|81:313,2,39.3749997138977
151,184,193114,2,0,L|150:144,2,39.3749997138977
196,283,193556,6,0,B|281:333|345:229|440:287,1,251.999980865479
383,346,196203,5,0,0:0:0:0:
383,346,196497,2,0,P|358:258|426:199,1,188.999985649109
438,286,198556,5,0,0:0:0:0:
438,286,198850,2,0,L|440:154,1,125.99999043274
340,30,200320,6,0,L|334:87,1,39.3749997138977
308,141,200614,2,0,L|312:205,1,62.9999952163698
230,294,201203,2,0,L|226:366,1,62.9999952163698
138,246,201791,2,0,L|143:203,1,31.4999976081849
107,130,202085,2,0,L|98:93,2,31.4999976081849
199,68,202526,2,0,L|210:28,2,31.4999976081849
236,158,202967,6,0,P|340:176|374:134,1,167.999992370606
297,101,205614,5,0,0:0:0:0:
297,101,205909,2,0,L|306:229,1,125.999994277954
387,246,207967,5,0,0:0:0:0:
387,246,208262,2,0,L|384:334,1,83.9999961853028
301,335,209732,6,0,P|256:327|217:340,1,78.7499994277954
256,192,210100,12,0,212379,0:0:0:0:
