osu file format v14

[General]
AudioFilename: qwq.mp3
AudioLeadIn: 0
PreviewTime: 59167
Countdown: 0
SampleSet: Soft
StackLeniency: 0.7
Mode: 0
LetterboxInBreaks: 0
EpilepsyWarning: 1
WidescreenStoryboard: 1

[Editor]
DistanceSpacing: 1.4
BeatDivisor: 4
GridSize: 4
TimelineZoom: 1.54

[Metadata]
Title:Paradisus-Paradoxum
TitleUnicode:Paradisus-Paradoxum
Artist:MYTH & ROID
ArtistUnicode:MYTH & ROID
Creator:wajinshu
Version:HARD
Source:Re:ゼロから始める異世界生活
Tags:second opening re: zero kara hajimeru isekai seikatsu life in a different world from kalibe fcl tv size taeyang shmiklak slayed yoshikawa hoshi marvollo m_a_r_v_o_l_l_o
BeatmapID:1092365
BeatmapSetID:514181

[Difficulty]
HPDrainRate:5.2
CircleSize:3.8
OverallDifficulty:6.5
ApproachRate:8
SliderMultiplier:1.3
SliderTickRate:1

[Events]
//Background and Video events
0,0,"sad.png",0,0
//Break Periods
//Storyboard Layer 0 (Background)
//Storyboard Layer 1 (Fail)
//Storyboard Layer 2 (Pass)
//Storyboard Layer 3 (Foreground)
Sprite,Foreground,Centre,"SB\effects\highlight.png",444,358 F,0,9690,10288,0.75,0 S,0,9690,10288,1,0.75 C,0,9690,10288,129,185,222
Sprite,Foreground,Centre,"SB\effects\highlight.png",408,303 F,0,13272,13870,0.75,0 S,0,13272,13870,1,0.75 C,0,13272,13870,129,185,222
Sprite,Foreground,Centre,"SB\effects\highlight.png",407,174 F,0,13569,14167,0.75,0 S,0,13569,14167,1,0.75 C,0,13569,14167,129,185,222
Sprite,Foreground,Centre,"SB\effects\highlight.png",408,303 F,0,13869,14467,0.75,0 S,0,13869,14467,1,0.75 C,0,13869,14467,129,185,222
Sprite,Foreground,Centre,"SB\effects\highlight.png",460,377 F,0,14018,14616,0.75,0 S,0,14018,14616,1,0.75 C,0,14018,14616,129,185,222
Sprite,Foreground,Centre,"SB\effects\highlight.png",491,229 F,0,14316,14914,0.75,0 S,0,14316,14914,1,0.75 C,0,14316,14914,129,185,222
Sprite,Foreground,Centre,"SB\effects\highlight.png",496,294 F,0,14167,14765,0.75,0 S,0,14167,14765,1,0.75 C,0,14167,14765,129,185,222
Sprite,Foreground,Centre,"SB\effects\highlight.png",339,125 F,0,15063,15510,1,0 S,0,15063,15510,1.2,0.75 C,0,15063,15510,241,61,65
Sprite,Foreground,Centre,"SB\effects\highlight.png",128,338 F,0,15660,16257,1,0 S,0,15660,16257,1.2,0.75 C,0,15660,16257,248,220,155
Sprite,Foreground,Centre,"SB\effects\highlight.png",195,387 F,0,16257,16704,1,0 S,0,16257,16704,1.2,0.75 C,0,16257,16704,209,150,78
Sprite,Foreground,Centre,"SB\effects\highlight.png",82,213 F,0,16854,17749,1,0 S,0,16854,17749,1.2,0.75 C,0,16854,17749,129,185,222
Sprite,Foreground,Centre,"SB\effects\highlight.png",421,220 F,0,17899,18497,0.75,0 S,0,17899,18497,1.2,0.75 C,0,17899,18497,129,185,222
Sprite,Foreground,Centre,"SB\effects\highlight.png",352,79 F,0,18346,18944,0.75,0 S,0,18346,18944,1.2,0.75 C,0,18346,18944,241,61,65
Sprite,Foreground,Centre,"SB\effects\highlight.png",416,310 F,0,18794,19392,0.75,0 S,0,18794,19392,1.2,0.75 C,0,18794,19392,241,61,65
Sprite,Foreground,Centre,"SB\effects\highlight.png",498,266 F,0,19092,19690,0.75,0 S,0,19092,19690,1.2,0.75 C,0,19092,19690,241,61,65
Sprite,Foreground,Centre,"SB\effects\highlight.png",522,131 F,0,19242,19840,0.75,0 S,0,19242,19840,1.2,0.75 C,0,19242,19840,248,220,155
Sprite,Foreground,Centre,"SB\effects\highlight.png",341,253 F,0,27600,28198,0.75,0 S,0,27600,28198,1,0.75 C,0,27600,28198,129,185,222
Sprite,Foreground,Centre,"SB\effects\highlight.png",395,278 F,0,27749,28347,0.75,0 S,0,27749,28347,1,0.75 C,0,27749,28347,129,185,222
Sprite,Foreground,Centre,"SB\effects\highlight.png",453,381 F,0,27899,28497,0.75,0 S,0,27899,28497,1,0.75 C,0,27899,28497,129,185,222
Sprite,Foreground,Centre,"SB\effects\highlight.png",452,349 F,0,28048,28646,0.75,0 S,0,28048,28646,1,0.75 C,0,28048,28646,129,185,222
Sprite,Foreground,Centre,"SB\effects\highlight.png",480,262 F,0,28197,28795,0.75,0 S,0,28197,28795,1,0.75 C,0,28197,28795,129,185,222
Sprite,Foreground,Centre,"SB\effects\highlight.png",447,208 F,0,28346,28944,0.75,0 S,0,28346,28944,1,0.75 C,0,28346,28944,129,185,222
Sprite,Foreground,Centre,"SB\effects\highlight.png",368,161 F,0,28496,29094,0.75,0 S,0,28496,29094,1,0.75 C,0,28496,29094,129,185,222
Sprite,Foreground,Centre,"SB\effects\highlight.png",303,161 F,0,28645,29243,0.75,0 S,0,28645,29243,1,0.75 C,0,28645,29243,129,185,222
Sprite,Foreground,Centre,"SB\effects\highlight.png",218,222 F,0,28794,29392,1,0 S,0,28794,29392,1.2,0.75 C,0,28794,29392,241,61,65
Sprite,Foreground,Centre,"SB\effects\highlight.png",143,294 F,0,37301,37451,0.75,1 F,0,37301,37749,1,0 S,0,37301,37749,1 C,0,37301,37749,248,220,155
Sprite,Foreground,Centre,"SB\effects\highlight.png",284,297 F,0,37600,37899,0.75,1 S,0,37600,38197,1 C,0,37600,38197,248,220,155 F,0,37899,38197,1,0
Sprite,Foreground,Centre,"SB\effects\highlight.png",497,226 F,0,38048,38646,0.75,0 S,0,38048,38646,1,0.75 C,0,38048,38646,129,185,222
Sprite,Foreground,Centre,"SB\effects\highlight.png",384,322 F,0,38346,38944,0.75,0 S,0,38346,38944,1,0.75 C,0,38346,38944,241,61,65
Sprite,Foreground,Centre,"SB\effects\highlight.png",142,240 F,0,42674,43272,0.75,0 S,0,42674,43272,1,0.75 C,0,42675,43272,241,61,65
Sprite,Foreground,Centre,"SB\effects\highlight.png",186,122 F,0,42973,43571,0.75,0 S,0,42973,43571,1,0.75 C,0,42973,43571,241,61,65
Sprite,Foreground,Centre,"SB\effects\highlight.png",287,106 F,0,43122,43720,1,0 S,0,43122,43720,1.2,0.75 C,0,43122,43720,248,220,155
Sprite,Foreground,Centre,"SB\effects\highlight.png",232,374 F,0,45510,46108,0.75,0 S,0,45510,46108,1,0.75 C,0,45510,46108,241,61,65
Sprite,Foreground,Centre,"SB\effects\highlight.png",375,240 F,0,45659,46257,0.75,0 S,0,45659,46257,1,0.75 C,0,45659,46257,241,61,65 M,0,45660,46257,308,391
Sprite,Foreground,Centre,"SB\effects\highlight.png",380,411 F,0,45808,46406,0.75,0 S,0,45808,46406,1,0.75 C,0,45808,46406,241,61,65
Sprite,Foreground,Centre,"SB\effects\highlight.png",467,381 F,0,45958,46556,0.75,0 S,0,45958,46556,1,0.75 C,0,45958,46556,241,61,65
Sprite,Foreground,Centre,"SB\effects\highlight.png",474,388 F,0,46107,46705,0.75,0 S,0,46107,46705,1,0.75 C,0,46107,46705,241,61,65
Sprite,Foreground,Centre,"SB\effects\highlight.png",545,291 F,0,46406,47004,0.75,0 S,0,46406,47004,1,0.75 C,0,46406,47004,241,61,65
Sprite,Foreground,Centre,"SB\effects\highlight.png",451,294 F,0,46555,47153,0.75,0 S,0,46555,47153,1,0.75 C,0,46555,47153,241,61,65
Sprite,Foreground,Centre,"SB\effects\highlight.png",397,218 F,0,46704,47302,1,0 S,0,46704,47302,1,2.75 C,0,46704,47302,248,220,155
Sprite,Foreground,Centre,"SB\effects\highlight.png",397,218 F,0,47102,47700,0.75,0 S,0,47102,47700,1,0.75 C,0,47102,47700,248,220,155
Sprite,Foreground,Centre,"SB\effects\highlight.png",93,401 F,0,47899,48497,1,0 S,0,47899,48497,1.2,0.75 C,0,47899,48497,129,185,222
Sprite,Foreground,Centre,"SB\effects\highlight.png",366,99 F,0,52078,52676,0.75,0 S,0,52078,52676,1,0.75 C,0,52078,52676,129,185,222
Sprite,Foreground,Centre,"SB\effects\highlight.png",385,121 F,0,52152,52750,0.75,0 S,0,52152,52750,1,0.75 C,0,52152,52750,129,185,222
Sprite,Foreground,Centre,"SB\effects\highlight.png",366,99 F,0,52227,52825,0.75,0 S,0,52227,52825,1,0.75 C,0,52227,52825,129,185,222
Sprite,Foreground,Centre,"SB\effects\highlight.png",385,121 F,0,52301,52899,0.75,0 S,0,52301,52899,1,0.75 C,0,52301,52899,129,185,222
Sprite,Foreground,Centre,"SB\effects\highlight.png",400,162 F,0,52376,52974,0.75,0 S,0,52376,52974,1,0.75 C,0,52376,52974,129,185,222
Sprite,Foreground,Centre,"SB\effects\highlight.png",418,185 F,0,52450,53048,0.75,0 S,0,52450,53048,1,0.75 C,0,52450,53048,129,185,222
Sprite,Foreground,Centre,"SB\effects\highlight.png",400,162 F,0,52525,53123,0.75,0 S,0,52525,53123,1,0.75 C,0,52525,53123,129,185,222
Sprite,Foreground,Centre,"SB\effects\highlight.png",435,226 F,0,52675,53273,1,0 S,0,52675,53273,1.2,0.75 C,0,52675,53273,241,61,65
Sprite,Foreground,Centre,"SB\effects\highlight.png",136,123 F,0,55063,55661,0.75,0 S,0,55063,55661,1,0.75 C,0,55063,55661,129,185,222
Sprite,Foreground,Centre,"SB\effects\highlight.png",264,122 F,0,55361,55959,0.75,0 S,0,55361,55959,1,0.75 C,0,55361,55959,129,185,222
Sprite,Foreground,Centre,"SB\effects\highlight.png",341,82 F,0,55510,56108,0.75,0 S,0,55510,56108,1,0.75 C,0,55510,56108,129,185,222
Sprite,Foreground,Centre,"SB\effects\highlight.png",348,89 F,0,55660,56258,0.75,0 S,0,55660,56258,1,0.75 C,0,55660,56258,129,185,222
Sprite,Foreground,Centre,"SB\effects\highlight.png",351,153 F,0,55809,56407,0.75,0 S,0,55809,56407,1,0.75 C,0,55809,56407,129,185,222
Sprite,Foreground,Centre,"SB\effects\highlight.png",434,187 F,0,55958,56556,0.75,0 S,0,55958,56556,1,0.75 C,0,55958,56556,129,185,222
Sprite,Foreground,Centre,"SB\effects\highlight.png",391,234 F,0,56107,56705,0.75,0 S,0,56107,56705,1,0.75 C,0,56107,56705,129,185,222
Sprite,Foreground,Centre,"SB\effects\highlight.png",286,224 F,0,56258,56855,0.75,0 S,0,56258,56855,1,0.75 C,0,56258,56855,241,61,65
Sprite,Foreground,Centre,"SB\effects\highlight.png",290,286 F,0,56406,57004,0.75,0 S,0,56406,57004,1,0.75 C,0,56406,57004,241,61,65
Sprite,Foreground,Centre,"SB\effects\highlight.png",231,341 F,0,56555,57153,0.75,0 S,0,56555,57153,1,0.75 C,0,56555,57153,241,61,65
Sprite,Foreground,Centre,"SB\effects\highlight.png",286,374 F,0,56704,57302,0.75,0 S,0,56704,57302,1,0.75 C,0,56704,57302,241,61,65
Sprite,Foreground,Centre,"SB\effects\highlight.png",317,379 F,0,56778,57376,0.75,0 S,0,56778,57376,1,0.75 C,0,56778,57376,241,61,65
Sprite,Foreground,Centre,"SB\effects\highlight.png",376,375 F,0,56853,57451,0.75,0 S,0,56853,57451,1,0.75 C,0,56853,57451,241,61,65
Sprite,Foreground,Centre,"SB\effects\highlight.png",430,396 F,0,57002,57600,0.75,0 S,0,57002,57600,1,0.75 C,0,57002,57600,241,61,65
Sprite,Foreground,Centre,"SB\effects\highlight.png",516,426 F,0,57152,57750,0.75,0 S,0,57152,57750,1,0.75 C,0,57152,57750,241,61,65
Sprite,Foreground,Centre,"SB\effects\highlight.png",537,337 F,0,57301,57899,0.75,0 S,0,57301,57899,1,0.75 C,0,57301,57899,241,61,65
Sprite,Foreground,Centre,"SB\effects\highlight.png",538,245 F,0,57451,58049,0.75,0 S,0,57451,58049,1,2.75 C,0,57451,58049,248,220,155
Sprite,Foreground,Centre,"SB\effects\highlight.png",534,180 F,0,57600,58198,0.75,0 S,0,57600,58198,1,0.75 C,0,57600,58198,248,220,155
Sprite,Foreground,Centre,"SB\effects\highlight.png",363,101 F,0,57899,58497,0.75,0 S,0,57899,58497,1,0.75 C,0,57899,58497,248,220,155
Sprite,Foreground,Centre,"SB\effects\highlight.png",367,105 F,0,58048,58646,0.75,0 S,0,58048,58646,1,0.75 C,0,58048,58646,248,220,155
Sprite,Foreground,Centre,"SB\effects\highlight.png",370,170 F,0,58197,58795,0.75,0 S,0,58197,58795,1,0.75 C,0,58197,58795,248,220,155
Sprite,Foreground,Centre,"SB\effects\highlight.png",201,238 F,0,58496,59094,0.75,0 S,0,58496,59094,1,2.75 C,0,58496,59094,248,220,155
Sprite,Foreground,Centre,"SB\effects\highlight.png",189,120 F,0,58794,59392,0.75,0 S,0,58794,59392,1,0.75 C,0,58794,59392,248,220,155
Sprite,Foreground,Centre,"SB\effects\highlight.png",263,172 F,0,58943,59541,0.75,0 S,0,58943,59541,1,0.75 C,0,58943,59541,248,220,155
Sprite,Foreground,Centre,"SB\effects\highlight.png",201,343 F,0,59242,59840,0.75,0 S,0,59242,59840,1,0.75 C,0,59242,59840,129,185,222
Sprite,Foreground,Centre,"SB\effects\highlight.png",225,352 F,0,59540,60138,0.75,0 S,0,59540,60138,1,0.75 C,0,59540,60138,129,185,222
Sprite,Foreground,Centre,"SB\effects\highlight.png",252,359 F,0,59839,60437,0.75,0 S,0,59839,60437,1,2.75 C,0,59839,60437,241,61,65
Sprite,Foreground,Centre,"SB\effects\highlight.png",359,130 F,0,63719,64316,0.75,0 S,0,63719,64316,1,0.75 C,0,63719,64316,241,61,65
Sprite,Foreground,Centre,"SB\effects\highlight.png",289,126 F,0,63869,64466,0.75,0 S,0,63869,64466,1,0.75 C,0,63869,64466,241,61,65
Sprite,Foreground,Centre,"SB\effects\highlight.png",201,177 F,0,64018,64615,0.75,0 S,0,64018,64615,1,0.75 C,0,64018,64615,248,220,155
Sprite,Foreground,Centre,"SB\effects\highlight.png",192,201 F,0,64316,64913,0.75,0 S,0,64316,64913,1,0.75 C,0,64316,64913,248,220,155
Sprite,Foreground,Centre,"SB\effects\highlight.png",184,225 F,0,64615,65213,0.75,0 S,0,64615,65213,1,2.75 C,0,64615,65213,129,185,222
Sprite,Foreground,Centre,"SB\effects\highlight.png",541,180 F,1,67301,67898,0.75,0 S,0,67301,67898,1.2,0.75 C,0,67301,67898,248,220,155
Sprite,Foreground,Centre,"SB\effects\highlight.png",541,251 F,1,67451,68048,0.75,0 S,0,67451,68048,1.2,0.75 C,0,67451,68048,248,220,155
Sprite,Foreground,Centre,"SB\effects\highlight.png",512,347 F,1,67600,68197,0.75,0 S,0,67600,68197,1.2,0.75 C,0,67600,68197,248,220,155
Sprite,Foreground,Centre,"SB\effects\highlight.png",446,372 F,1,67749,68346,0.75,0 S,0,67749,68346,1.2,0.75 C,0,67749,68346,248,220,155
Sprite,Foreground,Centre,"SB\effects\highlight.png",512,347 F,1,67899,68496,0.75,0 S,0,67899,68496,1,0.75 C,0,67899,68496,248,220,155
Sprite,Foreground,Centre,"SB\effects\highlight.png",541,250 F,1,68048,68645,0.75,0 S,0,68048,68645,1,0.75 C,0,68048,68645,248,220,155
Sprite,Foreground,Centre,"SB\effects\highlight.png",474,149 F,0,68197,68794,0.75,0 S,0,68197,68794,1,0.75 C,0,68197,68794,129,185,222
Sprite,Foreground,Centre,"SB\effects\highlight.png",411,117 F,0,68346,68943,0.75,0 S,0,68346,68943,1,0.75 C,0,68346,68943,129,185,222
Sprite,Foreground,Centre,"SB\effects\highlight.png",332,64 F,0,68496,69093,0.75,0 S,0,68496,69093,1,0.75 C,0,68496,69093,129,185,222
Sprite,Foreground,Centre,"SB\effects\highlight.png",339,125 F,0,68571,69168,0.75,0 S,0,68571,69168,1,0.75 C,0,68571,69168,129,185,222
Sprite,Foreground,Centre,"SB\effects\highlight.png",316,222 F,0,68645,69242,0.75,0 S,0,68645,69242,1,0.75 C,0,68645,69242,129,185,222
Sprite,Foreground,Centre,"SB\effects\highlight.png",316,222 F,0,68794,69391,0.75,0 S,0,68794,69391,1,0.75 C,0,68794,69391,129,185,222
Sprite,Foreground,Centre,"SB\effects\highlight.png",289,232 F,0,69093,69689,0.75,0 S,0,69093,69689,1,0.75 C,0,69093,69689,129,185,222
Sprite,Foreground,Centre,"SB\effects\highlight.png",260,241 F,0,69391,69988,0.75,0 S,0,69391,69988,1,2.75 C,0,69391,69988,241,61,65
Sprite,Foreground,Centre,"SB\effects\highlight.png",311,184 F,1,72824,73570,0.75,0 S,0,72824,73570,1.2,0.75 C,0,72824,73570,241,61,65
Sprite,Foreground,Centre,"SB\effects\highlight.png",278,415 F,1,73272,73869,0.75,0 S,0,73272,73869,1.2,1 C,0,73272,73869,241,61,65
Sprite,Foreground,Centre,"SB\effects\highlight.png",448,418 F,1,73570,74167,0.75,0 S,0,73570,74167,1.2 C,0,73570,74167,241,61,65
Sprite,Foreground,Centre,"SB\effects\highlight.png",470,244 F,1,73869,74466,0.75,0 S,0,73869,74466,1.2,1.4 C,0,73869,74466,241,61,65
Sprite,Foreground,Centre,"SB\effects\highlight.png",528,95 F,0,74167,74764,0.75,0 S,0,74167,74764,1.2,1.6 C,0,74167,74764,248,220,155
Sprite,Foreground,Centre,"SB\effects\highlight.png",460,173 F,0,74764,75212,0.75,0 S,0,74764,75212,1,0.75 C,0,74764,75212,248,220,155
Sprite,Foreground,Centre,"SB\effects\highlight.png",265,381 F,0,75361,75958,0.75,0 S,0,75361,75958,1.2,0.75 C,0,75361,75958,129,185,222
Sprite,Foreground,Centre,"SB\effects\highlight.png",197,303 F,0,75958,76406,0.75,0 S,0,75958,76406,1,0.75 C,0,75958,76406,129,185,222
Sprite,Foreground,Centre,"SB\effects\highlight.png",384,222 F,0,76555,77451,0.75,0 S,0,76555,77451,1.2,0.75 C,0,76555,77451,241,61,65
Sprite,Foreground,Centre,"SB\effects\highlight.png",112,265 F,0,77600,78197,0.75,0 S,0,77600,78197,1.2,0.75 C,0,77600,78197,241,61,65
Sprite,Foreground,Centre,"SB\effects\highlight.png",152,87 F,0,78048,78645,0.75,0 S,0,78048,78645,1.2,0.75 C,0,78048,78645,248,220,155
Sprite,Foreground,Centre,"SB\effects\highlight.png",102,355 F,0,78496,78794,0.75,0 S,0,78496,78794,1,0.75 C,0,78496,78794,248,220,155
Sprite,Foreground,Centre,"SB\effects\highlight.png",196,295 F,0,78794,79391,0.75,0 S,0,78794,79391,1,0.75 C,0,78794,79391,248,220,155
Sprite,Foreground,Centre,"SB\effects\highlight.png",185,181 F,0,78943,79540,0.75,0 S,0,78943,79540,1.2,0.75 C,0,78943,79540,129,185,222
Sprite,Foreground,Centre,"SB\effects\highlight.png",423,176 F,0,83122,83719,0.75,0 S,0,83122,83719,1,0.75 C,0,83122,83719,129,185,222
Sprite,Foreground,Centre,"SB\effects\highlight.png",455,173 F,0,83197,83793,0.75,0 S,0,83197,83793,1,0.75 C,0,83197,83793,129,185,222
Sprite,Foreground,Centre,"SB\effects\highlight.png",423,176 F,0,83271,83868,0.75,0 S,0,83271,83868,1,0.75 C,0,83271,83868,129,185,222
Sprite,Foreground,Centre,"SB\effects\highlight.png",348,229 F,0,83421,84018,0.75,0 S,0,83421,84018,1,0.75 C,0,83421,84018,129,185,222
Sprite,Foreground,Centre,"SB\effects\highlight.png",316,225 F,0,83496,84092,0.75,0 S,0,83496,84092,1,0.75 C,0,83496,84092,129,185,222
Sprite,Foreground,Centre,"SB\effects\highlight.png",348,229 F,0,83570,84167,0.75,0 S,0,83570,84167,1,0.75 C,0,83570,84167,129,185,222
Sprite,Foreground,Centre,"SB\effects\highlight.png",443,269 F,0,83719,84316,0.75,0 S,0,83719,84316,1.2,0.75 C,0,83719,84316,241,61,65
Sprite,Foreground,Centre,"SB\effects\highlight.png",406,174 F,0,14466,15064,1,0 S,0,14466,15064,1.2,0.75 C,0,14466,15064,241,61,65
Sprite,Foreground,Centre,"SB\effects\highlight.png",453,381 F,0,27973,28571,0.75,0 S,0,27973,28571,1,0.75 C,0,27973,28571,129,185,222
Sprite,Foreground,Centre,"SB\effects\ring.png",320,240 M,0,88346,,388,126 F,2,88346,89391,1,0 S,1,88346,89391,0,1 C,0,88346,89391,241,61,65
//Storyboard Sound Samples

[TimingPoints]
7302,298.507462686567,4,2,11,60,1,0
7451,-100,4,2,11,60,0,0
7749,-100,4,2,11,80,0,0
7899,-100,4,2,11,80,0,0
8048,-100,4,2,11,80,0,0
8346,-100,4,2,11,70,0,0
8645,-100,4,2,11,70,0,0
8794,-100,4,2,11,70,0,0
9690,-100,4,2,12,80,0,1
9764,-100,4,2,12,70,0,0
13272,-100,4,2,12,75,0,0
13570,-100,4,2,12,55,0,0
13869,-100,4,2,12,45,0,0
14018,-100,4,2,12,55,0,0
14167,-100,4,2,12,65,0,0
14242,-100,4,2,12,70,0,0
14316,-100,4,2,12,75,0,0
14466,-125,4,2,11,70,0,1
15063,-125,4,2,11,60,0,0
15660,-125,4,2,11,70,0,1
16257,-125,4,2,11,60,0,0
16854,-125,4,2,11,70,0,1
17899,-100,4,2,11,60,0,0
18346,-100,4,2,11,70,0,0
18421,-100,4,2,11,5,0,0
18794,-100,4,2,11,80,0,0
19093,-100,4,2,11,60,0,0
19242,-100,4,2,12,80,0,0
19316,-100,4,2,12,70,0,0
27899,-100,4,2,12,75,0,0
27973,-100,4,2,12,70,0,0
28048,-100,4,2,12,65,0,0
28197,-100,4,2,12,55,0,0
28346,-100,4,2,12,50,0,0
28496,-100,4,2,12,55,0,0
28645,-100,4,2,12,65,0,0
28794,-100,4,2,12,80,0,0
29093,-125,4,2,11,40,0,0
30436,-125,4,2,11,45,0,0
30884,-125,4,2,11,50,0,0
31182,-125,4,2,11,40,0,0
32675,-125,4,2,11,45,0,0
33122,-125,4,2,11,50,0,0
33570,-125,4,2,11,40,0,0
34466,-125,4,2,11,45,0,0
35063,-125,4,2,11,50,0,0
35660,-125,4,2,11,40,0,0
36555,-125,4,2,11,45,0,0
36854,-111.111111111111,4,2,11,45,0,0
37152,-111.111111111111,4,2,11,50,0,0
37301,-100,4,2,11,50,0,0
37600,-100,4,2,11,55,0,0
38048,-100,4,2,13,60,0,0
38346,-100,4,2,12,70,0,0
38421,-100,4,2,12,60,0,0
42525,-100,4,2,12,30,0,0
42675,-100,4,2,12,40,0,0
42973,-100,4,2,12,60,0,0
43122,-100,4,2,12,70,0,0
43197,-100,4,2,12,60,0,0
45510,-100,4,2,12,40,0,0
45660,-100,4,2,12,44,0,0
45809,-100,4,2,12,48,0,0
45958,-100,4,2,12,54,0,0
46033,-100,4,2,12,56,0,0
46107,-100,4,2,12,58,0,0
46406,-100,4,2,12,66,0,0
46555,-100,4,2,12,70,0,0
46704,-90.9090909090909,4,2,12,75,0,0
47102,-90.9090909090909,4,2,12,80,0,0
47899,-111.111111111111,4,2,12,70,0,0
47973,-111.111111111111,4,2,12,60,0,0
52078,-111.111111111111,4,2,12,70,0,0
52152,-111.111111111111,4,2,12,65,0,0
52227,-111.111111111111,4,2,12,60,0,0
52301,-111.111111111111,4,2,12,55,0,0
52376,-111.111111111111,4,2,12,50,0,0
52451,-111.111111111111,4,2,12,45,0,0
52525,-111.111111111111,4,2,12,40,0,0
52600,-111.111111111111,4,2,12,35,0,0
52675,-111.111111111111,4,2,12,70,0,0
52749,-111.111111111111,4,2,12,60,0,0
53272,-99.9999999999999,4,2,12,60,0,0
53869,-111.111111111111,4,2,12,60,0,0
55063,-100,4,2,12,65,0,0
55361,-100,4,2,12,70,0,0
55660,-100,4,2,12,75,0,0
55958,-100,4,2,12,80,0,0
56257,-100,4,2,12,60,0,0
56406,-100,4,2,12,64,0,0
56555,-100,4,2,12,68,0,0
56704,-100,4,2,12,72,0,0
56854,-100,4,2,12,76,0,0
57003,-100,4,2,12,80,0,0
57152,-100,4,2,12,84,0,0
57301,-100,4,2,12,88,0,0
57451,-100,4,2,12,95,0,0
59242,-100,4,2,11,40,0,0
59540,-100,4,2,11,60,0,0
59839,-90.9090909090909,4,2,12,90,0,1
59913,-90.9090909090909,4,2,12,80,0,0
64018,-90.9090909090909,4,2,12,70,0,0
64316,-90.9090909090909,4,2,12,78,0,0
64615,-90.9090909090909,4,2,12,90,0,0
64690,-90.9090909090909,4,2,12,80,0,0
67301,-90.9090909090909,4,2,11,90,0,0
67600,-90.9090909090909,4,2,11,80,0,0
67899,-90.9090909090909,4,2,11,70,0,0
68197,-90.9090909090909,4,2,12,68,0,0
68346,-90.9090909090909,4,2,12,64,0,0
68496,-90.9090909090909,4,2,12,60,0,0
68645,-90.9090909090909,4,2,12,56,0,0
68794,-90.9090909090909,4,2,12,56,0,0
69093,-90.9090909090909,4,2,12,68,0,0
69391,-90.9090909090909,4,2,12,90,0,1
69466,-90.9090909090909,4,2,12,80,0,0
72973,-90.9090909090909,4,2,12,60,0,0
73272,-90.9090909090909,4,2,12,70,0,0
73570,-90.9090909090909,4,2,12,80,0,0
73869,-90.9090909090909,4,2,12,90,0,0
74167,-125,4,2,11,70,0,1
74764,-125,4,2,11,60,0,0
75361,-125,4,2,11,70,0,1
75958,-125,4,2,11,60,0,0
76555,-125,4,2,11,70,0,1
77600,-100,4,2,11,60,0,0
78047,-100,4,2,11,70,0,0
78495,-100,4,2,11,80,0,0
78794,-100,4,2,11,60,0,0
78943,-100,4,2,12,80,0,0
79018,-100,4,2,12,70,0,0
83122,-100,4,2,12,54,0,0
83197,-100,4,2,12,56,0,0
83272,-100,4,2,12,58,0,0
83421,-100,4,2,12,62,0,0
83496,-100,4,2,12,64,0,0
83570,-100,4,2,12,66,0,0
83719,-100,4,2,12,70,0,0

[Colours]
Combo1 : 241,61,65
Combo2 : 248,220,155
Combo3 : 129,185,222

[HitObjects]
96,328,7301,6,0,P|144:324|192:328,1,65,2|2,0:1|0:1,0:0:0:0:
256,200,7749,1,8,0:1:0:0:
256,200,7899,2,0,P|223:199|191:203,1,65,8|8,0:1|0:1,0:0:0:0:
332,268,8346,2,0,P|357:204|340:144,1,130,2|8,0:1|0:1,0:0:0:0:
256,200,8794,1,8,0:1:0:0:
380,304,9690,6,0,P|408:256|412:232,1,65,6|0,0:0|0:0,0:0:0:0:
420,156,9988,1,8,0:0:0:0:
353,93,10137,2,0,P|288:89|223:90,1,130,2|2,0:0|0:0,0:0:0:0:
153,149,10585,2,0,P|150:115|146:83,1,65,8|0,0:0|0:0,0:0:0:0:
73,159,10884,6,0,P|101:211|169:229,1,130,2|8,0:0|0:0,0:0:0:0:
253,206,11331,1,2,0:0:0:0:
328,257,11481,2,0,L|336:321,1,65,0|2,0:0|0:0,0:0:0:0:
413,273,11779,2,0,L|405:209,1,65,8|0,0:0|0:0,0:0:0:0:
434,108,12078,6,0,B|361:89|377:136|288:109,1,130,2|8,0:0|0:0,0:0:0:0:
224,77,12525,2,0,B|232:130|232:130|220:228,1,130,2|2,0:0|0:0,0:0:0:0:
186,289,12973,2,0,P|230:296|257:291,1,65,8|2,0:0|0:0,0:0:0:0:
344,249,13272,6,0,B|352:196|352:196|340:98,2,130,8|0|0,0:3|0:0|1:0,0:0:0:0:
396,323,14018,1,0,1:0:0:0:
432,240,14167,2,0,P|430:205|427:173,1,65,0|0,1:0|1:0,0:0:0:0:
342,120,14466,6,0,P|275:155|202:111,1,156,6|2,0:1|0:1,0:0:0:0:
275,71,15063,1,8,0:1:0:0:
64,284,15660,6,0,P|131:249|204:293,1,156,2|2,0:1|0:1,0:0:0:0:
131,333,16257,1,8,0:1:0:0:
18,149,16854,6,0,B|102:97|188:153|188:153|285:226|373:154,1,364,2|2,0:1|0:1,0:0:0:0:
287,13,18346,5,2,0:1:0:0:
352,256,18794,2,0,P|399:245|445:180,1,130,2|2,0:1|0:0,0:0:0:0:
458,77,19242,6,0,B|406:57|406:57|322:49,1,130,6|8,0:0|0:0,0:0:0:0:
251,93,19690,1,2,0:0:0:0:
242,184,19839,2,0,P|241:227|236:273,1,65,0|2,0:0|0:0,0:0:0:0:
190,325,20137,2,0,P|147:324|101:319,1,65,8|0,0:0|0:0,0:0:0:0:
51,248,20436,6,0,P|51:183|43:109,1,130,2|8,0:0|0:0,0:0:0:0:
125,74,20884,2,0,B|172:64|172:64|266:78,1,130,2|2,0:0|0:0,0:0:0:0:
276,164,21331,1,8,0:0:0:0:
295,253,21481,1,0,0:0:0:0:
391,293,21630,6,0,P|422:261|430:176,1,130,2|8,0:0|0:0,0:0:0:0:
405,91,22078,1,2,0:0:0:0:
315,77,22227,2,0,P|264:78|224:73,1,65,0|2,0:0|0:0,0:0:0:0:
161,58,22525,2,0,L|179:137,1,65,8|0,0:0|0:0,0:0:0:0:
148,219,22824,6,0,B|133:263|148:315|148:315|113:298,1,130,2|8,0:0|0:0,0:0:0:0:
56,235,23272,2,0,P|60:198|61:100,1,130,2|2,0:0|0:0,0:0:0:0:
135,64,23719,2,0,P|178:58|200:53,1,65,8|0,0:0|0:0,0:0:0:0:
301,31,24018,6,0,P|300:128|286:173,1,130,6|8,0:0|0:0,0:0:0:0:
252,236,24466,1,2,0:0:0:0:
252,236,24540,1,0,0:0:0:0:
252,236,24615,2,0,P|321:230|387:238,1,130,0|8,0:0|0:0,0:0:0:0:
220,324,25212,6,0,P|163:286|162:202,1,130,2|8,0:0|0:0,0:0:0:0:
220,168,25660,1,2,0:0:0:0:
232,77,25809,1,0,0:0:0:0:
163,16,25958,2,0,P|121:13|92:22,1,65,2|8,0:0|0:0,0:0:0:0:
32,81,26257,1,0,0:0:0:0:
59,181,26406,6,0,P|70:230|68:321,1,130,2|8,0:0|0:0,0:0:0:0:
156,343,26854,1,2,0:0:0:0:
156,343,26928,1,0,0:0:0:0:
156,343,27003,2,0,P|224:346|246:344,1,65,0|2,0:0|0:0,0:0:0:0:
269,269,27301,2,0,P|236:265|204:265,1,65,8|0,0:0|0:0,0:0:0:0:
277,191,27600,6,0,P|317:209|340:240,1,65,2|2,0:0|0:0,0:0:0:0:
388,295,27899,2,0,L|389:337,2,32.5,8|8|4,0:3|0:3|0:3,0:0:0:0:
416,208,28197,2,0,P|404:177|382:153,1,65,2|2,0:0|0:0,0:0:0:0:
304,107,28496,2,0,L|219:107,1,65,0|0,1:0|1:0,0:0:0:0:
158,172,28794,5,4,1:0:0:0:
158,172,29093,2,0,P|153:120|155:64,1,104,2|0,0:0|0:0,0:0:0:0:
80,108,29540,2,0,P|81:159|76:211,1,104,2|0,0:0|0:0,0:0:0:0:
116,284,29988,2,0,P|165:267|216:284,1,104,8|0,3:2|3:0,0:0:0:0:
166,351,30436,2,0,P|165:287|166:243,1,104,8|0,3:2|3:0,0:0:0:0:
222,185,30884,2,0,L|221:126,1,52,8|0,3:2|0:0,0:0:0:0:
279,74,31182,6,0,P|299:110|292:179,2,104,2|8|0,0:0|0:0|0:0,0:0:0:0:
331,9,31928,1,0,3:0:0:0:
399,56,32078,2,0,P|407:89|409:124,1,52,8|0,3:2|0:0,0:0:0:0:
415,194,32376,1,0,0:0:0:0:
415,194,32675,6,0,P|366:192|293:195,1,104,8|0,3:2|0:0,0:0:0:0:
267,264,33122,2,0,P|267:211|264:141,1,104,8|0,0:0|0:0,0:0:0:0:
207,99,33570,2,0,B|137:106|95:79,2,104,2|8|0,0:0|0:0|3:0,0:0:0:0:
274,50,34316,1,0,3:0:0:0:
349,86,34466,2,0,P|355:133|355:153,1,52,8|0,3:2|0:0,0:0:0:0:
340,219,34764,5,0,0:0:0:0:
340,219,35063,2,0,P|340:280|347:333,1,104,8|0,3:2|0:0,0:0:0:0:
421,356,35510,1,0,3:0:0:0:
465,285,35660,2,0,L|466:217,1,52,8|0,3:2|3:0,0:0:0:0:
421,162,35958,6,0,P|379:130|324:120,1,104,2|8,0:0|3:2,0:0:0:0:
251,148,36406,2,0,P|200:137|159:105,1,104,0|0,3:0|3:0,0:0:0:0:
108,26,36854,2,0,P|115:91|111:163,1,116.999996429443,8|0,3:2|3:0,0:0:0:0:
79,240,37301,2,0,P|147:245|215:239,1,130,0|0,3:0|3:0,0:0:0:0:
260,168,37749,5,0,3:0:0:0:
433,172,38048,1,2,1:2:0:0:
320,268,38346,6,0,P|320:221|322:197,1,65,6|0,0:0|0:0,0:0:0:0:
360,120,38645,1,8,0:0:0:0:
423,55,38794,2,0,P|447:92|429:178,1,130,2|2,0:0|0:0,0:0:0:0:
397,256,39242,2,0,P|398:288|398:320,1,65,8|0,0:0|0:0,0:0:0:0:
297,294,39540,6,0,L|165:331,1,130,2|8,0:0|0:0,0:0:0:0:
81,342,39988,1,2,0:0:0:0:
111,256,40137,2,0,P|132:244|187:234,1,65,0|2,0:0|0:0,0:0:0:0:
262,223,40436,2,0,P|293:216|322:201,1,65,8|0,0:0|0:0,0:0:0:0:
268,112,40734,6,0,B|216:104|216:104|131:114,2,130,2|8|0,0:0|0:0|0:0,0:0:0:0:
359,115,41481,1,2,0:0:0:0:
444,145,41630,2,0,P|422:180|390:199,1,65,8|0,0:0|0:0,0:0:0:0:
363,289,41928,6,0,L|281:295,1,65,2|0,0:0|0:0,0:0:0:0:
207,281,42227,2,0,B|166:268|166:268|59:283,1,130,8|0,0:0|1:0,0:0:0:0:
76,188,42675,2,0,P|120:99|116:49,1,130,0|0,1:0|1:0,0:0:0:0:
223,52,43122,6,0,P|285:51|366:45,1,130,6|8,0:0|0:0,0:0:0:0:
436,84,43570,2,0,P|374:84|321:133,1,130,2|2,0:0|0:0,0:0:0:0:
411,183,44018,1,8,0:0:0:0:
411,183,44316,6,0,P|417:239|418:260,1,65,2|0,0:0|0:0,0:0:0:0:
329,273,44615,1,8,0:0:0:0:
248,231,44764,2,0,P|192:227|104:235,1,130,2|2,0:0|0:0,0:0:0:0:
48,292,45212,2,0,L|72:360,1,65,8|0,0:0|0:0,0:0:0:0:
168,320,45510,6,0,P|204:318|252:325,1,65,2|0,1:2|1:0,0:0:0:0:
316,357,45809,1,8,1:2:0:0:
410,334,45958,1,0,1:0:0:0:
410,334,46033,1,0,1:0:0:0:
410,334,46107,2,0,P|460:302|480:225,1,130,2|8,1:2|1:2,0:0:0:0:
387,240,46555,1,2,1:2:0:0:
333,164,46704,6,0,B|322:126|322:126|328:40,2,95.3333362426759,8|8|8,1:2|1:2|1:2,0:0:0:0:
29,347,47899,6,0,P|32:255|29:208,1,116.999996429443,6|8,0:0|0:0,0:0:0:0:
76,148,48346,1,0,0:0:0:0:
169,169,48496,2,0,P|206:172|249:165,1,58.4999982147217,2|0,0:0|0:0,0:0:0:0:
303,77,48794,2,0,P|273:74|244:77,1,58.4999982147217,8|0,0:0|0:0,0:0:0:0:
227,169,49093,6,0,L|253:291,1,116.999996429443,2|8,0:0|0:0,0:0:0:0:
325,332,49540,1,0,0:0:0:0:
372,264,49690,2,0,P|393:216|413:191,1,58.4999982147217,2|0,0:0|0:0,0:0:0:0:
444,303,49988,2,0,P|434:330|419:355,1,58.4999982147217,8|0,0:0|0:0,0:0:0:0:
325,332,50287,6,0,L|191:330,1,116.999996429443,2|8,0:0|0:0,0:0:0:0:
133,284,50734,1,0,0:0:0:0:
163,201,50884,2,0,P|178:157|178:128,1,58.4999982147217,2|0,0:0|0:0,0:0:0:0:
79,93,51182,2,0,P|83:121|94:148,1,58.4999982147217,8|0,0:0|0:0,0:0:0:0:
236,227,51481,6,0,P|254:172|251:109,1,116.999996429443,2|8,0:0|0:0,0:0:0:0:
215,32,51928,1,0,0:0:0:0:
302,45,52078,2,0,L|326:73,3,29.2499991073609,8|8|8|8,0:3|0:3|0:3|0:3,0:0:0:0:
336,108,52376,2,0,L|364:145,3,29.2499991073609,4|4|4|4,0:3|0:3|0:3|0:3,0:0:0:0:
371,172,52675,6,0,P|357:236|380:280,1,116.999996429443,6|8,0:0|0:0,0:0:0:0:
445,221,53122,1,0,0:0:0:0:
443,132,53272,2,0,P|475:121|513:115,1,65,2|0,0:0|0:0,0:0:0:0:
385,63,53570,2,0,P|354:52|322:46,1,65,8|0,0:0|0:0,0:0:0:0:
229,27,53869,6,0,P|233:80|238:167,1,116.999996429443,2|8,0:0|0:0,0:0:0:0:
199,222,54316,1,0,0:0:0:0:
116,217,54466,2,0,P|105:184|97:136,1,58.4999982147217,2|0,0:0|0:0,0:0:0:0:
69,85,54764,1,8,0:0:0:0:
69,85,55063,6,0,B|140:86|224:69,1,130,14|10,0:0|0:0,0:0:0:0:
284,35,55510,1,2,0:0:0:0:
284,35,55585,1,0,0:0:0:0:
284,35,55660,2,0,P|290:80|282:115,1,65,10|2,0:0|0:0,0:0:0:0:
370,133,55958,2,0,P|342:169|312:188,1,65,10|2,0:0|0:0,0:0:0:0:
222,170,56257,6,0,P|224:202|236:232,1,65,8|4,1:3|1:3,0:0:0:0:
167,287,56555,2,0,P|191:307|221:320,1,65,8|4,1:3|1:3,0:0:0:0:
312,308,56854,2,0,P|341:320|366:341,1,65,8|0,1:3|0:0,0:0:0:0:
448,384,57152,1,8,1:3:0:0:
472,296,57301,1,4,1:3:0:0:
474,191,57451,6,0,L|469:109,1,65,6|2,0:0|0:0,0:0:0:0:
303,51,57899,1,2,0:0:0:0:
303,51,58048,2,0,L|308:146,1,65,2|2,0:0|0:0,0:0:0:0:
137,184,58496,2,0,P|109:134|126:65,1,130,4|0,1:0|1:0,0:0:0:0:
199,118,58943,1,0,1:0:0:0:
137,289,59242,5,8,0:0:0:0:
161,298,59540,1,8,0:0:0:0:
188,305,59839,6,0,P|227:311|263:311,1,71.5000021820069,6|0,0:0|0:0,0:0:0:0:
349,268,60137,1,8,0:0:0:0:
387,175,60287,2,0,P|379:106|385:28,1,143.000004364014,2|2,0:0|0:0,0:0:0:0:
477,68,60734,2,0,L|478:143,1,71.5000021820069,8|0,0:0|0:0,0:0:0:0:
478,254,61033,6,0,P|424:286|336:256,1,143.000004364014,2|8,0:0|0:0,0:0:0:0:
259,224,61481,1,2,0:0:0:0:
172,188,61630,2,0,P|177:136|176:104,1,71.5000021820069,0|2,0:0|0:0,0:0:0:0:
86,167,61928,2,0,P|86:202|90:238,1,71.5000021820069,8|0,0:0|0:0,0:0:0:0:
1,164,62227,6,0,P|19:113|99:82,1,143.000004364014,2|8,0:0|0:0,0:0:0:0:
171,148,62675,2,0,L|252:148,1,71.5000021820069,2|0,0:0|0:0,0:0:0:0:
335,183,62973,1,2,0:0:0:0:
424,226,63122,2,0,P|435:177|430:149,1,71.5000021820069,8|0,0:0|0:0,0:0:0:0:
461,45,63421,6,0,P|425:42|391:49,1,71.5000021820069,2|8,0:0|0:0,0:0:0:0:
295,76,63719,2,0,P|259:79|224:72,1,71.5000021820069,8|8,0:0|0:0,0:0:0:0:
137,123,64018,5,4,0:3:0:0:
128,147,64316,1,8,0:3:0:0:
120,171,64615,6,0,P|188:154|258:173,1,143.000004364014,6|8,0:0|0:0,0:0:0:0:
290,262,65063,1,2,0:0:0:0:
237,341,65212,2,0,P|202:346|166:342,1,71.5000021820069,0|2,0:0|0:0,0:0:0:0:
74,381,65510,2,0,P|79:345|75:310,1,71.5000021820069,8|0,0:0|0:0,0:0:0:0:
25,206,65809,6,0,P|21:131|57:65,2,143.000004364014,2|8|0,0:0|0:0|0:0,0:0:0:0:
126,200,66555,1,2,0:0:0:0:
221,169,66704,2,0,P|270:163|313:161,1,71.5000021820069,8|0,0:0|0:0,0:0:0:0:
383,231,67003,6,0,P|379:185|387:148,1,71.5000021820069,2|0,0:0|0:0,0:0:0:0:
477,126,67301,2,0,P|481:161|477:196,1,71.5000021820069,8|2,0:1|0:1,0:0:0:0:
448,293,67600,2,0,P|416:309|381:318,2,71.5000021820069,8|2|8,0:1|0:1|0:1,0:0:0:0:
477,196,68048,1,2,0:1:0:0:
410,95,68197,6,0,P|373:80|329:46,1,71.5000021820069,0|0,1:0|1:0,0:0:0:0:
268,0,68496,2,0,P|275:62|275:87,1,71.5000021820069,0|0,1:0|1:0,0:0:0:0:
252,168,68794,1,8,1:3:0:0:
225,178,69093,1,4,1:3:0:0:
200,191,69391,6,0,P|165:199|106:204,1,71.5000021820069,6|0,0:0|0:0,0:0:0:0:
45,160,69690,1,8,0:0:0:0:
129,203,69839,2,0,P|151:278|116:339,1,143.000004364014,2|2,0:0|0:0,0:0:0:0:
219,363,70287,2,0,L|298:364,1,71.5000021820069,8|0,0:0|0:0,0:0:0:0:
392,310,70585,6,0,P|396:261|396:221,1,71.5000021820069,2|0,0:0|0:0,0:0:0:0:
302,202,70884,2,0,P|303:237|306:273,1,71.5000021820069,8|2,0:0|0:0,0:0:0:0:
374,150,71182,2,0,P|339:121|245:133,1,143.000004364014,0|8,0:0|0:0,0:0:0:0:
157,177,71630,1,0,0:0:0:0:
45,152,71779,6,0,P|32:100|43:53,1,71.5000021820069,2|0,0:0|0:0,0:0:0:0:
132,102,72078,1,8,0:0:0:0:
199,27,72227,2,0,P|252:19|298:19,1,71.5000021820069,2|0,0:0|0:0,0:0:0:0:
368,34,72525,2,0,P|358:82|363:126,1,71.5000021820069,2|8,1:2|1:2,0:0:0:0:
247,130,72824,6,0,P|260:178|255:286,1,143.000004364014,0|0,1:0|0:0,0:0:0:0:
214,361,73272,2,0,P|267:354|315:356,1,71.5000021820069,8|0,0:0|0:0,0:0:0:0:
384,364,73570,1,10,0:0:0:0:
444,284,73719,1,0,0:0:0:0:
406,190,73869,2,0,P|396:141|398:103,1,71.5000021820069,10|0,0:0|0:0,0:0:0:0:
464,41,74167,6,0,P|400:17|314:56,1,156,6|2,0:1|0:1,0:0:0:0:
396,119,74764,1,8,0:1:0:0:
201,327,75361,6,0,P|137:351|51:312,1,156,2|2,0:1|0:1,0:0:0:0:
133,249,75958,1,8,0:1:0:0:
320,168,76555,6,0,B|250:118|199:152|199:152|174:132|137:131|137:131|105:153|50:136|50:136|62:175|54:206|39:226,1,364,2|2,0:1|0:1,0:0:0:0:
88,33,78048,5,2,0:1:0:0:
38,301,78496,2,0,P|93:290|132:208,1,130,2|2,0:1|0:0,0:0:0:0:
121,127,78943,6,0,L|267:128,1,130,6|8,0:0|0:0,0:0:0:0:
343,118,79391,1,2,0:0:0:0:
349,208,79540,2,0,P|351:259|347:288,1,65,0|2,0:0|0:0,0:0:0:0:
426,325,79839,2,0,P|423:292|426:260,1,65,8|0,0:0|0:0,0:0:0:0:
454,160,80137,6,0,P|417:123|343:117,1,130,2|8,0:0|0:0,0:0:0:0:
255,144,80585,2,0,P|199:151|112:139,1,130,2|2,0:0|0:0,0:0:0:0:
111,233,81033,2,0,P|170:229|204:232,1,65,8|0,0:0|0:0,0:0:0:0:
273,268,81331,6,0,P|279:213|250:137,1,130,2|8,0:0|0:0,0:0:0:0:
180,101,81779,1,2,0:0:0:0:
100,57,81928,2,0,P|90:95|92:124,1,65,0|2,0:0|0:0,0:0:0:0:
23,181,82227,2,0,P|23:148|14:117,1,65,8|0,0:0|0:0,0:0:0:0:
100,57,82525,6,0,P|168:64|242:55,1,130,2|8,0:0|0:0,0:0:0:0:
319,41,82973,1,2,0:0:0:0:
359,122,83122,2,0,L|408:117,2,32.5,0|0|0,1:0|1:0|1:0,0:0:0:0:
284,175,83421,2,0,L|251:171,2,32.5,0|0|0,1:0|1:0|1:0,0:0:0:0:
379,215,83719,5,6,0:0:0:0:
379,306,83869,1,0,0:0:0:0:
451,251,84018,2,0,P|456:193|448:173,1,65,8|2,0:0|0:0,0:0:0:0:
391,118,84316,2,0,L|257:95,1,130,0|8,0:0|0:0,0:0:0:0:
178,60,84764,1,0,0:0:0:0:
155,161,84913,6,0,P|156:201|149:249,1,65,2|0,0:0|0:0,0:0:0:0:
115,308,85212,1,8,0:0:0:0:
192,354,85361,1,2,0:0:0:0:
279,351,85510,2,0,P|326:336|350:312,1,65,0|2,0:0|0:0,0:0:0:0:
405,265,85809,1,8,0:0:0:0:
449,185,85958,1,0,0:0:0:0:
393,96,86107,6,0,P|335:111|260:96,1,130,2|8,0:0|0:0,0:0:0:0:
220,20,86555,2,0,L|231:170,1,130,2|2,0:0|0:0,0:0:0:0:
155,207,87003,1,8,0:0:0:0:
112,126,87152,1,0,0:0:0:0:
50,209,87301,6,0,L|56:255,2,32.5,2|0|0,0:0|0:0|0:0,0:0:0:0:
11,126,87600,1,2,0:0:0:0:
51,44,87749,1,2,0:0:0:0:
141,59,87899,2,0,P|202:59|220:53,1,65,2|8,0:0|0:3,0:0:0:0:
230,52,88122,1,8,0:3:0:0:
254,43,88197,1,4,0:3:0:0:
338,77,88346,1,4,0:3:0:0:
