osu file format v14

[General]
AudioFilename: qwq.mp3
AudioLeadIn: 0
PreviewTime: 59167
Countdown: 0
SampleSet: Soft
StackLeniency: 0.5
Mode: 0
LetterboxInBreaks: 0
EpilepsyWarning: 1
WidescreenStoryboard: 1

[Editor]
DistanceSpacing: 1.5
BeatDivisor: 4
GridSize: 4
TimelineZoom: 1.9

[Metadata]
Title:Paradisus-Paradoxum
TitleUnicode:Paradisus-Paradoxum
Artist:MYTH & ROID
ArtistUnicode:MYTH & ROID
Creator:wajinshu
Version:FCL'S EXTRA
Source:Re:ゼロから始める異世界生活
Tags:second opening re: zero kara hajimeru isekai seikatsu life in a different world from kalibe fcl tv size taeyang shmiklak slayed yoshikawa hoshi marvollo m_a_r_v_o_l_l_o
BeatmapID:1092361
BeatmapSetID:514181

[Difficulty]
HPDrainRate:6.3
CircleSize:4
OverallDifficulty:8.3
ApproachRate:9.3
SliderMultiplier:1.6
SliderTickRate:1

[Events]
//Background and Video events
0,0,"thanks.jpg",0,0
//Break Periods
//Storyboard Layer 0 (Background)
//Storyboard Layer 1 (Fail)
//Storyboard Layer 2 (Pass)
//Storyboard Layer 3 (Foreground)
Sprite,Foreground,Centre,"SB\effects\highlight.png",206,170 F,0,9093,9691,0.75,0 S,0,9093,9691,1,0.75 C,0,9093,9691,255,43,43
Sprite,Foreground,Centre,"SB\effects\highlight.png",225,165 F,0,9391,9989,0.75,0 S,0,9391,9989,1,0.75 C,0,9391,9989,209,150,78
Sprite,Foreground,Centre,"SB\effects\highlight.png",242,160 F,0,9690,10288,0.75,0 S,0,9690,10288,1,0.75 C,0,9690,10288,128,64,64
Sprite,Foreground,Centre,"SB\effects\highlight.png",231,280 F,0,13272,13870,0.75,0 S,0,13272,13870,1,0.75 C,0,13272,13870,128,64,64
Sprite,Foreground,Centre,"SB\effects\highlight.png",211,282 F,0,13346,13944,0.75,0 S,0,13346,13944,1,0.75 C,0,13346,13944,128,64,64
Sprite,Foreground,Centre,"SB\effects\highlight.png",207,254 F,0,13420,14018,0.75,0 S,0,13420,14018,1,0.75 C,0,13420,14018,128,64,64
Sprite,Foreground,Centre,"SB\effects\highlight.png",213,245 F,0,13495,14093,0.75,0 S,0,13495,14093,1,0.75 C,0,13495,14093,128,64,64
Sprite,Foreground,Centre,"SB\effects\highlight.png",233,221 F,0,13569,14167,0.75,0 S,0,13569,14167,1,0.75 C,0,13569,14167,128,64,64
Sprite,Foreground,Centre,"SB\effects\highlight.png",405,220 F,0,13719,14317,0.75,0 S,0,13719,14317,1,0.75 C,0,13719,14317,255,43,43
Sprite,Foreground,Centre,"SB\effects\highlight.png",385,249 F,0,13794,14392,0.75,0 S,0,13794,14392,1,0.75 C,0,13794,14392,255,43,43
Sprite,Foreground,Centre,"SB\effects\highlight.png",356,267 F,0,13869,14467,0.75,0 S,0,13869,14467,1,0.75 C,0,13869,14467,255,43,43
Sprite,Foreground,Centre,"SB\effects\highlight.png",321,273 F,0,13943,14541,0.75,0 S,0,13943,14541,1,0.75 C,0,13943,14541,255,43,43
Sprite,Foreground,Centre,"SB\effects\highlight.png",288,264 F,0,14018,14616,0.75,0 S,0,14018,14616,1,0.75 C,0,14018,14616,255,43,43
Sprite,Foreground,Centre,"SB\effects\highlight.png",182,128 F,0,14167,14765,0.75,0 S,0,14167,14765,1,0.75 C,0,14167,14765,209,150,78
Sprite,Foreground,Centre,"SB\effects\highlight.png",224,116 F,0,14242,14840,0.75,0 S,0,14242,14840,1,0.75 C,0,14242,14840,209,150,78
Sprite,Foreground,Centre,"SB\effects\highlight.png",268,124 F,0,14316,14914,0.75,0 S,0,14316,14914,1,0.75 C,0,14316,14914,209,150,78
Sprite,Foreground,Centre,"SB\effects\highlight.png",302,150 F,0,14391,14989,0.75,0 S,0,14391,14989,1,0.75 C,0,14391,14989,128,64,64
Sprite,Foreground,Centre,"SB\effects\highlight.png",326,193 F,0,14466,15064,1,0 S,0,14466,15064,1.2,0.75 C,0,14466,15064,128,64,64
Sprite,Foreground,Centre,"SB\effects\highlight.png",320,240 M,0,15063,15510,423,306 F,0,15063,15510,1,0 S,0,15063,15510,1.2,0.75 C,0,15063,15510,128,64,64
Sprite,Foreground,Centre,"SB\effects\highlight.png",320,240 M,0,15660,16257,425,306 F,0,15660,16257,1,0 S,0,15660,16257,1.2,0.75 C,0,15660,16257,255,43,43
Sprite,Foreground,Centre,"SB\effects\highlight.png",320,240 M,0,16257,16704,398,391 F,0,16257,16704,1,0 S,0,16257,16704,1.2,0.75 C,0,16257,16704,255,43,43
Sprite,Foreground,Centre,"SB\effects\highlight.png",320,240 M,0,17899,18497,242,238 F,0,17899,18497,0.75,0 S,0,17899,18497,1.2,0.75 C,0,17899,18497,209,150,78
Sprite,Foreground,Centre,"SB\effects\highlight.png",320,240 M,0,18346,18944,257,230 F,0,18346,18944,0.75,0 S,0,18346,18944,1.2,0.75 C,0,18346,18944,128,64,64
Sprite,Foreground,Centre,"SB\effects\highlight.png",320,240 M,0,18794,19392,275,199 F,0,18794,19392,0.75,0 S,0,18794,19392,1.2,0.75 C,0,18794,19392,255,43,43
Sprite,Foreground,Centre,"SB\effects\highlight.png",320,240 M,0,19092,19690,415,134 F,0,19092,19690,0.75,0 S,0,19092,19690,1.2,0.75 C,0,19092,19690,255,43,43
Sprite,Foreground,Centre,"SB\effects\highlight.png",320,240 M,0,19166,19764,379,235 F,0,19166,19764,0.75,0 S,0,19166,19764,1.2,0.75 C,0,19166,19764,255,43,43
Sprite,Foreground,Centre,"SB\effects\highlight.png",379,135 F,0,19242,19840,0.75,0 S,0,19242,19840,1.2,0.75 C,0,19242,19840,209,150,78
Sprite,Foreground,Centre,"SB\effects\highlight.png",250,368 F,0,27600,28198,0.75,0 S,0,27600,28198,1,0.75 C,0,27600,28198,255,43,43
Sprite,Foreground,Centre,"SB\effects\highlight.png",474,438 F,0,27749,28347,0.75,0 S,0,27749,28347,1,0.75 C,0,27749,28347,255,43,43
Sprite,Foreground,Centre,"SB\effects\highlight.png",479,304 F,0,27899,28497,0.75,0 S,0,27899,28497,1,0.75 C,0,27899,28497,255,43,43
Sprite,Foreground,Centre,"SB\effects\highlight.png",479,267 F,0,27973,28571,0.75,0 S,0,27973,28571,1,0.75 C,0,27973,28571,255,43,43
Sprite,Foreground,Centre,"SB\effects\highlight.png",479,230 F,0,28048,28646,0.75,0 S,0,28048,28646,1,0.75 C,0,28048,28646,255,43,43
Sprite,Foreground,Centre,"SB\effects\highlight.png",479,193 F,0,28122,28720,0.75,0 S,0,28122,28720,1,0.75 C,0,28122,28720,255,43,43
Sprite,Foreground,Centre,"SB\effects\highlight.png",479,156 F,0,28197,28795,0.75,0 S,0,28197,28795,1,0.75 C,0,28197,28795,255,43,43
Sprite,Foreground,Centre,"SB\effects\highlight.png",322,118 F,0,28346,28944,0.75,0 S,0,28346,28944,1,0.75 C,0,28346,28944,209,150,78
Sprite,Foreground,Centre,"SB\effects\highlight.png",299,147 F,0,28496,29094,0.75,0 S,0,28496,29094,1,0.75 C,0,28496,29094,209,150,78
Sprite,Foreground,Centre,"SB\effects\highlight.png",246,83 F,0,28645,29243,0.75,0 S,0,28645,29243,1,0.75 C,0,28645,29243,209,150,78
Sprite,Foreground,Centre,"SB\effects\highlight.png",311,82 F,0,28794,29392,1,0 S,0,28794,29392,1.2,0.75 C,0,28794,29392,128,64,64
Sprite,Foreground,Centre,"SB\effects\highlight.png",241,191 F,0,37152,37451,0.75,1 S,0,37152,37749,1 C,0,37152,37749,128,64,64 F,0,37451,37749,1,0
Sprite,Foreground,Centre,"SB\effects\highlight.png",308,94 F,0,37600,37899,0.75,1 S,0,37600,38197,1 C,0,37600,38197,128,64,64 F,0,37899,38197,1,0
Sprite,Foreground,Centre,"SB\effects\highlight.png",435,68 F,0,38048,38646,0.75,0 S,0,38048,38646,1,0.75 C,0,38048,38646,255,43,43
Sprite,Foreground,Centre,"SB\effects\highlight.png",371,169 F,0,38197,38795,0.75,0 S,0,38197,38795,1,0.75 C,0,38197,38795,255,43,43
Sprite,Foreground,Centre,"SB\effects\highlight.png",465,203 F,0,38346,38944,0.75,0 S,0,38346,38944,1,0.75 C,0,38346,38944,209,150,78
Sprite,Foreground,Centre,"SB\effects\highlight.png",550,249 F,0,42525,43123,0.75,0 S,0,42525,43123,1,0.75 C,0,42525,43123,209,150,78
Sprite,Foreground,Centre,"SB\effects\highlight.png",538,277 F,0,42599,43197,0.75,0 S,0,42599,43197,1,0.75 C,0,42599,43197,209,150,78
Sprite,Foreground,Centre,"SB\effects\highlight.png",512,298 F,0,42675,43272,0.75,0 S,0,42675,43272,1,0.75 C,0,42675,43272,209,150,78
Sprite,Foreground,Centre,"SB\effects\highlight.png",482,307 F,0,42749,43346,0.75,0 S,0,42749,43346,1,0.75 C,0,42749,43346,209,150,78
Sprite,Foreground,Centre,"SB\effects\highlight.png",450,303 F,0,42823,43421,0.75,0 S,0,42823,43421,1,0.75 C,0,42823,43421,209,150,78
Sprite,Foreground,Centre,"SB\effects\highlight.png",420,294 F,0,42899,43497,0.75,0 S,0,42899,43497,1,0.75 C,0,42899,43497,209,150,78
Sprite,Foreground,Centre,"SB\effects\highlight.png",388,295 F,0,42973,43571,0.75,0 S,0,42973,43571,1,0.75 C,0,42973,43571,209,150,78
Sprite,Foreground,Centre,"SB\effects\highlight.png",358,306 F,0,43048,43646,0.75,0 S,0,43048,43646,1,0.75 C,0,43048,43646,209,150,78
Sprite,Foreground,Centre,"SB\effects\highlight.png",333,326 F,0,43122,43720,1,0 S,0,43122,43720,1.2,0.75 C,0,43122,43720,128,64,64
Sprite,Foreground,Centre,"SB\effects\highlight.png",272,341 F,0,45510,46108,0.75,0 S,0,45510,46108,1,0.75 C,0,45510,46108,209,150,78
Sprite,Foreground,Centre,"SB\effects\highlight.png",273,187 F,0,45808,46406,0.75,0 S,0,45808,46406,1,0.75 C,0,45808,46406,209,150,78
Sprite,Foreground,Centre,"SB\effects\highlight.png",425,97 F,0,45958,46556,0.75,0 S,0,45958,46556,1,0.75 C,0,45958,46556,209,150,78
Sprite,Foreground,Centre,"SB\effects\highlight.png",432,104 F,0,46107,46705,0.75,0 S,0,46107,46705,1,0.75 C,0,46107,46705,209,150,78
Sprite,Foreground,Centre,"SB\effects\highlight.png",437,184 F,0,46257,46854,0.75,0 S,0,46257,46854,1,0.75 C,0,46257,46854,209,150,78
Sprite,Foreground,Centre,"SB\effects\highlight.png",458,374 F,0,46406,47004,0.75,0 S,0,46406,47004,1,0.75 C,0,46406,47004,209,150,78
Sprite,Foreground,Centre,"SB\effects\highlight.png",445,259 F,0,46555,47153,0.75,0 S,0,46555,47153,1,0.75 C,0,46555,47153,209,150,78
Sprite,Foreground,Centre,"SB\effects\highlight.png",331,335 F,0,46704,47302,1,0 S,0,46704,47302,1,2.75 C,0,46704,47302,128,64,64
Sprite,Foreground,Centre,"SB\effects\highlight.png",237,295 F,0,46903,47601,0.75,0 S,0,46903,47601,1,0.75 C,0,46903,47601,245,140,137
Sprite,Foreground,Centre,"SB\effects\highlight.png",314,231 F,0,47102,47700,0.75,0 S,0,47102,47700,1,0.75 C,0,47102,47700,245,140,137
Sprite,Foreground,Centre,"SB\effects\highlight.png",405,79 F,0,47301,47899,0.75,0 S,0,47301,47899,1,0.75 C,0,47301,47899,255,43,43
Sprite,Foreground,Centre,"SB\effects\highlight.png",389,77 F,0,47600,48198,0.75,0 S,0,47600,48198,1,0.75 C,0,47600,48198,209,150,78
Sprite,Foreground,Centre,"SB\effects\highlight.png",372,77 F,0,47899,48497,1,0 S,0,47899,48497,1.2,0.75 C,0,47899,48497,128,64,64
Sprite,Foreground,Centre,"SB\effects\highlight.png",352,315 F,0,52078,52676,0.75,0 S,0,52078,52676,1,0.75 C,0,52078,52676,255,43,43
Sprite,Foreground,Centre,"SB\effects\highlight.png",326,295 F,0,52152,52750,0.75,0 S,0,52152,52750,1,0.75 C,0,52152,52750,255,43,43
Sprite,Foreground,Centre,"SB\effects\highlight.png",310,268 F,0,52227,52825,0.75,0 S,0,52227,52825,1,0.75 C,0,52227,52825,255,43,43
Sprite,Foreground,Centre,"SB\effects\highlight.png",304,237 F,0,52301,52899,0.75,0 S,0,52301,52899,1,0.75 C,0,52301,52899,255,43,43
Sprite,Foreground,Centre,"SB\effects\highlight.png",326,195 F,0,52376,52974,0.75,0 S,0,52376,52974,1,0.75 C,0,52376,52974,209,150,78
Sprite,Foreground,Centre,"SB\effects\highlight.png",322,163 F,0,52450,53048,0.75,0 S,0,52450,53048,1,0.75 C,0,52450,53048,209,150,78
Sprite,Foreground,Centre,"SB\effects\highlight.png",319,131 F,0,52525,53123,0.75,0 S,0,52525,53123,1,0.75 C,0,52525,53123,209,150,78
Sprite,Foreground,Centre,"SB\effects\highlight.png",316,100 F,0,52599,53197,0.75,0 S,0,52599,53197,1,0.75 C,0,52599,53197,209,150,78
Sprite,Foreground,Centre,"SB\effects\highlight.png",288,77 F,0,52675,53273,1,0 S,0,52675,53273,1.2,0.75 C,0,52675,53273,128,64,64
Sprite,Foreground,Centre,"SB\effects\highlight.png",165,91 F,0,55063,55661,0.75,0 S,0,55063,55661,1,0.75 C,0,55063,55661,209,150,78
Sprite,Foreground,Centre,"SB\effects\highlight.png",291,308 F,0,55212,55810,0.75,0 S,0,55212,55810,1,0.75 C,0,55212,55810,209,150,78
Sprite,Foreground,Centre,"SB\effects\highlight.png",451,313 F,0,55510,56108,0.75,0 S,0,55510,56108,1,0.75 C,0,55510,56108,209,150,78
Sprite,Foreground,Centre,"SB\effects\highlight.png",221,358 F,0,55660,56258,0.75,0 S,0,55660,56258,1,0.75 C,0,55660,56258,209,150,78
Sprite,Foreground,Centre,"SB\effects\highlight.png",225,362 F,0,55809,56407,0.75,0 S,0,55809,56407,1,0.75 C,0,55809,56407,209,150,78
Sprite,Foreground,Centre,"SB\effects\highlight.png",280,192 F,0,55958,56556,0.75,0 S,0,55958,56556,1,0.75 C,0,55958,56556,209,150,78
Sprite,Foreground,Centre,"SB\effects\highlight.png",284,196 F,0,56107,56705,0.75,0 S,0,56107,56705,1,0.75 C,0,56107,56705,209,150,78
Sprite,Foreground,Centre,"SB\effects\highlight.png",450,313 F,0,56257,56855,0.75,0 S,0,56257,56855,1,0.75 C,0,56257,56855,128,64,64
Sprite,Foreground,Centre,"SB\effects\highlight.png",423,342 F,0,56331,56929,0.75,0 S,0,56331,56929,1,0.75 C,0,56331,56929,128,64,64
Sprite,Foreground,Centre,"SB\effects\highlight.png",387,360 F,0,56406,57004,0.75,0 S,0,56406,57004,1,0.75 C,0,56406,57004,128,64,64
Sprite,Foreground,Centre,"SB\effects\highlight.png",347,363 F,0,56480,57078,0.75,0 S,0,56480,57078,1,0.75 C,0,56480,57078,128,64,64
Sprite,Foreground,Centre,"SB\effects\highlight.png",309,351 F,0,56555,57153,0.75,0 S,0,56555,57153,1,0.75 C,0,56555,57153,128,64,64
Sprite,Foreground,Centre,"SB\effects\highlight.png",278,326 F,0,56630,57228,0.75,0 S,0,56630,57228,1,0.75 C,0,56630,57228,128,64,64
Sprite,Foreground,Centre,"SB\effects\highlight.png",258,292 M,0,56704,57302,384,277 F,0,56704,57302,0.75,0 S,0,56704,57302,1,0.75 C,0,56704,57302,128,64,64
Sprite,Foreground,Centre,"SB\effects\highlight.png",254,254 F,0,56778,57376,0.75,0 S,0,56778,57376,1,0.75 C,0,56778,57376,128,64,64
Sprite,Foreground,Centre,"SB\effects\highlight.png",262,214 F,0,56853,57451,0.75,0 S,0,56853,57451,1,0.75 C,0,56853,57451,255,43,43
Sprite,Foreground,Centre,"SB\effects\highlight.png",278,173 F,0,56927,57525,0.75,0 S,0,56927,57525,1,0.75 C,0,56927,57525,255,43,43
Sprite,Foreground,Centre,"SB\effects\highlight.png",274,130 F,0,57002,57600,0.75,0 S,0,57002,57600,1,0.75 C,0,57002,57600,255,43,43
Sprite,Foreground,Centre,"SB\effects\highlight.png",252,92 F,0,57077,57675,0.75,0 S,0,57077,57675,1,0.75 C,0,57077,57675,255,43,43
Sprite,Foreground,Centre,"SB\effects\highlight.png",216,70 F,0,57152,57750,0.75,0 S,0,57152,57750,1,0.75 C,0,57152,57750,255,43,43
Sprite,Foreground,Centre,"SB\effects\highlight.png",172,64 F,0,57226,57824,0.75,0 S,0,57226,57824,1,0.75 C,0,57226,57824,255,43,43
Sprite,Foreground,Centre,"SB\effects\highlight.png",130,78 F,0,57301,57899,0.75,0 S,0,57301,57899,1,0.75 C,0,57301,57899,255,43,43
Sprite,Foreground,Centre,"SB\effects\highlight.png",101,110 F,0,57375,57973,0.75,0 S,0,57375,57973,1,0.75 C,0,57375,57973,255,43,43
Sprite,Foreground,Centre,"SB\effects\highlight.png",92,157 F,0,57451,58049,0.75,0 S,0,57451,58049,1,2.75 C,0,57451,58049,209,150,78
Sprite,Foreground,Centre,"SB\effects\highlight.png",360,267 F,0,57600,58198,0.75,0 S,0,57600,58198,1,0.75 C,0,57600,58198,209,150,78
Sprite,Foreground,Centre,"SB\effects\highlight.png",92,157 F,0,57899,58497,0.75,0 S,0,57899,58497,1,0.75 C,0,57899,58497,128,64,64
Sprite,Foreground,Centre,"SB\effects\highlight.png",359,267 F,0,58048,58646,0.75,0 S,0,58048,58646,1,0.75 C,0,58048,58646,128,64,64
Sprite,Foreground,Centre,"SB\effects\highlight.png",121,337 F,0,58197,58795,0.75,0 S,0,58197,58795,1,0.75 C,0,58197,58795,128,64,64
Sprite,Foreground,Centre,"SB\effects\highlight.png",121,337 F,0,58496,59094,0.75,0 S,0,58496,59094,1,2.75 C,0,58496,59094,255,43,43
Sprite,Foreground,Centre,"SB\effects\highlight.png",359,267 F,0,58794,59392,0.75,0 S,0,58794,59392,1,0.75 C,0,58794,59392,255,43,43
Sprite,Foreground,Centre,"SB\effects\highlight.png",273,392 F,0,58943,59541,0.75,0 S,0,58943,59541,1,0.75 C,0,58943,59541,255,43,43
Sprite,Foreground,Centre,"SB\effects\highlight.png",306,139 F,0,59242,59840,0.75,0 S,0,59242,59840,1,0.75 C,0,59242,59840,209,150,78
Sprite,Foreground,Centre,"SB\effects\highlight.png",353,130 F,0,59540,60138,0.75,0 S,0,59540,60138,1,0.75 C,0,59540,60138,128,64,64
Sprite,Foreground,Centre,"SB\effects\highlight.png",372,128 F,0,59839,60437,0.75,0 S,0,59839,60437,1,2.75 C,0,59839,60437,255,43,43
Sprite,Foreground,Centre,"SB\effects\highlight.png",460,94 F,0,63719,64316,0.75,0 S,0,63719,64316,1,0.75 C,0,63719,64316,209,150,78
Sprite,Foreground,Centre,"SB\effects\highlight.png",394,230 F,0,63869,64466,0.75,0 S,0,63869,64466,1,0.75 C,0,63869,64466,209,150,78
Sprite,Foreground,Centre,"SB\effects\highlight.png",538,178 F,0,64018,64615,0.75,0 S,0,64018,64615,1,0.75 C,0,64018,64615,255,43,43
Sprite,Foreground,Centre,"SB\effects\highlight.png",564,199 F,0,64092,64689,0.75,0 S,0,64092,64689,1,0.75 C,0,64092,64689,255,43,43
Sprite,Foreground,Centre,"SB\effects\highlight.png",568,233 F,0,64167,64764,0.75,0 S,0,64167,64764,1,0.75 C,0,64167,64764,255,43,43
Sprite,Foreground,Centre,"SB\effects\highlight.png",548,261 F,0,64242,64839,0.75,0 S,0,64242,64839,1,0.75 C,0,64242,64839,255,43,43
Sprite,Foreground,Centre,"SB\effects\highlight.png",514,267 F,0,64316,64913,0.75,0 S,0,64316,64913,1,0.75 C,0,64316,64913,209,150,78
Sprite,Foreground,Centre,"SB\effects\highlight.png",470,267 F,0,64391,64988,0.75,0 S,0,64391,64988,1,0.75 C,0,64391,64988,209,150,78
Sprite,Foreground,Centre,"SB\effects\highlight.png",436,294 F,0,64466,65063,0.75,0 S,0,64466,65063,1,0.75 C,0,64466,65063,209,150,78
Sprite,Foreground,Centre,"SB\effects\highlight.png",424,335 F,0,64540,65137,0.75,0 S,0,64540,65137,1,0.75 C,0,64540,65137,209,150,78
Sprite,Foreground,Centre,"SB\effects\highlight.png",439,376 F,0,64615,65213,0.75,0 S,0,64615,65213,1,2.75 C,0,64615,65213,128,64,64
Sprite,Foreground,Centre,"SB\effects\highlight.png",112,125 F,1,67301,67898,0.75,0 S,0,67301,67898,1.2,0.75 C,0,67301,67898,209,150,78
Sprite,Foreground,Centre,"SB\effects\highlight.png",107,378 F,1,67451,68048,0.75,0 S,0,67451,68048,1.2,0.75 C,0,67451,68048,209,150,78
Sprite,Foreground,Centre,"SB\effects\highlight.png",275,258 F,1,67600,68197,0.75,0 S,0,67600,68197,1.2,0.75 C,0,67600,68197,128,64,64
Sprite,Foreground,Centre,"SB\effects\highlight.png",94,389 F,1,67749,68346,0.75,0 S,0,67749,68346,1.2,0.75 C,0,67749,68346,128,64,64
Sprite,Foreground,Centre,"SB\effects\highlight.png",323,329 F,1,67899,68496,0.75,0 S,0,67899,68496,1,0.75 C,0,67899,68496,255,43,43
Sprite,Foreground,Centre,"SB\effects\highlight.png",81,400 F,1,68048,68645,0.75,0 S,0,68048,68645,1,0.75 C,0,68048,68645,255,43,43
Sprite,Foreground,Centre,"SB\effects\highlight.png",336,405 F,0,68197,68794,0.75,0 S,0,68197,68794,1,0.75 C,0,68197,68794,209,150,78
Sprite,Foreground,Centre,"SB\effects\highlight.png",353,320 F,0,68346,68943,0.75,0 S,0,68346,68943,1,0.75 C,0,68346,68943,209,150,78
Sprite,Foreground,Centre,"SB\effects\highlight.png",318,240 F,0,68496,69093,0.75,0 S,0,68496,69093,1,0.75 C,0,68496,69093,209,150,78
Sprite,Foreground,Centre,"SB\effects\highlight.png",341,157 F,0,68645,69242,0.75,0 S,0,68645,69242,1,0.75 C,0,68645,69242,209,150,78
Sprite,Foreground,Centre,"SB\effects\highlight.png",200,201 F,0,68794,69391,0.75,0 S,0,68794,69391,1,0.75 C,0,68794,69391,128,64,64
Sprite,Foreground,Centre,"SB\effects\highlight.png",172,191 F,0,68868,69465,0.75,0 S,0,68868,69465,1,0.75 C,0,68868,69465,128,64,64
Sprite,Foreground,Centre,"SB\effects\highlight.png",144,183 F,0,68943,69540,0.75,0 S,0,68943,69540,1,0.75 C,0,68943,69540,128,64,64
Sprite,Foreground,Centre,"SB\effects\highlight.png",117,173 F,0,69017,69614,0.75,0 S,0,69017,69614,1,0.75 C,0,69017,69614,128,64,64
Sprite,Foreground,Centre,"SB\effects\highlight.png",82,137 F,0,69092,69689,0.75,0 S,0,69092,69689,1,0.75 C,0,69092,69689,255,43,43
Sprite,Foreground,Centre,"SB\effects\highlight.png",118,134 F,0,69167,69764,0.75,0 S,0,69167,69764,1,0.75 C,0,69167,69764,255,43,43
Sprite,Foreground,Centre,"SB\effects\highlight.png",154,132 F,0,69241,69838,0.75,0 S,0,69241,69838,1,0.75 C,0,69241,69838,255,43,43
Sprite,Foreground,Centre,"SB\effects\highlight.png",190,130 F,0,69316,69913,0.75,0 S,0,69316,69913,1,0.75 C,0,69316,69913,255,43,43
Sprite,Foreground,Centre,"SB\effects\highlight.png",224,98 F,0,69391,69988,0.75,0 S,0,69391,69988,1,2.75 C,0,69391,69988,209,150,78
Sprite,Foreground,Centre,"SB\effects\highlight.png",576,228 F,1,73272,73869,0.75,0 S,0,73272,73869,1.2,1 C,0,73272,73869,209,150,78
Sprite,Foreground,Centre,"SB\effects\highlight.png",414,182 F,1,73570,74167,0.75,0 S,0,73570,74167,1.2 C,0,73570,74167,209,150,78
Sprite,Foreground,Centre,"SB\effects\highlight.png",402,195 F,1,73869,74466,0.75,0 S,0,73869,74466,1.2,1.4 C,0,73869,74466,128,64,64
Sprite,Foreground,Centre,"SB\effects\highlight.png",104,311 F,0,74167,74764,0.75,0 S,0,74167,74764,1.2,1.6 C,0,74167,74764,255,43,43
Sprite,Foreground,Centre,"SB\effects\highlight.png",500,318 F,0,74764,75212,0.75,0 S,0,74764,75212,1,0.75 C,0,74764,75212,255,43,43
Sprite,Foreground,Centre,"SB\effects\highlight.png",500,318 F,0,75361,75958,0.75,0 S,0,75361,75958,1.2,0.75 C,0,75361,75958,209,150,78
Sprite,Foreground,Centre,"SB\effects\highlight.png",237,71 F,0,75958,76406,0.75,0 S,0,75958,76406,1,0.75 C,0,75958,76406,209,150,78
Sprite,Foreground,Centre,"SB\effects\highlight.png",168,316 F,0,77600,78197,0.75,0 S,0,77600,78197,1.2,0.75 C,0,77600,78197,128,64,64
Sprite,Foreground,Centre,"SB\effects\highlight.png",186,318 F,0,78048,78645,0.75,0 S,0,78048,78645,1.2,0.75 C,0,78048,78645,255,43,43
Sprite,Foreground,Centre,"SB\effects\highlight.png",222,311 F,0,78496,79093,0.75,0 S,0,78496,79093,1.2,0.75 C,0,78496,79093,209,150,78
Sprite,Foreground,Centre,"SB\effects\highlight.png",344,230 F,0,78794,79391,0.75,0 S,0,78794,79391,1,0.75 C,0,78794,79391,209,150,78
Sprite,Foreground,Centre,"SB\effects\highlight.png",327,142 F,0,78869,79466,0.75,0 S,0,78869,79466,1,0.75 C,0,78869,79466,128,64,64
Sprite,Foreground,Centre,"SB\effects\highlight.png",331,146 F,0,78943,79540,0.75,0 S,0,78943,79540,1.2,0.75 C,0,78943,79540,255,43,43
Sprite,Foreground,Centre,"SB\effects\highlight.png",513,223 F,0,83122,83719,0.75,0 S,0,83122,83719,1,0.75 C,0,83122,83719,209,150,78
Sprite,Foreground,Centre,"SB\effects\highlight.png",293,212 F,0,83271,83868,0.75,0 S,0,83271,83868,1,0.75 C,0,83271,83868,209,150,78 M,0,83272,,372.2774,85.65161
Sprite,Foreground,Centre,"SB\effects\highlight.png",293,212 F,0,83421,84018,0.75,0 S,0,83421,84018,1,0.75 C,0,83421,84018,209,150,78
Sprite,Foreground,Centre,"SB\effects\highlight.png",254,231 F,0,83495,84092,0.75,0 S,0,83495,84092,1,0.75 C,0,83495,84092,209,150,78
Sprite,Foreground,Centre,"SB\effects\highlight.png",210,235 F,0,83570,84167,0.75,0 S,0,83570,84167,1,0.75 C,0,83570,84167,209,150,78
Sprite,Foreground,Centre,"SB\effects\highlight.png",169,221 F,0,83644,84241,0.75,0 S,0,83644,84241,1,0.75 C,0,83644,84241,209,150,78
Sprite,Foreground,Centre,"SB\effects\highlight.png",136,192 F,0,83719,84316,0.75,0 S,0,83719,84316,1.2,0.75 C,0,83719,84316,128,64,64
Sprite,Foreground,Centre,"SB\effects\ring.png",320,240 M,0,67301,67600,239,430 F,1,67301,67600,1,0 S,1,67301,67600,0,1 C,0,67301,67600,244,248,135
Sprite,Foreground,Centre,"SB\effects\ring.png",320,240 M,0,67451,67749,331,87 F,1,67451,67749,1,0 S,1,67451,67749,0,1 C,0,67451,67749,244,248,135
Sprite,Foreground,Centre,"SB\effects\ring.png",320,240 M,0,67600,67899,515,374 F,1,67600,67899,1,0 S,1,67600,67899,0,1 C,0,67600,67899,135,244,248
Sprite,Foreground,Centre,"SB\effects\ring.png",320,240 M,0,67749,68048,193,312 F,1,67749,68048,1,0 S,1,67749,68048,0,1 C,0,67749,68048,135,244,248
Sprite,Foreground,Centre,"SB\effects\ring.png",320,240 M,0,67899,68197,433,134 F,1,67899,68197,1,0 S,1,67899,68197,0,1 C,0,67899,68197,139,134,249
Sprite,Foreground,Centre,"SB\effects\ring.png",320,240 M,0,68048,68346,350,433 F,1,68048,68346,1,0 S,1,68048,68346,0,1 C,0,68048,68346,139,134,249
Sprite,Foreground,Centre,"SB\effects\ring.png",343,350 F,2,88421,89391,1,0 S,1,88421,89391,0,1 C,0,88421,89391,255,43,43
//Storyboard Sound Samples

[TimingPoints]
7302,298.507462686567,4,2,11,60,1,0
7376,-100,4,2,11,30,0,0
7451,-100,4,2,11,60,0,0
7749,-100,4,2,11,80,0,0
7824,-100,4,2,11,40,0,0
7899,-100,4,2,11,80,0,0
7973,-100,4,2,11,40,0,0
8048,-100,4,2,11,80,0,0
8346,-100,4,2,11,70,0,0
8496,-100,4,2,11,35,0,0
8645,-100,4,2,11,70,0,0
8719,-100,4,2,11,25,0,0
8794,-100,4,2,11,70,0,0
8869,-100,4,2,11,25,0,0
9093,-100,4,2,11,40,0,0
9316,-133.333333333333,4,2,11,5,0,0
9391,-81.3008130081301,4,2,11,30,0,0
9615,-81.3008130081301,4,2,11,5,0,0
9690,-90.9090909090909,4,2,12,80,0,1
9764,-90.9090909090909,4,2,12,70,0,1
13272,-90.9090909090909,4,2,12,75,0,1
13346,-90.9090909090909,4,2,12,70,0,1
13421,-90.9090909090909,4,2,12,65,0,1
13496,-90.9090909090909,4,2,12,60,0,1
13570,-90.9090909090909,4,2,12,55,0,1
13645,-90.9090909090909,4,2,12,50,0,1
13719,-90.9090909090909,4,2,12,45,0,1
13794,-90.9090909090909,4,2,12,40,0,1
13869,-90.9090909090909,4,2,12,45,0,1
13943,-90.9090909090909,4,2,12,50,0,1
14018,-90.9090909090909,4,2,12,55,0,1
14093,-90.9090909090909,4,2,12,60,0,1
14167,-90.9090909090909,4,2,12,65,0,1
14242,-90.9090909090909,4,2,12,70,0,1
14316,-90.9090909090909,4,2,12,75,0,1
14391,-90.9090909090909,4,2,12,80,0,1
14466,-90.9090909090909,4,2,11,70,0,1
15063,-90.9090909090909,4,2,11,60,0,0
15137,-90.9090909090909,4,2,11,30,0,0
15361,-90.9090909090909,4,2,11,45,0,0
15660,-90.9090909090909,4,2,11,70,0,1
16257,-90.9090909090909,4,2,11,60,0,0
16331,-90.9090909090909,4,2,11,30,0,0
16555,-90.9090909090909,4,2,11,45,0,0
16854,-200,4,2,11,70,0,1
17749,-200,4,2,11,30,0,1
17824,-200,4,2,11,30,0,1
17899,-111.111111111111,4,2,11,60,0,0
17973,-111.111111111111,4,2,11,5,0,0
18346,-100,4,2,11,70,0,0
18421,-100,4,2,11,5,0,0
18794,-86.9565217391304,4,2,11,80,0,0
18869,-86.9565217391304,4,2,11,5,0,0
18943,-86.9565217391304,4,2,11,40,0,0
19018,-86.9565217391304,4,2,11,50,0,0
19093,-86.9565217391304,4,2,11,60,0,0
19167,-86.9565217391304,4,2,11,70,0,0
19242,-86.9565217391304,4,2,12,80,0,0
19316,-86.9565217391304,4,2,12,70,0,0
27899,-86.9565217391304,4,2,12,75,0,0
27973,-86.9565217391304,4,2,12,70,0,0
28048,-86.9565217391304,4,2,12,65,0,0
28122,-86.9565217391304,4,2,12,60,0,0
28197,-86.9565217391304,4,2,12,55,0,0
28346,-86.9565217391304,4,2,12,50,0,0
28496,-86.9565217391304,4,2,12,55,0,0
28570,-86.9565217391304,4,2,12,60,0,0
28645,-86.9565217391304,4,2,12,65,0,0
28719,-86.9565217391304,4,2,12,70,0,0
28794,-116.279069767442,4,2,12,80,0,0
29093,-116.279069767442,4,2,11,40,0,0
30436,-100,4,2,11,45,0,0
30884,-83.3333333333333,4,2,11,50,0,0
31107,-83.3333333333333,4,2,11,5,0,0
31182,-116.279069767442,4,2,11,40,0,0
32675,-116.279069767442,4,2,11,45,0,0
33122,-100,4,2,11,50,0,0
33570,-116.279069767442,4,2,11,40,0,0
34466,-116.279069767442,4,2,11,45,0,0
35063,-116.279069767442,4,2,11,50,0,0
35660,-116.279069767442,4,2,11,40,0,0
35958,-133.333333333333,4,2,11,40,0,0
36555,-133.333333333333,4,2,11,45,0,0
37152,-133.333333333333,4,2,11,50,0,0
37600,-133.333333333333,4,2,11,55,0,0
38048,-133.333333333333,4,2,13,60,0,0
38122,-133.333333333333,4,2,13,5,0,0
38197,-133.333333333333,4,2,13,30,0,0
38272,-133.333333333333,4,2,13,5,0,0
38346,-100,4,2,12,70,0,0
38421,-100,4,2,12,60,0,0
42525,-100,4,2,12,30,0,0
42600,-100,4,2,12,35,0,0
42675,-100,4,2,12,40,0,0
42749,-100,4,2,12,45,0,0
42824,-100,4,2,12,50,0,0
42899,-100,4,2,12,55,0,0
42973,-100,4,2,12,60,0,0
43048,-100,4,2,12,65,0,0
43122,-100,4,2,12,70,0,0
43197,-100,4,2,12,60,0,0
45510,-100,4,2,12,40,0,0
45585,-100,4,2,12,42,0,0
45660,-100,4,2,12,44,0,0
45734,-100,4,2,12,46,0,0
45809,-100,4,2,12,48,0,0
45884,-100,4,2,12,52,0,0
45958,-100,4,2,12,54,0,0
46033,-100,4,2,12,56,0,0
46107,-100,4,2,12,58,0,0
46182,-100,4,2,12,60,0,0
46257,-100,4,2,12,62,0,0
46331,-100,4,2,12,64,0,0
46406,-100,4,2,12,66,0,0
46481,-100,4,2,12,68,0,0
46555,-100,4,2,12,70,0,0
46630,-100,4,2,12,72,0,0
46704,-100,4,2,12,75,0,0
46804,-100,4,2,12,75,0,0
46903,-100,4,2,12,75,0,0
47003,-100,4,2,12,75,0,0
47102,-100,4,2,12,80,0,0
47152,-100,4,2,12,30,0,0
47202,-100,4,2,12,30,0,0
47301,-100,4,2,11,35,0,0
47525,-100,4,2,11,5,0,0
47600,-100,4,2,11,45,0,0
47824,-100,4,2,11,5,0,0
47899,-100,4,2,12,70,0,0
47973,-100,4,2,12,60,0,0
52078,-100,4,2,12,70,0,0
52152,-100,4,2,12,65,0,0
52227,-100,4,2,12,60,0,0
52301,-100,4,2,12,55,0,0
52376,-100,4,2,12,50,0,0
52451,-100,4,2,12,45,0,0
52525,-100,4,2,12,40,0,0
52600,-100,4,2,12,35,0,0
52675,-100,4,2,12,70,0,0
52749,-100,4,2,12,60,0,0
55063,-100,4,2,12,65,0,0
55361,-100,4,2,12,70,0,0
55660,-100,4,2,12,75,0,0
55958,-100,4,2,12,80,0,0
56257,-100,4,2,12,60,0,0
56331,-100,4,2,12,62,0,0
56406,-100,4,2,12,64,0,0
56481,-100,4,2,12,66,0,0
56555,-100,4,2,12,68,0,0
56630,-100,4,2,12,70,0,0
56704,-100,4,2,12,72,0,0
56779,-100,4,2,12,74,0,0
56854,-100,4,2,12,76,0,0
56928,-100,4,2,12,78,0,0
57003,-100,4,2,12,80,0,0
57078,-100,4,2,12,82,0,0
57152,-100,4,2,12,84,0,0
57227,-100,4,2,12,86,0,0
57301,-100,4,2,12,88,0,0
57376,-100,4,2,12,90,0,0
57451,-100,4,2,12,95,0,0
57899,-100,4,2,12,90,0,0
59242,-112.359550561798,4,2,11,40,0,0
59466,-112.359550561798,4,2,11,40,0,0
59540,-71.4285714285714,4,2,11,60,0,0
59764,-71.4285714285714,4,2,11,60,0,0
59839,-90.9090909090909,4,2,12,90,0,1
59913,-90.9090909090909,4,2,12,80,0,1
64018,-90.9090909090909,4,2,12,70,0,1
64093,-90.9090909090909,4,2,12,72,0,1
64167,-90.9090909090909,4,2,12,74,0,1
64242,-90.9090909090909,4,2,12,76,0,1
64316,-90.9090909090909,4,2,12,78,0,1
64391,-90.9090909090909,4,2,12,80,0,1
64466,-90.9090909090909,4,2,12,82,0,1
64540,-90.9090909090909,4,2,12,84,0,1
64615,-90.9090909090909,4,2,12,90,0,1
64690,-90.9090909090909,4,2,12,80,0,1
67003,-111.111111111111,4,2,12,80,0,0
67301,-111.111111111111,4,2,11,90,0,0
67600,-111.111111111111,4,2,11,80,0,0
67899,-111.111111111111,4,2,11,70,0,0
68197,-111.111111111111,4,2,12,68,0,0
68272,-111.111111111111,4,2,12,66,0,0
68346,-111.111111111111,4,2,12,64,0,0
68421,-111.111111111111,4,2,12,62,0,0
68496,-111.111111111111,4,2,12,60,0,0
68570,-111.111111111111,4,2,12,58,0,0
68645,-111.111111111111,4,2,12,56,0,0
68719,-111.111111111111,4,2,12,54,0,0
68794,-111.111111111111,4,2,12,56,0,0
68869,-111.111111111111,4,2,12,59,0,0
68943,-111.111111111111,4,2,12,62,0,0
69018,-111.111111111111,4,2,12,65,0,0
69093,-111.111111111111,4,2,12,68,0,0
69167,-111.111111111111,4,2,12,72,0,0
69242,-111.111111111111,4,2,12,78,0,0
69316,-111.111111111111,4,2,12,84,0,0
69391,-90.9090909090909,4,2,12,90,0,1
69466,-90.9090909090909,4,2,12,80,0,1
72973,-90.9090909090909,4,2,12,60,0,1
73197,-90.9090909090909,4,2,12,5,0,1
73272,-90.9090909090909,4,2,12,70,0,1
73496,-90.9090909090909,4,2,12,5,0,1
73570,-90.9090909090909,4,2,12,80,0,1
73794,-90.9090909090909,4,2,12,5,0,1
73869,-90.9090909090909,4,2,12,90,0,1
74093,-90.9090909090909,4,2,12,5,0,1
74167,-90.9090909090909,4,2,11,70,0,1
74466,-90.9090909090909,4,2,11,70,0,1
74764,-100,4,2,11,60,0,0
74838,-100,4,2,11,30,0,0
75062,-100,4,2,11,45,0,0
75361,-90.9090909090909,4,2,11,70,0,1
75958,-90.9090909090909,4,2,11,60,0,0
76032,-90.9090909090909,4,2,11,30,0,0
76256,-90.9090909090909,4,2,11,45,0,0
76555,-133.333333333333,4,2,11,70,0,1
77450,-133.333333333333,4,2,11,30,0,1
77525,-133.333333333333,4,2,11,30,0,1
77600,-90.9090909090909,4,2,11,60,0,0
77674,-90.9090909090909,4,2,11,5,0,0
78047,-90.9090909090909,4,2,11,70,0,0
78048,-83.3333333333333,4,2,11,70,0,0
78122,-83.3333333333333,4,2,11,5,0,0
78495,-83.3333333333333,4,2,11,80,0,0
78496,-86.9565217391304,4,2,11,80,0,0
78570,-86.9565217391304,4,2,11,5,0,0
78644,-86.9565217391304,4,2,11,40,0,0
78719,-86.9565217391304,4,2,11,50,0,0
78794,-86.9565217391304,4,2,11,60,0,0
78868,-86.9565217391304,4,2,11,70,0,0
78943,-90.9090909090909,4,2,12,80,0,0
79018,-90.9090909090909,4,2,12,70,0,0
83122,-90.9090909090909,4,2,12,54,0,0
83197,-90.9090909090909,4,2,12,56,0,0
83272,-90.9090909090909,4,2,12,58,0,0
83346,-90.9090909090909,4,2,12,60,0,0
83421,-90.9090909090909,4,2,12,62,0,0
83496,-90.9090909090909,4,2,12,64,0,0
83570,-90.9090909090909,4,2,12,66,0,0
83645,-90.9090909090909,4,2,12,68,0,0
83719,-90.9090909090909,4,2,12,70,0,0
88421,-90.9090909090909,4,2,12,70,0,0
89316,-50,4,2,12,70,0,0

[Colours]
Combo1 : 128,64,64
Combo2 : 255,43,43
Combo3 : 209,150,78

[HitObjects]
130,151,7301,5,2,0:1:0:0:
335,103,7451,1,2,0:1:0:0:
114,177,7749,5,8,0:1:0:0:
376,223,7899,1,8,0:1:0:0:
88,173,8048,1,8,0:1:0:0:
74,350,8346,6,0,L|235:346,1,160,2|8,0:1|0:1,0:0:0:0:
376,223,8794,1,8,0:1:0:0:
142,116,9093,5,8,0:0:0:0:
161,111,9391,5,8,0:0:0:0:
178,106,9690,6,0,P|223:96|348:144,1,176.000005371094,6|8,0:0|0:0,0:0:0:0:
175,198,10137,2,0,L|183:-12,1,176.000005371094,2|2,0:0|0:0,0:0:0:0:
86,147,10585,1,8,0:0:0:0:
263,104,10734,1,0,0:0:0:0:
86,147,10884,6,0,P|79:205|88:268,1,88.000002685547,2|0,0:0|0:0,0:0:0:0:
188,357,11182,1,8,0:0:0:0:
272,218,11331,1,2,0:0:0:0:
364,353,11481,2,0,P|399:357|461:345,1,88.000002685547,0|2,0:0|0:0,0:0:0:0:
488,169,11779,2,0,P|444:160|401:164,1,88.000002685547,8|0,0:0|0:0,0:0:0:0:
215,281,12078,6,0,B|275:303|275:303|394:269,1,176.000005371094,2|8,0:0|0:0,0:0:0:0:
483,63,12525,2,0,P|427:105|331:71,1,176.000005371094,2|2,0:0|0:0,0:0:0:0:
210,113,12973,1,8,0:0:0:0:
292,213,13122,1,2,0:0:0:0:
167,266,13272,5,0,1:0:0:0:
153,243,13346,1,4,1:3:0:0:
147,218,13421,1,0,1:0:0:0:
149,191,13496,1,0,1:0:0:0:
159,167,13570,2,0,P|178:148|216:137,1,44.0000013427735,0|0,1:0|0:0,0:0:0:0:
341,166,13719,5,4,0:3:0:0:
321,195,13794,1,4,0:3:0:0:
292,213,13868,1,0,1:0:0:0:
257,219,13943,1,0,1:0:0:0:
224,210,14018,2,0,P|188:186|172:164,1,44.0000013427735,0|0,1:0|0:0,0:0:0:0:
118,74,14167,5,0,1:0:0:0:
160,62,14241,1,0,1:0:0:0:
203,70,14316,1,0,1:0:0:0:
238,96,14390,1,0,1:0:0:0:
262,139,14466,6,0,B|257:222|257:222|285:263|285:263|246:303|246:303|239:393,1,264.000008056641,6|2,0:1|0:1,0:0:0:0:
361,252,15063,1,8,0:1:0:0:
361,252,15660,6,0,B|292:271|292:271|232:242|232:242|183:279|130:264|98:218,1,264.000008056641,2|2,0:1|0:1,0:0:0:0:
303,344,16257,1,8,0:1:0:0:
256,192,16854,12,0,17824,0:0:0:0:
178,184,17899,5,2,0:1:0:0:
193,166,18346,5,2,0:1:0:0:
211,145,18794,6,0,P|246:158|350:37,1,184.000003509522,2|2,0:1|0:0,0:0:0:0:
315,181,19167,1,2,0:0:0:0:
315,181,19242,6,0,P|301:232|320:297,1,92.0000017547608,6|0,0:0|0:0,0:0:0:0:
377,369,19540,1,8,0:0:0:0:
426,195,19690,1,2,0:0:0:0:
426,195,19988,1,2,0:0:0:0:
377,369,20137,2,0,L|373:257,1,92.0000017547608,8|0,0:0|0:0,0:0:0:0:
211,154,20436,5,2,0:0:0:0:
343,199,20585,1,0,0:0:0:0:
161,209,20734,1,8,0:0:0:0:
356,190,20883,1,2,0:0:0:0:
243,79,21033,5,0,0:0:0:0:
216,272,21182,1,2,0:0:0:0:
378,123,21331,1,8,0:0:0:0:
378,123,21630,6,0,P|323:149|185:136,1,184.000003509522,2|8,0:0|0:0,0:0:0:0:
384,223,22078,1,2,0:0:0:0:
390,216,22152,1,0,0:0:0:0:
396,209,22227,1,0,0:0:0:0:
293,332,22376,1,2,0:0:0:0:
492,200,22525,2,0,P|498:142|484:75,1,92.0000017547608,8|0,0:0|0:0,0:0:0:0:
302,22,22824,5,2,0:0:0:0:
396,209,22973,1,0,0:0:0:0:
227,25,23122,5,8,0:0:0:0:
425,125,23271,1,2,0:0:0:0:
425,125,23570,5,2,0:0:0:0:
211,201,23719,1,8,0:0:0:0:
302,22,23869,1,0,0:0:0:0:
419,208,24018,6,0,P|481:183|478:64,1,184.000003509522,6|8,0:0|0:0,0:0:0:0:
302,22,24466,1,2,0:0:0:0:
304,30,24540,1,0,0:0:0:0:
305,39,24615,1,0,0:0:0:0:
425,125,24764,1,2,0:0:0:0:
253,176,24913,1,8,0:0:0:0:
253,176,25212,5,2,0:0:0:0:
410,229,25361,1,0,0:0:0:0:
250,261,25510,1,8,0:0:0:0:
437,236,25659,1,2,0:0:0:0:
326,134,25809,5,0,0:0:0:0:
247,336,25958,1,2,0:0:0:0:
201,138,26107,1,8,0:0:0:0:
63,212,26257,6,0,B|105:187|155:209|155:209|200:230|273:198,1,184.000003509522,0|0,0:0|0:0,0:0:0:0:
355,132,26704,1,8,0:0:0:0:
201,138,26854,1,2,0:0:0:0:
196,130,26928,1,0,0:0:0:0:
191,122,27003,1,0,0:0:0:0:
326,227,27152,1,2,0:0:0:0:
186,314,27301,1,8,0:0:0:0:
186,314,27600,5,2,0:0:0:0:
365,373,27749,1,2,0:0:0:0:
415,250,27899,1,8,0:3:0:0:
429,216,27973,1,8,0:3:0:0:
432,179,28048,1,4,0:3:0:0:
424,143,28122,1,4,0:3:0:0:
405,110,28197,1,2,0:0:0:0:
258,64,28346,5,2,0:0:0:0:
235,93,28421,1,0,0:0:0:0:
198,94,28496,1,0,1:0:0:0:
174,65,28570,1,0,1:0:0:0:
182,29,28645,1,0,1:0:0:0:
214,12,28719,1,0,1:0:0:0:
247,28,28794,6,0,P|290:50|374:40,1,103.200001574707,4|0,1:0|0:0,0:0:0:0:
373,4,29093,2,0,L|369:149,1,137.600002099609,2|0,0:0|0:0,0:0:0:0:
364,244,29540,1,2,0:0:0:0:
358,347,29690,1,0,0:0:0:0:
358,347,29988,6,0,P|308:321|200:312,1,137.600002099609,8|0,3:2|3:0,0:0:0:0:
396,332,30436,2,0,P|361:287|243:228,1,160,8|0,3:2|3:0,0:0:0:0:
429,318,30884,2,0,P|414:265|367:209,1,95.9999970703126,8|0,3:2|0:0,0:0:0:0:
251,108,31182,6,0,B|184:99|184:99|147:124|147:124|105:106|37:123|37:123|87:69,1,275.200004199219,2|0,0:0|0:0,0:0:0:0:
225,184,32078,2,0,P|241:232|223:326,1,137.600002099609,8|0,3:2|0:0,0:0:0:0:
153,138,32675,6,0,P|195:107|296:134,1,137.600002099609,8|0,3:2|0:0,0:0:0:0:
416,195,33122,2,0,P|364:184|277:263,1,160,8|0,0:0|0:0,0:0:0:0:
248,281,33570,2,0,B|192:207|244:142|244:142|173:101|215:7,1,275.200004199219,2|0,0:0|3:0,0:0:0:0:
134,133,34466,6,0,B|192:146|223:109|223:109|247:138|247:138|276:116|321:118,1,206.400003149414,8|0,3:2|3:0,0:0:0:0:
338,268,35063,2,0,P|326:223|329:181,1,68.8000010498047,8|0,3:2|0:0,0:0:0:0:
412,61,35361,5,0,0:0:0:0:
314,117,35510,1,0,3:0:0:0:
430,152,35660,1,8,3:2:0:0:
325,201,35809,1,0,3:0:0:0:
441,242,35958,2,0,P|430:302|257:201,1,360.000013732911,2|8,0:0|3:2,0:0:0:0:
177,137,37152,6,0,L|149:133,8,15.0000005722046,0|0|0|0|0|0|0|0|0,3:0|3:0|3:0|3:0|3:0|3:0|3:0|0:0|0:0,0:0:0:0:
244,40,37600,2,0,L|269:36,8,15.0000005722046,0|0|0|0|0|0|0|0|0,3:0|3:0|3:0|0:0|0:0|0:0|0:0|0:0|0:0,0:0:0:0:
371,14,38048,5,2,1:2:0:0:
307,115,38197,1,2,1:2:0:0:
401,149,38346,6,0,P|372:182|382:300,1,160,6|8,0:0|0:0,0:0:0:0:
307,115,38794,1,2,0:0:0:0:
307,115,39093,1,2,0:0:0:0:
235,341,39242,1,8,0:0:0:0:
215,235,39391,1,0,0:0:0:0:
373,168,39540,6,0,P|391:123|376:61,1,80,2|0,0:0|0:0,0:0:0:0:
205,37,39839,1,8,0:0:0:0:
371,6,39988,1,2,0:0:0:0:
371,6,40287,1,2,0:0:0:0:
302,232,40436,1,8,0:0:0:0:
213,163,40585,1,0,0:0:0:0:
104,321,40734,6,0,B|211:336|211:336|283:304,1,160,2|8,0:0|0:0,0:0:0:0:
430,224,41182,1,2,0:0:0:0:
430,224,41481,1,2,0:0:0:0:
221,155,41630,1,8,0:0:0:0:
221,155,41928,6,0,P|165:171|115:168,1,80,2|0,0:0|0:0,0:0:0:0:
299,59,42227,2,0,P|355:75|405:72,1,80,8|2,0:0|0:0,0:0:0:0:
486,195,42525,1,0,1:0:0:0:
472,223,42599,1,0,1:0:0:0:
448,244,42674,1,0,1:0:0:0:
418,253,42748,1,0,1:0:0:0:
386,249,42824,1,0,1:0:0:0:
356,240,42898,1,0,1:0:0:0:
324,241,42973,1,0,1:0:0:0:
294,252,43047,1,0,1:0:0:0:
269,272,43122,6,0,P|226:291|114:245,1,160,6|8,0:0|0:0,0:0:0:0:
274,358,43570,1,2,0:0:0:0:
274,358,43869,1,2,0:0:0:0:
256,160,44018,2,0,L|249:68,1,80,8|0,0:0|0:0,0:0:0:0:
332,240,44316,5,2,0:0:0:0:
332,240,44466,1,0,0:0:0:0:
159,195,44615,1,8,0:0:0:0:
395,175,44764,1,2,0:0:0:0:
395,175,45063,1,2,0:0:0:0:
208,287,45212,1,8,0:0:0:0:
208,287,45510,6,0,B|188:231|188:231|215:104,1,160,2|8,1:2|1:2,0:0:0:0:
368,50,45958,1,0,1:0:0:0:
368,50,46033,1,0,1:0:0:0:
368,50,46107,2,0,L|374:154,1,80,2|0,1:2|1:0,0:0:0:0:
394,320,46406,1,8,1:2:0:0:
381,205,46555,1,2,1:2:0:0:
267,281,46704,6,0,P|282:304|301:322,1,53.3333333333333,8|0,1:2|0:0,0:0:0:0:
173,241,46903,2,0,P|146:241|120:249,1,53.3333333333333,8|2,1:2|0:0,0:0:0:0:
250,177,47102,2,0,P|261:154|267:128,1,53.3333333333333,8|0,1:2|0:0,0:0:0:0:
341,25,47301,5,8,0:0:0:0:
325,23,47600,5,8,0:0:0:0:
308,23,47899,6,0,P|249:35|226:129,1,160,6|8,0:0|0:0,0:0:0:0:
323,238,48346,1,0,0:0:0:0:
323,238,48421,1,0,0:0:0:0:
323,238,48496,2,0,P|368:241|433:231,1,80,2|0,0:0|0:0,0:0:0:0:
242,294,48794,2,0,P|197:297|132:287,1,80,8|0,0:0|0:0,0:0:0:0:
51,166,49093,6,0,L|53:77,1,80,2|0,0:0|0:0,0:0:0:0:
83,46,49316,1,0,0:0:0:0:
83,46,49391,1,8,0:0:0:0:
173,197,49540,1,0,0:0:0:0:
267,43,49690,2,0,P|306:40|374:45,1,80,2|0,0:0|0:0,0:0:0:0:
397,238,49988,2,0,P|352:240|317:237,1,80,8|0,0:0|0:0,0:0:0:0:
157,119,50287,6,0,P|171:159|172:204,1,80,2|0,0:0|0:0,0:0:0:0:
149,243,50510,1,0,0:0:0:0:
149,243,50585,1,8,0:0:0:0:
261,372,50734,1,0,0:0:0:0:
261,372,50809,1,0,0:0:0:0:
261,372,50884,2,0,L|264:270,1,80,2|0,0:0|0:0,0:0:0:0:
359,177,51182,2,0,L|315:89,1,80,8|0,0:0|0:0,0:0:0:0:
69,101,51481,6,0,L|156:276,1,160,2|8,0:0|0:0,0:0:0:0:
266,274,51928,1,0,0:0:0:0:
277,267,52003,1,0,0:0:0:0:
288,261,52078,5,8,0:3:0:0:
262,241,52152,1,8,0:3:0:0:
246,214,52227,1,8,0:3:0:0:
240,183,52301,1,8,0:3:0:0:
262,141,52376,5,4,0:3:0:0:
258,109,52450,1,4,0:3:0:0:
255,77,52525,1,4,0:3:0:0:
252,45,52599,1,4,0:3:0:0:
224,23,52675,6,0,L|241:196,1,160,6|8,0:0|0:0,0:0:0:0:
148,118,53122,1,0,0:0:0:0:
345,162,53272,2,0,P|386:150|447:158,1,80,2|0,0:0|0:0,0:0:0:0:
512,333,53570,2,0,P|471:321|410:329,1,80,8|0,0:0|0:0,0:0:0:0:
284,267,53869,6,0,P|221:252|130:295,1,160,2|8,0:0|0:0,0:0:0:0:
21,202,54316,1,0,0:0:0:0:
21,202,54391,1,0,0:0:0:0:
21,202,54466,2,0,P|19:154|31:107,1,80,2|0,0:0|0:0,0:0:0:0:
225,222,54764,2,0,P|227:174|215:127,1,80,8|0,0:0|0:0,0:0:0:0:
101,37,55063,5,14,0:0:0:0:
227,254,55212,2,0,L|413:260,1,160,2|2,0:0|0:0,0:0:0:0:
161,308,55660,1,10,0:0:0:0:
161,308,55809,1,2,0:0:0:0:
220,142,55958,1,10,0:0:0:0:
220,142,56107,1,2,0:0:0:0:
386,259,56257,5,8,1:3:0:0:
359,288,56331,1,8,1:3:0:0:
323,306,56406,1,4,1:3:0:0:
283,309,56480,1,4,1:3:0:0:
245,297,56555,1,8,1:3:0:0:
214,272,56630,1,8,1:3:0:0:
194,238,56704,1,4,1:3:0:0:
189,199,56779,1,4,1:3:0:0:
198,160,56854,5,8,1:3:0:0:
214,119,56928,1,8,1:3:0:0:
210,76,57003,1,4,1:3:0:0:
188,38,57077,1,4,1:3:0:0:
152,15,57152,1,8,1:3:0:0:
108,10,57227,1,8,1:3:0:0:
67,24,57301,1,4,1:3:0:0:
37,56,57376,1,4,1:3:0:0:
28,103,57451,5,6,0:0:0:0:
295,213,57600,1,2,0:0:0:0:
28,103,57899,5,2,0:0:0:0:
295,213,58048,1,2,0:0:0:0:
57,283,58197,1,2,0:0:0:0:
57,283,58496,5,4,1:0:0:0:
295,213,58794,1,0,1:0:0:0:
209,338,58943,2,0,L|201:229,1,80,0|0,1:0|0:0,0:0:0:0:
269,85,59242,5,8,0:0:0:0:
289,76,59540,5,8,0:0:0:0:
308,74,59839,6,0,P|372:78|451:184,1,176.000005371094,6|8,0:0|0:0,0:0:0:0:
330,352,60287,2,0,B|306:283|306:283|342:155,1,176.000005371094,2|2,0:0|0:0,0:0:0:0:
385,32,60734,1,8,0:0:0:0:
445,155,60884,1,0,0:0:0:0:
385,32,61033,6,0,P|330:40|265:27,1,88.000002685547,2|0,0:0|0:0,0:0:0:0:
137,12,61331,1,8,0:0:0:0:
137,12,61481,1,2,0:0:0:0:
162,180,61630,1,0,0:0:0:0:
298,36,61779,1,2,0:0:0:0:
323,185,61928,2,0,P|368:193|429:174,1,88.000002685547,8|0,0:0|0:0,0:0:0:0:
474,296,62227,6,0,B|430:319|430:319|310:300,1,132.00000402832,2|0,0:0|0:0,0:0:0:0:
317,312,62525,1,8,0:0:0:0:
285,100,62675,1,2,0:0:0:0:
285,100,62973,1,2,0:0:0:0:
317,312,63122,1,8,0:0:0:0:
406,213,63272,1,0,0:0:0:0:
406,213,63346,1,0,0:0:0:0:
406,213,63421,6,0,B|435:124|351:124|407:19,1,176.000005371094,2|8,0:0|0:0,0:0:0:0:
330,176,63869,1,8,0:0:0:0:
474,124,64018,1,4,0:3:0:0:
500,145,64092,1,4,0:3:0:0:
504,179,64167,1,4,0:3:0:0:
484,207,64241,1,4,0:3:0:0:
450,213,64316,5,8,0:3:0:0:
406,213,64390,1,8,0:3:0:0:
372,240,64465,1,8,0:3:0:0:
360,281,64539,1,8,0:3:0:0:
375,322,64615,6,0,P|408:362|526:339,1,176.000005371094,6|8,0:0|0:0,0:0:0:0:
484,207,65063,1,2,0:0:0:0:
360,281,65212,2,0,L|260:284,1,88.000002685547,0|2,0:0|0:0,0:0:0:0:
89,179,65510,2,0,L|189:182,1,88.000002685547,8|0,0:0|0:0,0:0:0:0:
377,133,65809,6,0,P|384:75|319:26,1,132.00000402832,2|0,0:0|0:0,0:0:0:0:
303,9,66107,1,8,0:0:0:0:
490,189,66257,1,2,0:0:0:0:
311,98,66406,2,0,L|214:96,1,88.000002685547,0|2,0:0|0:0,0:0:0:0:
16,123,66704,1,8,0:0:0:0:
16,123,67003,6,0,L|128:117,1,107.999996704102,2|0,0:0|0:0,0:0:0:0:
148,144,67301,1,8,0:1:0:0:
43,324,67451,1,2,0:1:0:0:
211,204,67600,5,8,0:1:0:0:
30,335,67749,1,2,0:1:0:0:
259,275,67899,5,8,0:1:0:0:
17,346,68048,1,2,0:1:0:0:
272,351,68197,5,0,1:0:0:0:
289,266,68346,1,0,1:0:0:0:
254,186,68496,1,0,1:0:0:0:
277,103,68645,1,0,1:0:0:0:
136,147,68794,5,8,1:3:0:0:
108,137,68868,1,8,1:3:0:0:
80,129,68943,1,8,1:3:0:0:
53,119,69017,1,8,1:3:0:0:
18,83,69092,5,4,1:3:0:0:
54,80,69167,1,4,1:3:0:0:
90,78,69242,1,4,1:3:0:0:
126,76,69316,1,4,1:3:0:0:
160,44,69391,6,0,B|203:66|203:66|340:56,1,176.000005371094,6|8,0:0|0:0,0:0:0:0:
464,136,69839,2,0,P|494:217|477:302,1,176.000005371094,2|2,0:0|0:0,0:0:0:0:
275,329,70287,1,8,0:0:0:0:
275,329,70585,6,0,B|144:346|144:346|191:281,1,176.000005371094,2|8,0:0|0:0,0:0:0:0:
222,187,71033,1,2,0:0:0:0:
61,257,71182,1,0,0:0:0:0:
178,384,71331,1,2,0:0:0:0:
154,153,71481,2,0,L|145:49,1,88.000002685547,8|0,0:0|0:0,0:0:0:0:
61,257,71779,6,0,P|99:313|192:316,1,132.00000402832,2|0,0:0|0:0,0:0:0:0:
186,310,72078,1,8,0:0:0:0:
48,158,72227,1,2,0:0:0:0:
56,142,72525,1,2,1:2:0:0:
202,46,72675,1,8,1:2:0:0:
213,39,72749,1,0,1:0:0:0:
225,33,72824,6,0,B|264:20|299:55|299:55|349:33|399:58,1,176.000005371094,0|0,1:0|0:0,0:0:0:0:
512,174,73272,1,8,0:0:0:0:
498,174,73346,1,0,0:0:0:0:
484,174,73421,1,0,0:0:0:0:
350,128,73570,1,10,0:0:0:0:
338,141,73869,6,0,L|279:149,1,44.0000013427735,10|0,0:0|0:0,0:0:0:0:
215,253,74018,2,0,L|158:235,1,44.0000013427735
40,257,74167,6,0,B|104:287|104:287|102:313|121:337|121:337|148:335|171:318|171:318|274:351,1,264.000008056641,6|2,0:1|0:1,0:0:0:0:
436,264,74764,1,8,0:1:0:0:
436,264,75361,6,0,B|424:222|437:168|437:168|408:147|408:147|433:98|407:45|343:29,1,264.000008056641,2|2,0:1|0:1,0:0:0:0:
173,17,75958,1,8,0:1:0:0:
256,192,76555,12,0,77525,0:0:0:0:
104,262,77600,5,2,0:1:0:0:
132,264,78048,5,2,0:1:0:0:
158,257,78496,6,0,B|214:228|215:160|215:160|257:187|308:166,1,184.000003509522,2|2,0:1|0:0,0:0:0:0:
267,92,78869,1,2,0:0:0:0:
267,92,78943,6,0,P|310:67|468:96,1,176.000005371094,6|8,0:0|0:0,0:0:0:0:
512,228,79391,2,0,B|448:249|448:249|311:198,1,176.000005371094,2|2,0:0|0:0,0:0:0:0:
182,142,79839,1,8,0:0:0:0:
182,142,80137,5,2,0:0:0:0:
201,295,80287,1,0,0:0:0:0:
246,95,80436,1,8,0:0:0:0:
196,307,80585,1,2,0:0:0:0:
296,207,80734,5,0,0:0:0:0:
109,228,80884,1,2,0:0:0:0:
329,283,81033,2,0,P|366:254|376:190,1,88.000002685547,8|0,0:0|0:0,0:0:0:0:
324,52,81331,6,0,L|113:46,1,176.000005371094,2|8,0:0|0:0,0:0:0:0:
35,186,81779,1,2,0:0:0:0:
35,186,81854,1,0,0:0:0:0:
35,186,81928,2,0,P|21:242|32:291,1,88.000002685547,0|2,0:0|0:0,0:0:0:0:
180,337,82227,2,0,B|224:328|224:328|279:337,1,88.000002685547,8|0,0:0|0:0,0:0:0:0:
462,308,82525,5,2,0:0:0:0:
271,260,82675,1,0,0:0:0:0:
446,384,82824,1,8,0:0:0:0:
273,236,82973,1,2,0:0:0:0:
449,169,83122,6,0,L|455:110,1,44.0000013427735,0|0,1:0|1:0,0:0:0:0:
324,26,83272,2,0,L|328:69,1,44.0000013427735,0|0,1:0|0:0,0:0:0:0:
229,158,83421,1,0,1:0:0:0:
190,177,83495,1,0,1:0:0:0:
146,181,83570,1,0,1:0:0:0:
105,167,83644,1,0,1:0:0:0:
72,138,83719,6,0,L|68:38,1,88.000002685547,6|0,0:0|0:0,0:0:0:0:
238,21,84018,1,8,0:0:0:0:
146,181,84167,1,2,0:0:0:0:
146,181,84242,1,0,0:0:0:0:
146,181,84316,2,0,L|144:279,1,88.000002685547,0|2,0:0|0:0,0:0:0:0:
290,350,84615,1,8,0:0:0:0:
99,343,84764,6,0,P|63:303|106:190,1,176.000005371094,0|0,0:0|0:0,0:0:0:0:
244,160,85212,1,8,0:0:0:0:
144,268,85361,1,2,0:0:0:0:
102,81,85510,1,0,0:0:0:0:
102,81,85660,1,2,0:0:0:0:
298,103,85809,1,8,0:0:0:0:
144,268,85958,6,0,B|240:244|221:304|325:281,1,176.000005371094
446,161,86406,1,8,0:0:0:0:
459,288,86555,1,2,0:0:0:0:
281,195,86704,2,0,P|284:134|303:72,1,88.000002685547,0|2,0:0|0:0,0:0:0:0:
179,348,87003,1,8,0:0:0:0:
143,185,87152,1,0,0:0:0:0:
71,360,87301,5,2,0:0:0:0:
28,177,87451,1,0,0:0:0:0:
8,143,87525,1,8,0:3:0:0:
12,121,87600,1,2,0:0:0:0:
128,21,87749,1,2,0:0:0:0:
177,205,87899,1,2,0:0:0:0:
260,103,88048,1,8,0:3:0:0:
284,73,88122,1,8,0:3:0:0:
305,70,88197,1,4,0:3:0:0:
279,296,88346,6,0,L|276:320,2,22.0000006713867,4|0|0,0:3|0:0|0:0,0:0:0:0:
