osu file format v14

[General]
AudioFilename: qwq.mp3
AudioLeadIn: 0
PreviewTime: 59167
Countdown: 0
SampleSet: Soft
StackLeniency: 0.7
Mode: 0
LetterboxInBreaks: 0
EpilepsyWarning: 1
WidescreenStoryboard: 1

[Editor]
Bookmarks: 47899
DistanceSpacing: 0.9
BeatDivisor: 4
GridSize: 4
TimelineZoom: 1.8

[Metadata]
Title:Paradisus-Paradoxum
TitleUnicode:Paradisus-Paradoxum
Artist:MYTH & ROID
ArtistUnicode:MYTH & ROID
Creator:wajinshu
Version:COLLAB NORMAL
Source:Re:ゼロから始める異世界生活
Tags:second opening re: zero kara hajimeru isekai seikatsu life in a different world from kalibe fcl tv size taeyang shmiklak slayed yoshikawa hoshi marvollo m_a_r_v_o_l_l_o
BeatmapID:1092359
BeatmapSetID:514181

[Difficulty]
HPDrainRate:3.4
CircleSize:3.3
OverallDifficulty:4.3
ApproachRate:5.5
SliderMultiplier:0.999999999999999
SliderTickRate:1

[Events]
//Background and Video events
0,0,"thanks.jpg",0,0
//Break Periods
//Storyboard Layer 0 (Background)
//Storyboard Layer 1 (Fail)
//Storyboard Layer 2 (Pass)
//Storyboard Layer 3 (Foreground)
Sprite,Foreground,Centre,"SB\effects\highlight.png",446,287 F,0,9690,10288,0.75,0 S,0,9690,10288,1,0.75 C,0,9690,10288,209,150,78
Sprite,Foreground,Centre,"SB\effects\highlight.png",322,190 F,0,13272,13870,0.75,0 S,0,13272,13870,1,0.75 C,0,13272,13870,128,64,64
Sprite,Foreground,Centre,"SB\effects\highlight.png",322,190 F,0,14466,14764,0.75,0 S,0,14466,14764,1,0.75 C,0,14466,14764,128,64,64
Sprite,Foreground,Centre,"SB\effects\highlight.png",497,234 F,0,15063,15510,1,0 S,0,15063,15510,1.2,0.75 C,0,15063,15510,255,43,43
Sprite,Foreground,Centre,"SB\effects\highlight.png",400,233 F,0,15361,15660,1,0 S,0,15361,15660,1,0.75 C,0,15361,15660,255,43,43
Sprite,Foreground,Centre,"SB\effects\highlight.png",322,190 F,0,15660,16257,1,0 S,0,15660,16257,1.2,0.75 C,0,15660,16257,255,43,43
Sprite,Foreground,Centre,"SB\effects\highlight.png",229,326 F,0,16257,16704,1,0 S,0,16257,16704,1.2,0.75 C,0,16257,16704,255,43,43
Sprite,Foreground,Centre,"SB\effects\highlight.png",132,314 F,0,16555,16854,1,0 S,0,16555,16854,1,0.75 C,0,16555,16854,255,43,43
Sprite,Foreground,Centre,"SB\effects\highlight.png",168,396 F,0,16854,17749,1,0 S,0,16854,17749,1.2,0.75 C,0,16854,17749,209,150,78
Sprite,Foreground,Centre,"SB\effects\highlight.png",234,237 F,0,17899,18497,0.75,0 S,0,17899,18497,1.2,0.75 C,0,17899,18497,209,150,78
Sprite,Foreground,Centre,"SB\effects\highlight.png",105,278 F,0,18346,18944,0.75,0 S,0,18346,18944,1.2,0.75 C,0,18346,18944,209,150,78
Sprite,Foreground,Centre,"SB\effects\highlight.png",66,148 F,0,18794,19392,0.75,0 S,0,18794,19392,1.2,0.75 C,0,18794,19392,209,150,78
Sprite,Foreground,Centre,"SB\effects\highlight.png",198,120 F,0,19242,19840,0.75,0 S,0,19242,19840,1.2,0.75 C,0,19242,19840,128,64,64
Sprite,Foreground,Centre,"SB\effects\highlight.png",459,163 F,0,27600,28198,0.75,0 S,0,27600,28198,1,0.75 C,0,27600,28198,128,64,64
Sprite,Foreground,Centre,"SB\effects\highlight.png",509,158 F,0,27749,28347,0.75,0 S,0,27749,28347,1,0.75 C,0,27749,28347,128,64,64
Sprite,Foreground,Centre,"SB\effects\highlight.png",459,163 F,0,27899,28497,0.75,0 S,0,27899,28497,1,0.75 C,0,27899,28497,128,64,64
Sprite,Foreground,Centre,"SB\effects\highlight.png",418,288 F,0,28346,28944,0.75,0 S,0,28346,28944,1,0.75 C,0,28346,28944,128,64,64
Sprite,Foreground,Centre,"SB\effects\highlight.png",433,330 F,0,28496,29094,0.75,0 S,0,28496,29094,1,0.75 C,0,28496,29094,128,64,64
Sprite,Foreground,Centre,"SB\effects\highlight.png",424,377 F,0,28645,29243,0.75,0 S,0,28645,29243,1,0.75 C,0,28645,29243,128,64,64
Sprite,Foreground,Centre,"SB\effects\highlight.png",440,420 F,0,28794,29392,1,0 S,0,28794,29392,1.2,0.75 C,0,28794,29392,255,43,43
Sprite,Foreground,Centre,"SB\effects\highlight.png",142,310 F,0,37152,37451,0.75,1 S,0,37152,37749,1 C,0,37152,37749,255,43,43,255,100,100 F,0,37451,37749,1,0
Sprite,Foreground,Centre,"SB\effects\highlight.png",216,205 F,0,38346,38944,0.75,0 S,0,38346,38944,1,0.75 C,0,38346,38944,255,43,43
Sprite,Foreground,Centre,"SB\effects\highlight.png",295,366 F,0,42525,43123,0.75,0 S,0,42525,43123,1,0.75 C,0,42525,43123,128,64,64
Sprite,Foreground,Centre,"SB\effects\highlight.png",336,348 F,0,42674,43272,0.75,0 S,0,42674,43272,1,0.75 C,0,42674,43272,128,64,64
Sprite,Foreground,Centre,"SB\effects\highlight.png",436,358 F,0,42973,43571,0.75,0 S,0,42973,43571,1,0.75 C,0,42973,43571,128,64,64
Sprite,Foreground,Centre,"SB\effects\highlight.png",473,334 F,0,43122,43720,1,0 S,0,43122,43720,1.2,0.75 C,0,43122,43720,255,43,43
Sprite,Foreground,Centre,"SB\effects\highlight.png",195,365 F,0,45510,46108,0.75,0 S,0,45510,46108,1,0.75 C,0,45510,46108,209,150,78
Sprite,Foreground,Centre,"SB\effects\highlight.png",561,284 F,0,47003,47601,0.75,0 S,0,47003,47601,1,0.75 C,0,47003,47601,209,150,78
Sprite,Foreground,Centre,"SB\effects\highlight.png",530,105 F,0,47600,48198,0.75,0 S,0,47600,48198,1,0.75 C,0,47600,48198,209,150,78
Sprite,Foreground,Centre,"SB\effects\highlight.png",443,75 F,0,47899,48497,1,0 S,0,47899,48497,1.2,0.75 C,0,47899,48497,128,64,64
Sprite,Foreground,Centre,"SB\effects\highlight.png",561,366 F,0,52078,52676,0.75,0 S,0,52078,52676,1,0.75 C,0,52078,52676,255,43,43
Sprite,Foreground,Centre,"SB\effects\highlight.png",461,371 F,0,52376,52974,0.75,0 S,0,52376,52974,1,0.75 C,0,52376,52974,255,43,43
Sprite,Foreground,Centre,"SB\effects\highlight.png",384,324 F,0,52675,53273,1,0 S,0,52675,53273,1.2,0.75 C,0,52675,53273,209,150,78
Sprite,Foreground,Centre,"SB\effects\highlight.png",392,110 F,0,55063,55661,0.75,0 S,0,55063,55661,1,0.75 C,0,55063,55661,128,64,64
Sprite,Foreground,Centre,"SB\effects\highlight.png",398,264 F,0,55660,56258,0.75,0 S,0,55660,56258,1,0.75 C,0,55660,56258,128,64,64
Sprite,Foreground,Centre,"SB\effects\highlight.png",312,290 F,0,55958,56556,0.75,0 S,0,55958,56556,1,0.75 C,0,55958,56556,128,64,64
Sprite,Foreground,Centre,"SB\effects\highlight.png",226,318 F,0,56257,56855,0.75,0 S,0,56257,56855,1,0.75 C,0,56257,56855,128,64,64
Sprite,Foreground,Centre,"SB\effects\highlight.png",235,417 F,0,56555,57153,0.75,0 S,0,56555,57153,1,0.75 C,0,56555,57153,128,64,64
Sprite,Foreground,Centre,"SB\effects\highlight.png",226,318 F,0,56853,57451,0.75,0 S,0,56853,57451,1,0.75 C,0,56853,57451,255,43,43
Sprite,Foreground,Centre,"SB\effects\highlight.png",252,230 F,0,57152,57750,0.75,0 S,0,57152,57750,1,0.75 C,0,57152,57750,255,43,43
Sprite,Foreground,Centre,"SB\effects\highlight.png",328,178 F,0,57451,58049,0.75,0 S,0,57451,58049,1,2.75 C,0,57451,58049,255,43,43
Sprite,Foreground,Centre,"SB\effects\highlight.png",409,258 F,0,57899,58497,0.75,0 S,0,57899,58497,1,0.75 C,0,57899,58497,255,43,43
Sprite,Foreground,Centre,"SB\effects\highlight.png",323,262 F,0,58048,58646,0.75,0 S,0,58048,58646,1,0.75 C,0,58048,58646,255,43,43
Sprite,Foreground,Centre,"SB\effects\highlight.png",409,258 F,0,58197,58795,0.75,0 S,0,58197,58795,1,0.75 C,0,58197,58795,255,43,43
Sprite,Foreground,Centre,"SB\effects\highlight.png",473,194 F,0,58496,59094,0.75,0 S,0,58496,59094,1,2.75 C,0,58496,59094,255,43,43
Sprite,Foreground,Centre,"SB\effects\highlight.png",467,328 F,0,58943,59541,0.75,0 S,0,58943,59541,1,0.75 C,0,58943,59541,255,43,43
Sprite,Foreground,Centre,"SB\effects\highlight.png",467,327 F,0,59839,60437,0.75,0 S,0,59839,60437,1,2.75 C,0,59839,60437,209,150,78
Sprite,Foreground,Centre,"SB\effects\highlight.png",238,254 F,0,63570,64167,0.75,0 S,0,63570,64167,1,0.75 C,0,63570,64167,128,64,64
Sprite,Foreground,Centre,"SB\effects\highlight.png",278,273 F,0,63719,64316,0.75,0 S,0,63719,64316,1,0.75 C,0,63719,64316,128,64,64
Sprite,Foreground,Centre,"SB\effects\highlight.png",360,308 F,0,64018,64615,0.75,0 S,0,64018,64615,1,0.75 C,0,64018,64615,128,64,64
Sprite,Foreground,Centre,"SB\effects\highlight.png",460,307 F,0,64316,64913,0.75,0 S,0,64316,64913,1,0.75 C,0,64316,64913,128,64,64
Sprite,Foreground,Centre,"SB\effects\highlight.png",543,274 F,0,64615,65213,0.75,0 S,0,64615,65213,1,2.75 C,0,64615,65213,255,43,43
Sprite,Foreground,Centre,"SB\effects\highlight.png",454,166 F,1,67899,68496,0.75,0 S,0,67899,68496,1,0.75 C,0,67899,68496,209,150,78
Sprite,Foreground,Centre,"SB\effects\highlight.png",521,106 F,0,68197,68794,0.75,0 S,0,68197,68794,1,0.75 C,0,68197,68794,209,150,78
Sprite,Foreground,Centre,"SB\effects\highlight.png",538,200 F,0,68496,69093,0.75,0 S,0,68496,69093,1,0.75 C,0,68496,69093,209,150,78
Sprite,Foreground,Centre,"SB\effects\highlight.png",470,261 F,0,68794,69391,0.75,0 S,0,68794,69391,1,0.75 C,0,68794,69391,209,150,78
Sprite,Foreground,Centre,"SB\effects\highlight.png",370,263 F,0,69092,69689,0.75,0 S,0,69092,69689,1,0.75 C,0,69092,69689,209,150,78
Sprite,Foreground,Centre,"SB\effects\highlight.png",317,336 F,0,69391,69988,0.75,0 S,0,69391,69988,1,2.75 C,0,69391,69988,128,64,64
Sprite,Foreground,Centre,"SB\effects\highlight.png",253,195 F,1,73272,73869,0.75,0 S,0,73272,73869,1.2,1 C,0,73272,73869,255,43,43
Sprite,Foreground,Centre,"SB\effects\highlight.png",394,184 F,1,73570,74167,0.75,0 S,0,73570,74167,1.2 C,0,73570,74167,255,43,43
Sprite,Foreground,Centre,"SB\effects\highlight.png",253,195 F,1,73869,74466,0.75,0 S,0,73869,74466,1.2,1.4 C,0,73869,74466,255,43,43
Sprite,Foreground,Centre,"SB\effects\highlight.png",213,114 F,0,74167,74764,0.75,0 S,0,74167,74764,1.2,1.6 C,0,74167,74764,209,150,78
Sprite,Foreground,Centre,"SB\effects\highlight.png",129,253 F,0,74764,75212,0.75,0 S,0,74764,75212,1,0.75 C,0,74764,75212,209,150,78
Sprite,Foreground,Centre,"SB\effects\highlight.png",130,153 F,0,75063,75361,0.75,0 S,0,75063,75361,1,0.75 C,0,75063,75361,209,150,78
Sprite,Foreground,Centre,"SB\effects\highlight.png",206,104 F,0,75361,75958,0.75,0 S,0,75361,75958,1.2,0.75 C,0,75361,75958,209,150,78
Sprite,Foreground,Centre,"SB\effects\highlight.png",373,155 F,0,75958,76406,0.75,0 S,0,75958,76406,1,0.75 C,0,75958,76406,209,150,78
Sprite,Foreground,Centre,"SB\effects\highlight.png",473,163 F,0,76257,76555,0.75,0 S,0,76257,76555,1,0.75 C,0,76257,76555,209,150,78
Sprite,Foreground,Centre,"SB\effects\highlight.png",516,241 F,0,76555,77451,0.75,0 S,0,76555,77451,1.2,0.75 C,0,76555,77451,128,64,64
Sprite,Foreground,Centre,"SB\effects\highlight.png",274,309 F,0,77600,78197,0.75,0 S,0,77600,78197,1.2,0.75 C,0,77600,78197,128,64,64
Sprite,Foreground,Centre,"SB\effects\highlight.png",356,416 F,0,78048,78645,0.75,0 S,0,78048,78645,1.2,0.75 C,0,78048,78645,128,64,64
Sprite,Foreground,Centre,"SB\effects\highlight.png",477,357 F,0,78496,79093,0.75,0 S,0,78496,79093,1.2,0.75 C,0,78496,79093,128,64,64
Sprite,Foreground,Centre,"SB\effects\highlight.png",479,257 F,0,78794,79391,0.75,0 S,0,78794,79391,1,0.75 C,0,78794,79391,128,64,64
Sprite,Foreground,Centre,"SB\effects\highlight.png",477,212 F,0,78943,79540,0.75,0 S,0,78943,79540,1.2,0.75 C,0,78943,79540,255,43,43
Sprite,Foreground,Centre,"SB\effects\highlight.png",389,371 F,0,83122,83719,0.75,0 S,0,83122,83719,1,0.75 C,0,83122,83719,209,150,78
Sprite,Foreground,Centre,"SB\effects\highlight.png",290,373 F,0,83421,84018,0.75,0 S,0,83421,84018,1,0.75 C,0,83421,84018,209,150,78
Sprite,Foreground,Centre,"SB\effects\highlight.png",211,328 F,0,83719,84316,0.75,0 S,0,83719,84316,1.2,0.75 C,0,83719,84316,128,64,64
Sprite,Foreground,Centre,"SB\effects\ring.png",359,186 F,2,88346,89391,1,0 S,1,88346,89391,0,1 C,0,88346,89391,128,64,64
//Storyboard Sound Samples

[TimingPoints]
7302,298.507462686567,4,2,11,60,1,0
7376,-100,4,2,11,30,0,0
7451,-100,4,2,11,60,0,0
7749,-100,4,2,11,80,0,0
7824,-100,4,2,11,40,0,0
7899,-100,4,2,11,80,0,0
7973,-100,4,2,11,40,0,0
8048,-100,4,2,11,80,0,0
8346,-100,4,2,11,70,0,0
8496,-100,4,2,11,35,0,0
8645,-100,4,2,11,70,0,0
8719,-100,4,2,11,25,0,0
8794,-100,4,2,11,70,0,0
8869,-100,4,2,11,25,0,0
9093,-100,4,2,11,40,0,0
9316,-100,4,2,11,5,0,0
9391,-100,4,2,11,30,0,0
9615,-100,4,2,11,5,0,0
9690,-100,4,2,12,80,0,0
9764,-100,4,2,12,70,0,0
13272,-100,4,2,12,75,0,0
13346,-100,4,2,12,70,0,0
13421,-100,4,2,12,65,0,0
13496,-100,4,2,12,60,0,0
13570,-100,4,2,12,55,0,0
13645,-100,4,2,12,50,0,0
13719,-100,4,2,12,45,0,0
13794,-100,4,2,12,40,0,0
13869,-100,4,2,12,45,0,0
13943,-100,4,2,12,50,0,0
14018,-100,4,2,12,55,0,0
14093,-100,4,2,12,60,0,0
14167,-100,4,2,12,65,0,0
14242,-100,4,2,12,70,0,0
14316,-100,4,2,12,75,0,0
14391,-100,4,2,12,80,0,0
14466,-100,4,2,11,70,0,0
15063,-100,4,2,11,60,0,0
15137,-100,4,2,11,30,0,0
15361,-100,4,2,11,45,0,0
15660,-100,4,2,11,70,0,0
16257,-100,4,2,11,60,0,0
16331,-100,4,2,11,30,0,0
16555,-100,4,2,11,45,0,0
16854,-100,4,2,11,70,0,0
17749,-100,4,2,11,30,0,0
17899,-100,4,2,11,60,0,0
17973,-100,4,2,11,5,0,0
18346,-100,4,2,11,70,0,0
18421,-100,4,2,11,5,0,0
18794,-100,4,2,11,80,0,0
18869,-100,4,2,11,5,0,0
18943,-100,4,2,11,40,0,0
19018,-100,4,2,11,50,0,0
19093,-100,4,2,11,60,0,0
19167,-100,4,2,11,70,0,0
19242,-100,4,2,12,80,0,0
19316,-100,4,2,12,70,0,0
27899,-100,4,2,12,75,0,0
27973,-100,4,2,12,70,0,0
28048,-100,4,2,12,65,0,0
28122,-100,4,2,12,60,0,0
28197,-100,4,2,12,55,0,0
28346,-100,4,2,12,50,0,0
28496,-100,4,2,12,55,0,0
28570,-100,4,2,12,60,0,0
28645,-100,4,2,12,65,0,0
28719,-100,4,2,12,70,0,0
28794,-100,4,2,12,80,0,0
29093,-100,4,2,11,40,0,0
30436,-100,4,2,11,45,0,0
30884,-100,4,2,11,50,0,0
31107,-100,4,2,11,5,0,0
31182,-100,4,2,11,40,0,0
32675,-100,4,2,11,45,0,0
33122,-100,4,2,11,50,0,0
33570,-100,4,2,11,40,0,0
34466,-100,4,2,11,45,0,0
35063,-100,4,2,11,50,0,0
35660,-100,4,2,11,40,0,0
36555,-100,4,2,11,45,0,0
37152,-100,4,2,11,50,0,0
37600,-100,4,2,11,55,0,0
38048,-100,4,2,13,60,0,0
38122,-100,4,2,13,5,0,0
38197,-100,4,2,13,60,0,0
38272,-100,4,2,13,5,0,0
38346,-100,4,2,12,70,0,0
38421,-100,4,2,12,60,0,0
42525,-100,4,2,12,30,0,0
42600,-100,4,2,12,35,0,0
42675,-100,4,2,12,40,0,0
42749,-100,4,2,12,45,0,0
42824,-100,4,2,12,50,0,0
42899,-100,4,2,12,55,0,0
42973,-100,4,2,12,60,0,0
43048,-100,4,2,12,65,0,0
43122,-100,4,2,12,70,0,0
43197,-100,4,2,12,60,0,0
45510,-100,4,2,12,40,0,0
45585,-100,4,2,12,42,0,0
45660,-100,4,2,12,44,0,0
45734,-100,4,2,12,46,0,0
45809,-100,4,2,12,48,0,0
45884,-100,4,2,12,52,0,0
45958,-100,4,2,12,54,0,0
46033,-100,4,2,12,56,0,0
46107,-100,4,2,12,58,0,0
46182,-100,4,2,12,60,0,0
46257,-100,4,2,12,62,0,0
46331,-100,4,2,12,64,0,0
46406,-100,4,2,12,66,0,0
46481,-100,4,2,12,68,0,0
46555,-100,4,2,12,70,0,0
46630,-100,4,2,12,72,0,0
46704,-100,4,2,12,75,0,0
47102,-100,4,2,12,80,0,0
47152,-100,4,2,12,30,0,0
47301,-100,4,2,11,35,0,0
47525,-100,4,2,11,5,0,0
47600,-100,4,2,11,45,0,0
47824,-100,4,2,11,5,0,0
47899,-100,4,2,12,70,0,0
47973,-100,4,2,12,60,0,0
52078,-100,4,2,12,70,0,0
52152,-100,4,2,12,65,0,0
52227,-100,4,2,12,60,0,0
52301,-100,4,2,12,55,0,0
52376,-100,4,2,12,50,0,0
52451,-100,4,2,12,45,0,0
52525,-100,4,2,12,40,0,0
52600,-100,4,2,12,35,0,0
52675,-100,4,2,12,70,0,0
52749,-100,4,2,12,60,0,0
55063,-100,4,2,12,65,0,0
55361,-100,4,2,12,70,0,0
55660,-100,4,2,12,75,0,0
55958,-100,4,2,12,80,0,0
56257,-100,4,2,12,60,0,0
56331,-100,4,2,12,62,0,0
56406,-100,4,2,12,64,0,0
56481,-100,4,2,12,66,0,0
56555,-100,4,2,12,68,0,0
56630,-100,4,2,12,70,0,0
56704,-100,4,2,12,72,0,0
56779,-100,4,2,12,74,0,0
56854,-100,4,2,12,76,0,0
56928,-100,4,2,12,78,0,0
57003,-100,4,2,12,80,0,0
57078,-100,4,2,12,82,0,0
57152,-100,4,2,12,84,0,0
57227,-100,4,2,12,86,0,0
57301,-100,4,2,12,88,0,0
57376,-100,4,2,12,90,0,0
57451,-100,4,2,12,95,0,0
57899,-100,4,2,12,90,0,0
59242,-100,4,2,11,40,0,0
59540,-100,4,2,11,60,0,0
59839,-100,4,2,12,90,0,0
59913,-100,4,2,12,80,0,0
64018,-100,4,2,12,70,0,0
64093,-100,4,2,12,72,0,0
64167,-100,4,2,12,74,0,0
64242,-100,4,2,12,76,0,0
64316,-100,4,2,12,78,0,0
64391,-100,4,2,12,80,0,0
64466,-100,4,2,12,82,0,0
64540,-100,4,2,12,84,0,0
64615,-100,4,2,12,90,0,0
64690,-100,4,2,12,80,0,0
67301,-100,4,2,11,90,0,0
67600,-100,4,2,11,80,0,0
67899,-100,4,2,11,70,0,0
68197,-100,4,2,12,68,0,0
68272,-100,4,2,12,66,0,0
68346,-100,4,2,12,64,0,0
68421,-100,4,2,12,62,0,0
68496,-100,4,2,12,60,0,0
68570,-100,4,2,12,58,0,0
68645,-100,4,2,12,56,0,0
68719,-100,4,2,12,54,0,0
68794,-100,4,2,12,56,0,0
68869,-100,4,2,12,59,0,0
68943,-100,4,2,12,62,0,0
69018,-100,4,2,12,65,0,0
69093,-100,4,2,12,68,0,0
69167,-100,4,2,12,72,0,0
69242,-100,4,2,12,78,0,0
69316,-100,4,2,12,84,0,0
69391,-100,4,2,12,90,0,0
69466,-100,4,2,12,80,0,0
72973,-100,4,2,12,60,0,0
73197,-100,4,2,12,5,0,0
73272,-100,4,2,12,70,0,0
73496,-100,4,2,12,5,0,0
73570,-100,4,2,12,80,0,0
73794,-100,4,2,12,5,0,0
73869,-100,4,2,12,90,0,0
74093,-100,4,2,12,5,0,0
74167,-100,4,2,11,70,0,0
74764,-100,4,2,11,60,0,0
74838,-100,4,2,11,30,0,0
75062,-100,4,2,11,45,0,0
75361,-100,4,2,11,70,0,0
75958,-100,4,2,11,60,0,0
76032,-100,4,2,11,30,0,0
76256,-100,4,2,11,45,0,0
76555,-100,4,2,11,70,0,0
77450,-100,4,2,11,30,0,0
77600,-100,4,2,11,60,0,0
77674,-100,4,2,11,5,0,0
78047,-100,4,2,11,70,0,0
78122,-100,4,2,11,5,0,0
78495,-100,4,2,11,80,0,0
78570,-100,4,2,11,5,0,0
78644,-100,4,2,11,40,0,0
78719,-100,4,2,11,50,0,0
78794,-100,4,2,11,60,0,0
78868,-100,4,2,11,70,0,0
78943,-100,4,2,12,80,0,0
79018,-100,4,2,12,70,0,0
83122,-100,4,2,12,54,0,0
83197,-100,4,2,12,56,0,0
83272,-100,4,2,12,58,0,0
83346,-100,4,2,12,60,0,0
83421,-100,4,2,12,62,0,0
83496,-100,4,2,12,64,0,0
83570,-100,4,2,12,66,0,0
83645,-100,4,2,12,68,0,0
83719,-100,4,2,12,70,0,0

[Colours]
Combo1 : 128,64,64
Combo2 : 255,43,43
Combo3 : 209,150,78

[HitObjects]
132,141,7301,6,0,L|121:214,1,50,2|2,0:1|0:1,0:0:0:0:
192,249,7749,2,0,L|200:314,2,50,8|8|8,0:1|0:1|0:1,0:0:0:0:
262,193,8346,2,0,P|329:180|386:252,1,150,2|8,0:1|0:1,0:0:0:0:
382,233,9690,6,0,P|388:142|391:116,1,99.9999999999999,6|8,0:0|0:0,0:0:0:0:
361,97,10137,2,0,P|327:73|254:88,1,99.9999999999999,2|2,0:0|0:0,0:0:0:0:
231,99,10585,1,8,0:0:0:0:
163,159,10884,2,0,P|67:155|45:153,1,99.9999999999999,2|8,0:0|0:0,0:0:0:0:
90,240,11481,2,0,P|102:284|86:349,1,99.9999999999999,0|8,0:0|0:0,0:0:0:0:
180,356,12078,6,0,P|269:352|295:350,1,99.9999999999999,2|8,0:0|0:0,0:0:0:0:
318,328,12525,2,0,P|343:292|332:219,1,99.9999999999999,2|2,0:0|0:0,0:0:0:0:
327,194,12973,1,8,0:0:0:0:
258,136,13272,2,0,B|155:93|154:173|46:127,2,200,8|0|6,0:3|1:0|0:1,0:0:0:0:
336,179,14764,6,0,P|397:189|447:173,2,99.9999999999999,0|8|8,0:0|0:1|0:0,0:0:0:0:
258,136,15660,2,0,L|246:253,1,99.9999999999999,2|0,0:1|0:0,0:0:0:0:
165,272,16257,2,0,P|115:248|55:262,1,99.9999999999999,8|8,0:1|0:0,0:0:0:0:
104,342,16854,6,0,P|201:357|163:179,1,350,2|2,0:1|0:1,0:0:0:0:
40,222,18346,1,2,0:1:0:0:
2,94,18794,1,2,0:1:0:0:
134,66,19242,6,0,P|228:75|251:77,1,99.9999999999999,6|8,0:0|0:0,0:0:0:0:
272,97,19690,1,2,0:0:0:0:
272,97,19839,2,0,P|287:161|274:203,1,99.9999999999999,0|8,0:0|0:0,0:0:0:0:
221,262,20436,2,0,P|315:254|339:252,1,99.9999999999999,2|8,0:0|0:0,0:0:0:0:
364,244,20884,2,0,P|428:231|478:246,1,99.9999999999999,2|2,0:0|0:0,0:0:0:0:
500,259,21331,1,8,0:0:0:0:
460,339,21630,6,0,P|383:336|348:337,1,99.9999999999999,2|8,0:0|0:0,0:0:0:0:
316,346,22078,1,2,0:0:0:0:
316,346,22227,2,0,P|251:352|207:341,1,99.9999999999999,0|8,0:0|0:0,0:0:0:0:
150,284,22824,2,0,P|155:216|158:177,1,99.9999999999999,2|8,0:0|0:0,0:0:0:0:
142,141,23272,2,0,P|131:99|141:44,1,99.9999999999999,2|2,0:0|0:0,0:0:0:0:
173,12,23719,2,0,L|236:26,1,50,8|0,0:0|0:0,0:0:0:0:
262,43,24018,6,0,P|329:31|378:44,1,99.9999999999999,6|8,0:0|0:0,0:0:0:0:
399,58,24466,2,0,P|390:147|388:175,1,99.9999999999999,2|2,0:0|0:0,0:0:0:0:
419,190,24913,1,8,0:0:0:0:
442,277,25212,2,0,P|387:268|325:258,1,99.9999999999999,2|8,0:0|0:0,0:0:0:0:
304,284,25660,2,0,P|227:293|193:279,1,99.9999999999999,2|2,0:0|0:0,0:0:0:0:
170,260,26107,1,8,0:0:0:0:
170,260,26257,6,0,P|165:200|156:95,1,150,0|8,0:0|0:0,0:0:0:0:
188,78,26854,1,2,0:0:0:0:
230,59,27003,2,0,P|302:45|341:59,1,99.9999999999999,0|8,0:0|0:0,0:0:0:0:
395,109,27600,2,0,L|454:103,2,50,2|2|8,0:0|0:0|0:3,0:0:0:0:
359,137,28048,2,0,P|346:198|357:242,1,99.9999999999999,4|2,0:3|0:0,0:0:0:0:
369,276,28496,2,0,P|362:314|356:340,1,50,0|0,1:0|1:0,0:0:0:0:
376,366,28794,5,4,1:0:0:0:
286,357,29093,2,0,P|191:354|131:363,1,150,2|2,0:0|0:0,0:0:0:0:
30,278,29988,2,0,P|14:219|102:194,1,150,8|8,3:2|3:2,0:0:0:0:
195,257,30884,1,8,3:2:0:0:
266,203,31182,6,0,B|343:171|410:224|410:224|454:173|448:113|408:75,1,300,2|8,0:0|3:2,0:0:0:0:
248,41,32675,2,0,B|165:13|166:78|83:35,1,150,8|8,3:2|0:0,0:0:0:0:
18,149,33570,6,0,P|36:230|146:245,1,200,2|0,0:0|3:0,0:0:0:0:
221,210,34466,2,0,B|318:251|315:174|424:216,2,200,8|8|8,3:2|3:2|3:2,0:0:0:0:
188,179,35809,1,0,3:0:0:0:
152,151,35958,6,0,P|221:173|76:243,2,400,2|0|6,0:0|3:0|0:0,0:0:0:0:
167,239,38645,6,0,P|252:242|284:243,1,99.9999999999999,8|0,0:0|0:0,0:0:0:0:
305,218,39093,2,0,P|365:210|414:222,1,99.9999999999999,2|0,0:0|0:0,0:0:0:0:
440,242,39540,2,0,P|428:152|425:125,1,99.9999999999999,2|8,0:0|0:0,0:0:0:0:
393,112,39988,1,2,0:0:0:0:
274,47,40436,1,8,0:0:0:0:
202,98,40734,6,0,B|127:68|54:68|54:68|21:113,1,200,2|0,0:0|0:0,0:0:0:0:
57,188,41630,2,0,L|67:242,1,50,8|0,0:0|0:0,0:0:0:0:
49,278,41928,1,2,0:0:0:0:
132,312,42227,2,0,P|195:318|245:308,1,99.9999999999999,8|0,0:0|1:0,0:0:0:0:
272,294,42675,2,0,P|363:303|388:305,1,99.9999999999999,0|0,1:0|1:0,0:0:0:0:
409,280,43122,6,0,P|431:229|426:180,1,99.9999999999999,6|8,0:0|0:0,0:0:0:0:
398,151,43570,1,2,0:0:0:0:
398,151,43719,2,0,P|305:156|276:158,1,99.9999999999999,0|8,0:0|0:0,0:0:0:0:
211,132,44316,2,0,P|127:131|98:131,1,99.9999999999999,2|8,0:0|0:0,0:0:0:0:
74,157,44764,1,2,0:0:0:0:
74,157,44913,2,0,P|55:214|68:259,1,99.9999999999999,0|8,0:0|0:0,0:0:0:0:
131,311,45510,6,0,B|234:307|251:210|251:210|290:223|324:213|324:213|332:293|424:335|505:279|497:228,1,499.999999999999,2|2,1:2|0:0,0:0:0:0:
453,150,47301,2,0,P|463:70|467:41,1,99.9999999999999,8|8,0:0|0:0,0:0:0:0:
384,11,47899,6,0,P|377:60|371:110,1,99.9999999999999,6|8,0:0|0:0,0:0:0:0:
307,174,48496,2,0,L|294:273,1,99.9999999999999,2|8,0:0|0:0,0:0:0:0:
256,356,49093,2,0,P|221:328|204:260,1,99.9999999999999,2|8,0:0|0:0,0:0:0:0:
144,212,49690,2,0,P|101:226|35:205,1,99.9999999999999,2|8,0:0|0:0,0:0:0:0:
95,137,50287,6,0,B|211:101|191:173|295:145,1,200,2|2,0:0|0:0,0:0:0:0:
374,119,51182,1,8,0:0:0:0:
463,127,51481,2,0,P|465:201|471:241,1,99.9999999999999,2|8,0:0|0:0,0:0:0:0:
497,312,52078,2,0,P|447:317|397:317,1,99.9999999999999,8|4,0:3|0:3,0:0:0:0:
320,270,52675,6,0,P|270:264|220:264,1,99.9999999999999,6|8,0:0|0:0,0:0:0:0:
138,301,53272,2,0,L|133:192,1,99.9999999999999,2|8,0:0|0:0,0:0:0:0:
53,160,53869,2,0,L|58:51,1,99.9999999999999,2|8,0:0|0:0,0:0:0:0:
142,30,54466,2,0,P|192:24|246:31,1,99.9999999999999,2|8,0:0|0:0,0:0:0:0:
328,56,55063,6,0,P|384:124|312:216,1,200,14|10,0:0|0:0,0:0:0:0:
248,236,55958,1,10,0:0:0:0:
162,264,56257,2,0,P|163:322|178:384,2,99.9999999999999,8|8|8,1:3|1:3|1:3,0:0:0:0:
188,176,57152,1,8,1:3:0:0:
264,124,57451,6,0,P|312:120|332:120,1,50,6|2,0:0|0:0,0:0:0:0:
345,204,57899,2,0,P|297:208|277:208,2,50,2|2|2,0:0|0:0|0:0,0:0:0:0:
409,140,58496,2,0,P|434:191|403:274,1,150,4|0,1:0|1:0,0:0:0:0:
403,273,59839,6,0,P|335:276|292:275,1,99.9999999999999,6|8,0:0|0:0,0:0:0:0:
258,283,60287,2,0,P|265:233|261:171,1,99.9999999999999,2|2,0:0|0:0,0:0:0:0:
300,101,60884,2,0,P|368:105|403:101,1,99.9999999999999,0|0,0:0|0:0,0:0:0:0:
440,84,61331,1,8,0:0:0:0:
402,1,61630,2,0,P|334:-3|299:1,1,99.9999999999999,0|8,0:0|0:0,0:0:0:0:
222,41,62227,6,0,P|154:45|119:41,1,99.9999999999999,2|8,0:0|0:0,0:0:0:0:
83,18,62675,2,0,P|94:90|97:137,1,99.9999999999999,2|2,0:0|0:0,0:0:0:0:
81,159,63122,1,8,0:0:0:0:
81,159,63272,2,0,P|135:152|194:155,1,99.9999999999999,0|8,0:0|0:0,0:0:0:0:
220,172,63719,1,8,0:0:0:0:
289,229,64018,2,0,P|342:231|410:226,1,99.9999999999999,4|8,0:3|0:3,0:0:0:0:
479,220,64615,6,0,P|471:291|474:335,1,99.9999999999999,6|8,0:0|0:0,0:0:0:0:
392,357,65212,2,0,P|342:359|292:357,1,99.9999999999999,0|8,0:0|0:0,0:0:0:0:
228,294,65809,2,0,P|178:291|128:293,1,99.9999999999999,2|8,0:0|0:0,0:0:0:0:
84,304,66257,1,2,0:0:0:0:
84,304,66406,2,0,P|90:256|90:200,1,99.9999999999999,0|8,0:0|0:0,0:0:0:0:
104,116,67003,6,0,B|180:136|252:88|252:88|328:136|400:108,1,300,2|8,0:0|0:1,0:0:0:0:
457,52,68197,2,0,P|478:96|465:159,1,99.9999999999999,0|0,1:0|1:0,0:0:0:0:
406,207,68794,2,0,P|346:207|290:211,1,99.9999999999999,8|4,1:3|1:3,0:0:0:0:
253,282,69391,6,0,P|193:282|137:278,1,99.9999999999999,6|8,0:0|0:0,0:0:0:0:
123,246,69839,2,0,P|127:193|123:137,1,99.9999999999999,2|2,0:0|0:0,0:0:0:0:
116,101,70287,1,8,0:0:0:0:
116,101,70436,2,0,P|164:102|229:99,1,99.9999999999999,0|0,0:0|0:0,0:0:0:0:
258,83,70884,1,8,0:0:0:0:
342,53,71182,2,0,P|336:102|341:162,1,99.9999999999999,0|8,0:0|0:0,0:0:0:0:
378,234,71779,6,0,P|303:242|274:244,1,99.9999999999999,2|8,0:0|0:0,0:0:0:0:
234,234,72227,2,0,P|239:283|220:328,1,99.9999999999999,2|2,0:0|1:2,0:0:0:0:
151,271,72824,2,0,P|143:223|167:169,1,99.9999999999999,0|0,1:0|0:0,0:0:0:0:
189,141,73272,2,0,P|264:143|303:141,2,99.9999999999999,8|10|10,0:0|0:0|0:0,0:0:0:0:
149,60,74167,5,6,0:1:0:0:
66,99,74466,2,0,P|63:174|66:213,2,99.9999999999999,0|8|8,0:0|0:1|0:0,0:0:0:0:
149,60,75361,2,0,L|248:36,1,99.9999999999999,2|0,0:1|0:0,0:0:0:0:
309,101,75958,2,0,L|411:109,1,99.9999999999999,8|8,0:1|0:0,0:0:0:0:
452,187,76555,6,0,B|412:206|412:206|337:198|337:198|263:225|176:198|176:198|221:273,1,350,2|2,0:1|0:1,0:0:0:0:
292,362,78048,1,2,0:1:0:0:
413,303,78496,2,0,L|415:201,1,99.9999999999999,2|2,0:1|0:0,0:0:0:0:
413,158,78943,6,0,P|364:163|303:157,1,99.9999999999999,6|8,0:0|0:0,0:0:0:0:
270,145,79391,2,0,P|221:140|160:146,1,99.9999999999999,2|2,0:0|0:0,0:0:0:0:
127,157,79839,1,8,0:0:0:0:
42,188,80137,2,0,L|36:71,1,99.9999999999999,2|8,0:0|0:0,0:0:0:0:
33,43,80585,2,0,P|101:43|151:37,1,99.9999999999999,2|2,0:0|0:0,0:0:0:0:
173,20,81033,1,8,0:0:0:0:
260,45,81331,6,0,L|270:148,1,99.9999999999999,2|8,0:0|0:0,0:0:0:0:
277,189,81779,1,2,0:0:0:0:
277,189,81928,2,0,P|332:185|388:189,1,99.9999999999999,0|8,0:0|0:0,0:0:0:0:
449,241,82525,2,0,P|448:272|444:302,1,50,2|0,0:0|0:0,0:0:0:0:
418,327,82824,2,0,P|374:331|353:328,1,50,8|2,0:0|0:0,0:0:0:0:
325,317,83122,2,0,P|272:314|218:321,1,99.9999999999999,0|0,1:0|1:0,0:0:0:0:
147,274,83719,6,0,P|147:237|144:168,1,99.9999999999999,6|8,0:0|0:0,0:0:0:0:
140,129,84167,1,2,0:0:0:0:
140,129,84316,2,0,L|251:125,1,99.9999999999999,0|8,0:0|0:0,0:0:0:0:
272,93,84764,2,0,L|383:89,1,99.9999999999999,0|0,0:0|0:0,0:0:0:0:
417,91,85212,2,0,P|423:125|425:151,1,50,8|2,0:0|0:0,0:0:0:0:
407,182,85510,2,0,P|401:216|399:242,1,50,0|2,0:0|0:0,0:0:0:0:
386,320,85958,6,0,P|335:316|285:318,1,99.9999999999999,0|0,0:0|0:0,0:0:0:0:
243,333,86406,1,8,0:0:0:0:
243,333,86555,2,0,P|178:335|123:323,1,99.9999999999999,2|2,0:0|0:0,0:0:0:0:
69,277,87152,2,0,P|77:226|76:177,1,99.9999999999999,0|0,0:0|0:0,0:0:0:0:
68,133,87600,2,0,P|110:133|139:131,1,50,2|2,0:0|0:0,0:0:0:0:
157,111,87899,2,0,B|232:88|232:140|316:108,1,150,2|4,0:0|0:3,0:0:0:0:
