osu file format v14

[General]
AudioFilename: qwq.mp3
AudioLeadIn: 0
PreviewTime: 59167
Countdown: 0
SampleSet: Soft
StackLeniency: 0.7
Mode: 0
LetterboxInBreaks: 0
EpilepsyWarning: 1
WidescreenStoryboard: 1

[Editor]
Bookmarks: 47899
DistanceSpacing: 1.1
BeatDivisor: 4
GridSize: 4
TimelineZoom: 2.799999

[Metadata]
Title:Paradisus-Paradoxum
TitleUnicode:Paradisus-Paradoxum
Artist:MYTH & ROID
ArtistUnicode:MYTH & ROID
Creator:wajinshu
Version:STANDARD
Source:Re:ゼロから始める異世界生活
Tags:second opening re: zero kara hajimeru isekai seikatsu life in a different world from kalibe fcl tv size taeyang shmiklak slayed yoshikawa hoshi marvollo m_a_r_v_o_l_l_o
BeatmapID:1092360
BeatmapSetID:514181

[Difficulty]
HPDrainRate:2.5
CircleSize:3
OverallDifficulty:3.5
ApproachRate:4.3
SliderMultiplier:0.799999999999999
SliderTickRate:1

[Events]
//Background and Video events
0,0,"thanks.jpg",0,0
//Break Periods
//Storyboard Layer 0 (Background)
//Storyboard Layer 1 (Fail)
//Storyboard Layer 2 (Pass)
//Storyboard Layer 3 (Foreground)
Sprite,Foreground,Centre,"SB\effects\highlight.png",354,133 F,0,9690,10288,0.75,0 S,0,9690,10288,1,0.75 C,0,9690,10288,215,83,133
Sprite,Foreground,Centre,"SB\effects\highlight.png",455,386 F,0,13569,14167,0.75,0 S,0,13569,14167,1,0.75 C,0,13569,14167,255,255,128
Sprite,Foreground,Centre,"SB\effects\highlight.png",538,415 F,0,13869,14467,0.75,0 S,0,13869,14467,1,0.75 C,0,13869,14467,255,255,128
Sprite,Foreground,Centre,"SB\effects\highlight.png",532,335 F,0,14167,14765,0.75,0 S,0,14167,14765,1,0.75 C,0,14167,14765,255,255,128
Sprite,Foreground,Centre,"SB\effects\highlight.png",522,247 F,0,14466,15064,1,0 S,0,14466,15064,1.2,0.75 C,0,14466,15064,128,128,255
Sprite,Foreground,Centre,"SB\effects\highlight.png",491,163 F,0,15063,15510,1,0 S,0,15063,15510,1.2,0.75 C,0,15063,15510,128,128,255
Sprite,Foreground,Centre,"SB\effects\highlight.png",438,219 F,0,15361,15660,1,0 S,0,15361,15660,1,0.75 C,0,15361,15660,128,128,255
Sprite,Foreground,Centre,"SB\effects\highlight.png",396,296 F,0,15660,16257,1,0 S,0,15660,16257,1.2,0.75 C,0,15660,16257,128,128,255
Sprite,Foreground,Centre,"SB\effects\highlight.png",268,370 F,0,16257,16704,1,0 S,0,16257,16704,1.2,0.75 C,0,16257,16704,128,128,255
Sprite,Foreground,Centre,"SB\effects\highlight.png",188,370 F,0,16555,16854,1,0 S,0,16555,16854,1,0.75 C,0,16555,16854,128,128,255
Sprite,Foreground,Centre,"SB\effects\highlight.png",148,290 F,0,16854,17749,1,0 S,0,16854,17749,1.2,0.75 C,0,16854,17749,215,83,133
Sprite,Foreground,Centre,"SB\effects\highlight.png",280,222 F,0,17899,18497,0.75,0 S,0,17899,18497,1.2,0.75 C,0,17899,18497,215,83,133
Sprite,Foreground,Centre,"SB\effects\highlight.png",328,346 F,0,18346,18944,0.75,0 S,0,18346,18944,1.2,0.75 C,0,18346,18944,215,83,133
Sprite,Foreground,Centre,"SB\effects\highlight.png",400,234 F,0,18794,19392,0.75,0 S,0,18794,19392,1.2,0.75 C,0,18794,19392,215,83,133
Sprite,Foreground,Centre,"SB\effects\highlight.png",456,114 F,0,19242,19840,0.75,0 S,0,19242,19840,1.2,0.75 C,0,19242,19840,255,255,128
Sprite,Foreground,Centre,"SB\effects\highlight.png",452,246 F,0,27600,28198,0.75,0 S,0,27600,28198,1,0.75 C,0,27600,28198,255,255,128
Sprite,Foreground,Centre,"SB\effects\highlight.png",164,242 F,0,28794,29392,1,0 S,0,28794,29392,1.2,0.75 C,0,28794,29392,255,255,128
Sprite,Foreground,Centre,"SB\effects\highlight.png",277,205 F,0,42674,43272,0.75,0 S,0,42674,43272,1,0.75 C,0,42674,43272,215,83,133
Sprite,Foreground,Centre,"SB\effects\highlight.png",373,297 F,0,43122,43720,1,0 S,0,43122,43720,1.2,0.75 C,0,43122,43720,215,83,133
Sprite,Foreground,Centre,"SB\effects\highlight.png",157,183 F,0,45510,46108,0.75,0 S,0,45510,46108,1,0.75 C,0,45510,46108,255,255,128
Sprite,Foreground,Centre,"SB\effects\highlight.png",154,262 F,0,45808,46406,0.75,0 S,0,45808,46406,1,0.75 C,0,45808,46406,255,255,128
Sprite,Foreground,Centre,"SB\effects\highlight.png",230,307 F,0,46107,46705,0.75,0 S,0,46107,46705,1,0.75 C,0,46107,46705,255,255,128
Sprite,Foreground,Centre,"SB\effects\highlight.png",287,240 F,0,46406,47004,0.75,0 S,0,46406,47004,1,0.75 C,0,46406,47004,255,255,128
Sprite,Foreground,Centre,"SB\effects\highlight.png",343,306 F,0,46704,47302,1,0 S,0,46704,47302,1,2.75 C,0,46704,47302,255,255,128
Sprite,Foreground,Centre,"SB\effects\highlight.png",423,303 F,0,47003,47601,0.75,0 S,0,47003,47601,1,0.75 C,0,47003,47601,255,255,128
Sprite,Foreground,Centre,"SB\effects\highlight.png",477,233 F,0,47301,47899,0.75,0 S,0,47301,47899,1,0.75 C,0,47301,47899,255,255,128
Sprite,Foreground,Centre,"SB\effects\highlight.png",453,157 F,0,47600,48198,0.75,0 S,0,47600,48198,1,0.75 C,0,47600,48198,255,255,128
Sprite,Foreground,Centre,"SB\effects\highlight.png",365,164 F,0,47899,48497,1,0 S,0,47899,48497,1.2,0.75 C,0,47899,48497,128,128,255
Sprite,Foreground,Centre,"SB\effects\highlight.png",315,301 F,0,52078,52676,0.75,0 S,0,52078,52676,1,0.75 C,0,52078,52676,215,83,133
Sprite,Foreground,Centre,"SB\effects\highlight.png",278,381 F,0,52376,52974,0.75,0 S,0,52376,52974,1,0.75 C,0,52376,52974,215,83,133
Sprite,Foreground,Centre,"SB\effects\highlight.png",196,346 F,0,52675,53273,1,0 S,0,52675,53273,1.2,0.75 C,0,52675,53273,255,255,128
Sprite,Foreground,Centre,"SB\effects\highlight.png",522,166 F,0,55063,55661,0.75,0 S,0,55063,55661,1,0.75 C,0,55063,55661,128,128,255
Sprite,Foreground,Centre,"SB\effects\highlight.png",530,323 F,0,55660,56258,0.75,0 S,0,55660,56258,1,0.75 C,0,55660,56258,128,128,255
Sprite,Foreground,Centre,"SB\effects\highlight.png",466,384 F,0,55958,56556,0.75,0 S,0,55958,56556,1,0.75 C,0,55958,56556,128,128,255
Sprite,Foreground,Centre,"SB\effects\highlight.png",378,394 F,0,56257,56855,0.75,0 S,0,56257,56855,1,0.75 C,0,56257,56855,128,128,255
Sprite,Foreground,Centre,"SB\effects\highlight.png",298,396 F,0,56555,57153,0.75,0 S,0,56555,57153,1,0.75 C,0,56555,57153,128,128,255
Sprite,Foreground,Centre,"SB\effects\highlight.png",215,365 F,0,56853,57451,0.75,0 S,0,56853,57451,1,0.75 C,0,56853,57451,128,128,255
Sprite,Foreground,Centre,"SB\effects\highlight.png",217,285 F,0,57152,57750,0.75,0 S,0,57152,57750,1,0.75 C,0,57152,57750,128,128,255
Sprite,Foreground,Centre,"SB\effects\highlight.png",192,200 F,0,57451,58049,0.75,0 S,0,57451,58049,1,2.75 C,0,57451,58049,215,83,133
Sprite,Foreground,Centre,"SB\effects\highlight.png",323,207 F,0,57899,58497,0.75,0 S,0,57899,58497,1,0.75 C,0,57899,58497,215,83,133
Sprite,Foreground,Centre,"SB\effects\highlight.png",403,207 F,0,58197,58795,0.75,0 S,0,58197,58795,1,0.75 C,0,58197,58795,215,83,133
Sprite,Foreground,Centre,"SB\effects\highlight.png",446,129 F,0,58496,59094,0.75,0 S,0,58496,59094,1,2.75 C,0,58496,59094,215,83,133
Sprite,Foreground,Centre,"SB\effects\highlight.png",562,127 F,0,58943,59541,0.75,0 S,0,58943,59541,1,0.75 C,0,58943,59541,215,83,133
Sprite,Foreground,Centre,"SB\effects\highlight.png",520,388 F,0,59839,60437,0.75,0 S,0,59839,60437,1,2.75 C,0,59839,60437,255,255,128
Sprite,Foreground,Centre,"SB\effects\highlight.png",464,373 F,0,63719,64316,0.75,0 S,0,63719,64316,1,0.75 C,0,63719,64316,128,128,255
Sprite,Foreground,Centre,"SB\effects\highlight.png",393,412 F,0,64018,64615,0.75,0 S,0,64018,64615,1,0.75 C,0,64018,64615,128,128,255
Sprite,Foreground,Centre,"SB\effects\highlight.png",313,410 F,0,64316,64913,0.75,0 S,0,64316,64913,1,0.75 C,0,64316,64913,128,128,255
Sprite,Foreground,Centre,"SB\effects\highlight.png",227,389 F,0,64616,65213,0.75,0 S,0,64616,65213,1,2.75 C,0,64616,65213,215,83,133
Sprite,Foreground,Centre,"SB\effects\highlight.png",364,326 F,0,68197,68794,0.75,0 S,0,68197,68794,1,0.75 C,0,68197,68794,255,255,128
Sprite,Foreground,Centre,"SB\effects\highlight.png",286,325 F,0,68496,69093,0.75,0 S,0,68496,69093,1,0.75 C,0,68496,69093,255,255,128
Sprite,Foreground,Centre,"SB\effects\highlight.png",198,322 F,0,68794,69391,0.75,0 S,0,68794,69391,1,0.75 C,0,68794,69391,255,255,128
Sprite,Foreground,Centre,"SB\effects\highlight.png",199,260 F,0,69092,69689,0.75,0 S,0,69092,69689,1,0.75 C,0,69092,69689,255,255,128
Sprite,Foreground,Centre,"SB\effects\highlight.png",111,260 F,0,69391,69988,0.75,0 S,0,69391,69988,1,2.75 C,0,69391,69988,128,128,255
Sprite,Foreground,Centre,"SB\effects\highlight.png",176,282 F,1,73272,73869,0.75,0 S,0,73272,73869,1.2,1 C,0,73272,73869,215,83,133
Sprite,Foreground,Centre,"SB\effects\highlight.png",220,358 F,1,73570,74167,0.75,0 S,0,73570,74167,1.2 C,0,73570,74167,215,83,133
Sprite,Foreground,Centre,"SB\effects\highlight.png",308,338 F,1,73869,74466,0.75,0 S,0,73869,74466,1.2,1.4 C,0,73869,74466,215,83,133
Sprite,Foreground,Centre,"SB\effects\highlight.png",387,301 F,0,74167,74764,0.75,0 S,0,74167,74764,1.2,1.6 C,0,74167,74764,255,255,128
Sprite,Foreground,Centre,"SB\effects\highlight.png",387,301 F,0,74764,75212,0.75,0 S,0,74764,75212,1,0.75 C,0,74764,75212,255,255,128
Sprite,Foreground,Centre,"SB\effects\highlight.png",345,223 F,0,75063,75361,0.75,0 S,0,75063,75361,1,0.75 C,0,75063,75361,255,255,128
Sprite,Foreground,Centre,"SB\effects\highlight.png",390,147 F,0,75361,75958,0.75,0 S,0,75361,75958,1.2,0.75 C,0,75361,75958,255,255,128
Sprite,Foreground,Centre,"SB\effects\highlight.png",390,147 F,0,75958,76406,0.75,0 S,0,75958,76406,1,0.75 C,0,75958,76406,255,255,128
Sprite,Foreground,Centre,"SB\effects\highlight.png",316,98 F,0,76257,76555,0.75,0 S,0,76257,76555,1,0.75 C,0,76257,76555,255,255,128
Sprite,Foreground,Centre,"SB\effects\highlight.png",231,121 F,0,76555,77451,0.75,0 S,0,76555,77451,1.2,0.75 C,0,76555,77451,128,128,255
Sprite,Foreground,Centre,"SB\effects\highlight.png",229,386 F,0,77600,78197,0.75,0 S,0,77600,78197,1.2,0.75 C,0,77600,78197,128,128,255
Sprite,Foreground,Centre,"SB\effects\highlight.png",119,330 F,0,78048,78645,0.75,0 S,0,78048,78645,1.2,0.75 C,0,78048,78645,128,128,255
Sprite,Foreground,Centre,"SB\effects\highlight.png",97,198 F,0,78496,79093,0.75,0 S,0,78496,79093,1.2,0.75 C,0,78496,79093,128,128,255
Sprite,Foreground,Centre,"SB\effects\highlight.png",222,158 F,0,78943,79540,0.75,0 S,0,78943,79540,1.2,0.75 C,0,78943,79540,215,83,133
Sprite,Foreground,Centre,"SB\effects\highlight.png",391,248 F,0,83122,83719,0.75,0 S,0,83122,83719,1,0.75 C,0,83122,83719,255,255,128
Sprite,Foreground,Centre,"SB\effects\highlight.png",333,181 F,0,83421,84018,0.75,0 S,0,83421,84018,1,0.75 C,0,83421,84018,255,255,128
Sprite,Foreground,Centre,"SB\effects\highlight.png",259,228 F,0,83719,84316,0.75,0 S,0,83719,84316,1.2,0.75 C,0,83719,84316,128,128,255
Sprite,Foreground,Centre,"SB\effects\ring.png",436,369 F,2,88346,89391,1,0 S,1,88346,89391,0,1 C,0,88346,89391,215,83,133
//Storyboard Sound Samples

[TimingPoints]
7302,298.507462686567,4,2,11,60,1,0
7376,-100,4,2,11,30,0,0
7451,-100,4,2,11,60,0,0
7749,-100,4,2,11,80,0,0
7824,-100,4,2,11,40,0,0
7899,-100,4,2,11,80,0,0
7973,-100,4,2,11,40,0,0
8048,-100,4,2,11,80,0,0
8346,-100,4,2,11,70,0,0
8496,-100,4,2,11,35,0,0
8645,-100,4,2,11,70,0,0
8719,-100,4,2,11,25,0,0
8794,-100,4,2,11,70,0,0
8869,-100,4,2,11,25,0,0
9093,-100,4,2,11,40,0,0
9316,-100,4,2,11,5,0,0
9391,-100,4,2,11,30,0,0
9615,-100,4,2,11,5,0,0
9690,-100,4,2,12,80,0,0
9764,-100,4,2,12,70,0,0
13272,-100,4,2,12,75,0,0
13346,-100,4,2,12,70,0,0
13421,-100,4,2,12,65,0,0
13496,-100,4,2,12,60,0,0
13570,-100,4,2,12,55,0,0
13645,-100,4,2,12,50,0,0
13719,-100,4,2,12,45,0,0
13794,-100,4,2,12,40,0,0
13869,-100,4,2,12,45,0,0
13943,-100,4,2,12,50,0,0
14018,-100,4,2,12,55,0,0
14093,-100,4,2,12,60,0,0
14167,-100,4,2,12,65,0,0
14242,-100,4,2,12,70,0,0
14316,-100,4,2,12,75,0,0
14391,-100,4,2,12,80,0,0
14466,-100,4,2,11,70,0,0
15063,-100,4,2,11,60,0,0
15137,-100,4,2,11,30,0,0
15361,-100,4,2,11,45,0,0
15660,-100,4,2,11,70,0,0
16257,-100,4,2,11,60,0,0
16331,-100,4,2,11,30,0,0
16555,-100,4,2,11,45,0,0
16854,-100,4,2,11,70,0,0
17749,-100,4,2,11,30,0,0
17899,-100,4,2,11,60,0,0
17973,-100,4,2,11,5,0,0
18346,-100,4,2,11,70,0,0
18421,-100,4,2,11,5,0,0
18794,-100,4,2,11,80,0,0
18869,-100,4,2,11,5,0,0
18943,-100,4,2,11,40,0,0
19018,-100,4,2,11,50,0,0
19093,-100,4,2,11,60,0,0
19167,-100,4,2,11,70,0,0
19242,-100,4,2,12,80,0,0
19316,-100,4,2,12,70,0,0
27899,-100,4,2,12,75,0,0
27973,-100,4,2,12,70,0,0
28048,-100,4,2,12,65,0,0
28122,-100,4,2,12,60,0,0
28197,-100,4,2,12,55,0,0
28346,-100,4,2,12,50,0,0
28496,-100,4,2,12,55,0,0
28570,-100,4,2,12,60,0,0
28645,-100,4,2,12,65,0,0
28719,-100,4,2,12,70,0,0
28794,-100,4,2,12,80,0,0
29093,-100,4,2,11,40,0,0
30436,-100,4,2,11,45,0,0
30884,-100,4,2,11,50,0,0
31107,-100,4,2,11,5,0,0
31182,-100,4,2,11,40,0,0
32675,-100,4,2,11,45,0,0
33122,-100,4,2,11,50,0,0
33570,-100,4,2,11,40,0,0
34466,-100,4,2,11,45,0,0
35063,-100,4,2,11,50,0,0
35660,-100,4,2,11,40,0,0
36555,-100,4,2,11,45,0,0
37152,-100,4,2,11,50,0,0
37600,-100,4,2,11,55,0,0
38048,-100,4,2,13,60,0,0
38122,-100,4,2,13,5,0,0
38197,-100,4,2,13,60,0,0
38272,-100,4,2,13,5,0,0
38346,-100,4,2,12,70,0,0
38421,-100,4,2,12,60,0,0
42525,-100,4,2,12,30,0,0
42600,-100,4,2,12,35,0,0
42675,-100,4,2,12,40,0,0
42749,-100,4,2,12,45,0,0
42824,-100,4,2,12,50,0,0
42899,-100,4,2,12,55,0,0
42973,-100,4,2,12,60,0,0
43048,-100,4,2,12,65,0,0
43122,-100,4,2,12,70,0,0
43197,-100,4,2,12,60,0,0
45510,-100,4,2,12,40,0,0
45585,-100,4,2,12,42,0,0
45660,-100,4,2,12,44,0,0
45734,-100,4,2,12,46,0,0
45809,-100,4,2,12,48,0,0
45884,-100,4,2,12,52,0,0
45958,-100,4,2,12,54,0,0
46033,-100,4,2,12,56,0,0
46107,-100,4,2,12,58,0,0
46182,-100,4,2,12,60,0,0
46257,-100,4,2,12,62,0,0
46331,-100,4,2,12,64,0,0
46406,-100,4,2,12,66,0,0
46481,-100,4,2,12,68,0,0
46555,-100,4,2,12,70,0,0
46630,-100,4,2,12,72,0,0
46704,-100,4,2,12,75,0,0
47102,-100,4,2,12,80,0,0
47152,-100,4,2,12,30,0,0
47301,-100,4,2,11,35,0,0
47525,-100,4,2,11,5,0,0
47600,-100,4,2,11,45,0,0
47824,-100,4,2,11,5,0,0
47899,-100,4,2,12,70,0,0
47973,-100,4,2,12,60,0,0
52078,-100,4,2,12,70,0,0
52152,-100,4,2,12,65,0,0
52227,-100,4,2,12,60,0,0
52301,-100,4,2,12,55,0,0
52376,-100,4,2,12,50,0,0
52451,-100,4,2,12,45,0,0
52525,-100,4,2,12,40,0,0
52600,-100,4,2,12,35,0,0
52675,-100,4,2,12,70,0,0
52749,-100,4,2,12,60,0,0
55063,-100,4,2,12,65,0,0
55361,-100,4,2,12,70,0,0
55660,-100,4,2,12,75,0,0
55958,-100,4,2,12,80,0,0
56257,-100,4,2,12,60,0,0
56331,-100,4,2,12,62,0,0
56406,-100,4,2,12,64,0,0
56481,-100,4,2,12,66,0,0
56555,-100,4,2,12,68,0,0
56630,-100,4,2,12,70,0,0
56704,-100,4,2,12,72,0,0
56779,-100,4,2,12,74,0,0
56854,-100,4,2,12,76,0,0
56928,-100,4,2,12,78,0,0
57003,-100,4,2,12,80,0,0
57078,-100,4,2,12,82,0,0
57152,-100,4,2,12,84,0,0
57227,-100,4,2,12,86,0,0
57301,-100,4,2,12,88,0,0
57376,-100,4,2,12,90,0,0
57451,-100,4,2,12,95,0,0
57899,-100,4,2,12,90,0,0
59242,-100,4,2,11,40,0,0
59540,-100,4,2,11,60,0,0
59839,-100,4,2,12,90,0,0
59913,-100,4,2,12,80,0,0
64018,-100,4,2,12,70,0,0
64093,-100,4,2,12,72,0,0
64167,-100,4,2,12,74,0,0
64242,-100,4,2,12,76,0,0
64316,-100,4,2,12,78,0,0
64391,-100,4,2,12,80,0,0
64466,-100,4,2,12,82,0,0
64540,-100,4,2,12,84,0,0
64615,-100,4,2,12,90,0,0
64690,-100,4,2,12,80,0,0
67301,-100,4,2,11,90,0,0
67600,-100,4,2,11,80,0,0
67899,-100,4,2,11,70,0,0
68197,-100,4,2,12,68,0,0
68272,-100,4,2,12,66,0,0
68346,-100,4,2,12,64,0,0
68421,-100,4,2,12,62,0,0
68496,-100,4,2,12,60,0,0
68570,-100,4,2,12,58,0,0
68645,-100,4,2,12,56,0,0
68719,-100,4,2,12,54,0,0
68794,-100,4,2,12,56,0,0
68869,-100,4,2,12,59,0,0
68943,-100,4,2,12,62,0,0
69018,-100,4,2,12,65,0,0
69093,-100,4,2,12,68,0,0
69167,-100,4,2,12,72,0,0
69242,-100,4,2,12,78,0,0
69316,-100,4,2,12,84,0,0
69391,-100,4,2,12,90,0,0
69466,-100,4,2,12,80,0,0
72973,-100,4,2,12,60,0,0
73197,-100,4,2,12,5,0,0
73272,-100,4,2,12,70,0,0
73496,-100,4,2,12,5,0,0
73570,-100,4,2,12,80,0,0
73794,-100,4,2,12,5,0,0
73869,-100,4,2,12,90,0,0
74093,-100,4,2,12,5,0,0
74167,-100,4,2,11,70,0,0
74764,-100,4,2,11,60,0,0
74838,-100,4,2,11,30,0,0
75062,-100,4,2,11,45,0,0
75361,-100,4,2,11,70,0,0
75958,-100,4,2,11,60,0,0
76032,-100,4,2,11,30,0,0
76256,-100,4,2,11,45,0,0
76555,-100,4,2,11,70,0,0
77450,-100,4,2,11,30,0,0
77600,-100,4,2,11,60,0,0
77674,-100,4,2,11,5,0,0
78047,-100,4,2,11,70,0,0
78122,-100,4,2,11,5,0,0
78495,-100,4,2,11,80,0,0
78570,-100,4,2,11,5,0,0
78644,-100,4,2,11,40,0,0
78719,-100,4,2,11,50,0,0
78794,-100,4,2,11,60,0,0
78868,-100,4,2,11,70,0,0
78943,-100,4,2,12,80,0,0
79018,-100,4,2,12,70,0,0
83122,-100,4,2,12,54,0,0
83197,-100,4,2,12,56,0,0
83272,-100,4,2,12,58,0,0
83346,-100,4,2,12,60,0,0
83421,-100,4,2,12,62,0,0
83496,-100,4,2,12,64,0,0
83570,-100,4,2,12,66,0,0
83645,-100,4,2,12,68,0,0
83719,-100,4,2,12,70,0,0

[Colours]
Combo1 : 255,255,128
Combo2 : 128,128,255
Combo3 : 215,83,133

[HitObjects]
306,343,7301,6,0,P|278:343|251:341,1,40,2|2,0:1|0:1,0:0:0:0:
208,274,7749,2,0,P|155:270|110:276,1,79.9999999999999,8|8,0:1|0:1,0:0:0:0:
46,303,8346,2,0,B|37:263|37:263|49:177,1,120,2|8,0:1|0:1,0:0:0:0:
246,9,9690,6,0,P|291:43|349:78,1,120,6|2,0:0|0:0,0:0:0:0:
431,93,10436,1,2,0:0:0:0:
459,176,10734,2,0,P|400:186|343:207,1,120,0|8,0:0|0:0,0:0:0:0:
260,236,11481,2,0,P|220:241|166:231,1,79.9999999999999,0|8,0:0|0:0,0:0:0:0:
107,186,12078,6,0,P|92:235|125:306,1,120,2|2,0:0|0:0,0:0:0:0:
186,349,12824,1,2,0:0:0:0:
272,331,13122,2,0,P|332:325|395:333,1,120,2|4,0:0|0:3,0:0:0:0:
474,361,13869,2,0,L|468:276,1,79.9999999999999,0|0,1:0|1:0,0:0:0:0:
458,193,14466,5,6,0:1:0:0:
374,165,14764,2,0,P|392:132|429:108,2,79.9999999999999,0|8|8,0:0|0:1|0:0,0:0:0:0:
332,242,15660,2,0,P|260:242|239:243,1,79.9999999999999,2|0,0:1|0:0,0:0:0:0:
204,316,16257,2,0,P|132:316|111:315,1,79.9999999999999,8|8,0:1|0:0,0:0:0:0:
84,236,16854,6,0,P|100:120|216:168,1,280,2|2,0:1|0:1,0:0:0:0:
264,292,18346,1,2,0:1:0:0:
336,180,18794,1,2,0:1:0:0:
392,60,19242,6,0,P|348:56|304:60,1,79.9999999999999,6|8,0:0|0:0,0:0:0:0:
244,112,19839,2,0,P|200:116|156:112,1,79.9999999999999,0|8,0:0|0:0,0:0:0:0:
92,64,20436,2,0,P|76:116|104:176,1,120,2|2,0:0|0:0,0:0:0:0:
172,228,21182,2,0,P|195:242|210:255,1,40,2|8,0:0|0:0,0:0:0:0:
245,328,21630,6,0,P|359:322|421:324,1,160,2|0,0:0|0:0,0:0:0:0:
466,261,22525,1,8,0:0:0:0:
396,208,22824,2,0,P|362:140|398:67,1,160,2|0,0:0|0:0,0:0:0:0:
449,138,23719,1,8,0:0:0:0:
493,213,24018,6,0,P|476:257|445:293,1,79.9999999999999,6|8,0:0|0:0,0:0:0:0:
373,313,24615,2,0,P|334:311|283:316,1,79.9999999999999,0|8,0:0|0:0,0:0:0:0:
208,338,25212,2,0,P|210:242|207:202,1,120,2|2,0:0|0:0,0:0:0:0:
136,164,25958,2,0,P|135:136|137:113,1,40,2|8,0:0|0:0,0:0:0:0:
170,42,26406,6,0,P|239:37|267:32,1,79.9999999999999,2|8,0:0|0:0,0:0:0:0:
337,25,27003,1,0,0:0:0:0:
372,106,27301,1,8,0:0:0:0:
388,192,27600,2,0,B|339:204|296:153|296:153|238:196|238:196|167:162|87:192,1,320,2|4,0:0|1:0,0:0:0:0:
47,258,29093,6,0,P|15:213|24:143,2,120,2|2|8,0:0|0:0|3:2,0:0:0:0:
158,328,30436,2,0,P|252:323|284:325,1,120,8|8,3:2|3:2,0:0:0:0:
366,322,31182,2,0,B|349:257|379:210|379:210|414:156|382:86,1,240,2|8,0:0|3:2,0:0:0:0:
312,40,32376,5,0,0:0:0:0:
248,100,32675,2,0,P|191:109|121:97,1,120,8|8,3:2|0:0,0:0:0:0:
50,205,33570,2,0,P|123:193|212:208,1,160,2|0,0:0|3:0,0:0:0:0:
193,294,34466,2,0,P|256:281|295:191,2,160,8|8|8,3:2|3:2|3:2,0:0:0:0:
111,260,35958,5,2,0:0:0:0:
256,192,36107,12,6,38346,0:0:0:0:
145,264,39540,6,0,P|226:255|269:258,2,120,2|2|8,0:0|0:0|0:0,0:0:0:0:
62,296,40734,2,0,B|46:208|94:224|70:136,1,160,2|0,0:0|0:0,0:0:0:0:
51,53,41630,1,8,0:0:0:0:
126,6,41928,5,2,0:0:0:0:
210,32,42227,2,0,P|215:108|214:157,1,120,8|0,0:0|1:0,0:0:0:0:
309,243,43122,2,0,P|381:270|447:231,1,160,6|0,0:0|0:0,0:0:0:0:
483,150,44018,1,8,0:0:0:0:
409,102,44316,1,2,0:0:0:0:
329,64,44615,2,0,P|253:60|200:69,1,120,8|2,0:0|0:0,0:0:0:0:
93,129,45510,6,0,P|87:174|93:222,1,79.9999999999999,2|8,1:2|1:2,0:0:0:0:
166,253,46107,1,2,1:2:0:0:
223,186,46406,1,8,1:2:0:0:
279,252,46704,2,0,P|319:251|358:248,1,79.9999999999999,8|2,1:2|0:0,0:0:0:0:
422,187,47301,1,8,0:0:0:0:
389,104,47600,1,8,0:0:0:0:
301,110,47899,6,0,P|261:108|221:109,1,79.9999999999999,6|8,0:0|0:0,0:0:0:0:
152,164,48496,2,0,P|152:221|148:260,1,79.9999999999999,2|8,0:0|0:0,0:0:0:0:
135,330,49093,2,0,B|214:309|213:352|301:328,1,160,2|2,0:0|0:0,0:0:0:0:
375,300,49988,1,8,0:0:0:0:
381,211,50287,6,0,P|379:161|381:127,1,79.9999999999999,2|8,0:0|0:0,0:0:0:0:
398,44,50884,2,0,P|348:42|314:44,1,79.9999999999999,2|8,0:0|0:0,0:0:0:0:
243,90,51481,2,0,B|224:175|272:158|249:255,1,160,2|8,0:0|0:3,0:0:0:0:
214,327,52376,1,4,0:3:0:0:
132,292,52675,6,0,P|138:235|138:205,1,79.9999999999999,6|8,0:0|0:0,0:0:0:0:
93,136,53272,2,0,P|87:79|87:49,1,79.9999999999999,2|8,0:0|0:0,0:0:0:0:
173,37,53869,2,0,P|237:42|336:35,1,160,2|2,0:0|0:0,0:0:0:0:
420,33,54764,1,8,0:0:0:0:
458,112,55063,6,0,B|439:199|487:180|464:277,1,160,14|10,0:0|0:0,0:0:0:0:
402,330,55958,1,10,0:0:0:0:
314,340,56257,2,0,P|261:343|225:341,1,79.9999999999999,8|8,1:3|1:3,0:0:0:0:
151,311,56854,2,0,P|154:258|152:222,1,79.9999999999999,8|8,1:3|1:3,0:0:0:0:
128,146,57451,5,6,0:0:0:0:
259,153,57899,2,0,P|309:154|356:151,1,79.9999999999999,2|2,0:0|0:0,0:0:0:0:
382,75,58496,2,0,P|441:61|502:75,1,120,4|0,1:0|1:0,0:0:0:0:
456,334,59839,6,0,P|451:282|454:208,1,120,6|2,0:0|0:0,0:0:0:0:
474,128,60585,1,2,0:0:0:0:
456,41,60884,2,0,P|398:43|322:36,1,120,0|8,0:0|0:0,0:0:0:0:
248,39,61630,1,0,0:0:0:0:
186,101,61928,1,8,0:0:0:0:
188,189,62227,6,0,P|250:202|308:189,1,120,2|2,0:0|0:0,0:0:0:0:
377,140,62973,1,2,0:0:0:0:
434,206,63272,2,0,P|419:253|410:331,1,120,0|8,0:0|0:0,0:0:0:0:
329,358,64018,2,0,P|284:360|238:354,1,79.9999999999999,4|8,0:3|0:3,0:0:0:0:
163,335,64615,6,0,B|145:257|194:257|174:170,1,160,6|0,0:0|0:0,0:0:0:0:
132,102,65510,1,8,0:0:0:0:
219,88,65809,2,0,P|258:91|298:87,1,79.9999999999999,2|8,0:0|0:0,0:0:0:0:
364,28,66406,2,0,P|403:26|443:30,1,79.9999999999999,0|8,0:0|0:0,0:0:0:0:
479,110,67003,6,0,P|483:202|469:280,1,160,2|8,0:0|0:1,0:0:0:0:
386,291,67899,1,8,0:1:0:0:
301,272,68197,2,0,P|248:268|219:271,1,79.9999999999999,0|0,1:0|1:0,0:0:0:0:
134,286,68794,2,0,P|138:233|135:204,1,79.9999999999999,8|4,1:3|1:3,0:0:0:0:
47,206,69391,6,0,P|43:259|53:329,1,120,6|2,0:0|0:0,0:0:0:0:
124,374,70137,1,2,0:0:0:0:
204,337,70436,2,0,P|264:333|327:336,1,120,0|8,0:0|0:0,0:0:0:0:
407,304,71182,2,0,P|407:264|411:224,1,79.9999999999999,0|8,0:0|0:0,0:0:0:0:
408,136,71779,6,0,P|326:140|280:140,1,120,2|2,0:0|0:0,0:0:0:0:
200,128,72525,1,2,1:2:0:0:
116,108,72824,2,0,P|112:196|112:236,1,120,0|8,1:0|0:0,0:0:0:0:
156,304,73570,1,10,0:0:0:0:
244,284,73869,1,10,0:0:0:0:
323,247,74167,6,0,P|379:251|419:251,2,79.9999999999999,6|0|8,0:1|0:0|0:1,0:0:0:0:
281,169,75063,1,8,0:0:0:0:
326,93,75361,2,0,P|382:89|422:89,2,79.9999999999999,2|0|8,0:1|0:0|0:1,0:0:0:0:
252,44,76257,1,8,0:0:0:0:
167,67,76555,6,0,B|128:128|165:197|165:197|213:273|169:344,1,280,2|2,0:1|0:1,0:0:0:0:
55,276,78048,1,2,0:1:0:0:
33,144,78496,1,2,0:1:0:0:
158,104,78943,6,0,L|247:112,1,79.9999999999999,6|8,0:0|0:0,0:0:0:0:
325,120,79540,2,0,P|318:180|317:209,1,79.9999999999999,0|8,0:0|0:0,0:0:0:0:
370,269,80137,2,0,P|310:287|232:223,1,160,2|0,0:0|0:0,0:0:0:0:
190,157,81033,1,8,0:0:0:0:
236,82,81331,6,0,P|277:84|328:83,1,79.9999999999999,2|8,0:0|0:0,0:0:0:0:
400,62,81928,2,0,L|398:143,1,79.9999999999999,0|8,0:0|0:0,0:0:0:0:
466,198,82525,2,0,P|396:230|321:185,1,160,2|0,0:0|1:0,0:0:0:0:
269,127,83421,1,0,1:0:0:0:
195,174,83719,6,0,P|146:180|107:176,1,79.9999999999999,6|8,0:0|0:0,0:0:0:0:
27,182,84316,2,0,P|36:227|34:273,1,79.9999999999999,0|8,0:0|0:0,0:0:0:0:
106,313,84913,2,0,P|167:309|190:304,1,79.9999999999999,2|8,0:0|0:0,0:0:0:0:
273,304,85510,2,0,P|312:310|352:311,1,79.9999999999999,0|8,0:0|0:0,0:0:0:0:
416,252,86107,5,2,0:0:0:0:
366,179,86406,2,0,P|359:129|361:99,1,79.9999999999999,8|0,0:0|0:0,0:0:0:0:
420,35,87003,1,8,0:0:0:0:
481,97,87301,2,0,P|488:147|486:177,1,79.9999999999999,2|2,0:0|0:0,0:0:0:0:
477,264,87899,2,0,P|442:293|370:315,1,120,2|4,0:0|0:3,0:0:0:0:
