osu file format v14

[General]
AudioFilename: audio.mp3
AudioLeadIn: 0
PreviewTime: 59093
Countdown: 1
SampleSet: Soft
StackLeniency: 0.7
Mode: 0
LetterboxInBreaks: 0
WidescreenStoryboard: 0

[Editor]
DistanceSpacing: 1.2
BeatDivisor: 4
GridSize: 4
TimelineZoom: 1

[Metadata]
Title:Paradisus-Paradoxum
TitleUnicode:Paradisus-Paradoxum
Artist:MYTH & ROID
ArtistUnicode:MYTH & ROID
Creator:hvick225
Version:Rem
Source:Re:ゼロから始める異世界生活
Tags:rem
BeatmapID:1022430
BeatmapSetID:478764

[Difficulty]
HPDrainRate:6
CircleSize:4
OverallDifficulty:8
ApproachRate:9.3
SliderMultiplier:1.8
SliderTickRate:1

[Events]
//Background and Video events
0,0,"Rem.png",0,0
//Break Periods
//Storyboard Layer 0 (Background)
//Storyboard Layer 1 (Fail)
//Storyboard Layer 2 (Pass)
//Storyboard Layer 3 (Foreground)
//Storyboard Sound Samples

[TimingPoints]
7302,298.507462686567,4,2,0,60,1,0
9690,-90.9090909090909,4,2,0,60,0,0
16854,-133.333333333333,4,2,0,60,0,0
18943,-100,4,2,0,60,0,0
28794,-133.333333333333,4,2,0,60,0,0
35510,-100,4,2,0,60,0,0
35958,-133.333333333333,4,2,0,60,0,0
37152,-100,4,2,0,60,0,0
37749,-200,4,2,0,60,0,0
38048,-66.6666666666667,4,2,0,60,0,0
38346,-100,4,2,0,60,0,0
47301,-200,4,2,0,60,0,0
47899,-100,4,2,0,60,0,0
59839,-90.9090909090909,4,2,0,60,0,1
74167,-90.9090909090909,4,2,0,60,0,0
76555,-133.333333333333,4,2,0,60,0,0
78496,-100,4,2,0,60,0,0

[HitObjects]
331,119,7301,5,0,0:0:0:0:
115,212,7451,1,0,0:0:0:0:
91,221,7749,5,0,0:0:0:0:
186,40,7899,1,0,0:0:0:0:
280,272,8048,1,0,0:0:0:0:
292,299,8346,6,0,B|326:301|351:293|351:293|378:310|407:319|407:319|435:310|482:308,1,180
412,189,8794,1,0,0:0:0:0:
336,378,8943,1,0,0:0:0:0:
212,262,9093,2,0,B|202:308|202:308|226:366,1,90
303,136,9391,2,0,B|319:96|319:96|309:50,1,90
220,28,9615,1,0,0:0:0:0:
194,41,9690,6,0,L|77:29,1,99.0000030212403
43,262,9988,1,0,0:0:0:0:
279,204,10137,2,0,P|298:251|288:306,1,99.0000030212403
291,297,10436,2,0,L|237:308,1,49.5000015106202
143,149,10585,1,0,0:0:0:0:
398,205,10734,1,0,0:0:0:0:
165,359,10884,6,0,B|155:256|155:256,1,99.0000030212403
301,99,11182,1,0,0:0:0:0:
385,324,11331,1,0,0:0:0:0:
147,160,11481,6,0,B|93:174|39:172|39:172|65:182|84:202,1,148.50000453186
212,211,11779,2,0,P|230:167|219:110,1,99.0000030212403
7,62,12078,1,0,0:0:0:0:
134,244,12227,1,0,0:0:0:0:
190,28,12376,1,0,0:0:0:0:
21,246,12525,6,0,L|30:352,1,99.0000030212403
120,144,12824,1,0,0:0:0:0:
237,314,12973,2,0,L|246:208,1,99.0000030212403
345,27,13272,5,0,0:0:0:0:
400,1,13346,1,0,0:0:0:0:
460,10,13421,1,0,0:0:0:0:
506,50,13495,1,0,0:0:0:0:
512,109,13570,5,0,0:0:0:0:
504,167,13645,1,0,0:0:0:0:
457,206,13719,1,0,0:0:0:0:
397,213,13794,1,0,0:0:0:0:
342,186,13869,6,0,L|285:181,1,49.5000015106202
212,254,14018,2,0,L|154:259,1,49.5000015106202
36,160,14168,5,0,0:0:0:0:
8,106,14242,1,0,0:0:0:0:
27,49,14317,1,0,0:0:0:0:
80,21,14391,1,0,0:0:0:0:
137,41,14466,6,0,B|184:71|230:62|230:62|252:118|218:177,1,198.000006042481
130,229,14913,1,0,0:0:0:0:
431,163,15063,1,0,0:0:0:0:
245,43,15361,1,0,0:0:0:0:
326,348,15660,6,0,B|293:211|293:211|317:148,1,198.000006042481
377,61,16107,1,0,0:0:0:0:
91,227,16257,1,0,0:0:0:0:
437,328,16555,1,0,0:0:0:0:
156,278,16854,6,0,P|18:265|156:174,1,405.000015449525
91,227,17899,1,0,0:0:0:0:
153,69,18346,6,0,L|295:83,1,135.000005149842
471,35,18794,1,0,0:0:0:0:
471,35,18869,1,0,0:0:0:0:
471,35,18943,2,0,P|465:63|463:86,1,45
377,220,19093,2,0,P|374:197|369:175,1,45
511,277,19242,6,0,B|420:256|436:324|333:294,1,180
150,335,19690,1,0,0:0:0:0:
150,335,19764,1,0,0:0:0:0:
150,335,19839,2,0,P|140:288|155:239,1,90
316,85,20137,2,0,L|312:180,1,90
72,86,20436,5,0,0:0:0:0:
201,57,20586,1,0,0:0:0:0:
27,190,20734,5,0,0:0:0:0:
239,225,20883,1,0,0:0:0:0:
64,60,21033,5,0,0:0:0:0:
123,313,21182,1,0,0:0:0:0:
294,108,21331,1,0,0:0:0:0:
9,197,21481,1,0,0:0:0:0:
9,197,21555,1,0,0:0:0:0:
9,197,21630,6,0,B|74:188|74:188|120:144|120:144|188:134,1,180
170,136,22078,2,0,L|176:74,1,45
262,25,22227,2,0,B|309:17|309:17|352:35,1,90
325,239,22525,2,0,B|278:247|278:247|235:229,1,90
469,65,22824,5,0,0:0:0:0:
289,134,22973,1,0,0:0:0:0:
456,227,23122,1,0,0:0:0:0:
260,131,23272,2,0,L|163:119,1,90
325,239,23570,1,0,0:0:0:0:
348,33,23719,1,0,0:0:0:0:
508,151,23869,1,0,0:0:0:0:
306,256,24018,6,0,B|256:240|218:280|218:280|176:300|125:264,1,180
21,88,24466,1,0,0:0:0:0:
21,88,24540,1,0,0:0:0:0:
21,88,24615,2,0,P|69:73|110:88,1,90
54,310,24913,2,0,L|59:217,1,90
208,105,25212,5,0,0:0:0:0:
232,274,25361,1,0,0:0:0:0:
397,64,25510,5,0,0:0:0:0:
370,317,25660,1,0,0:0:0:0:
144,190,25809,5,0,0:0:0:0:
454,242,25958,1,0,0:0:0:0:
313,19,26107,2,0,B|304:65|304:65|314:109,1,90
379,334,26406,6,0,B|319:313|319:313|174:358,1,180
207,347,26854,2,0,L|216:292,1,45
155,213,27003,2,0,P|115:195|61:204,1,90
262,109,27301,2,0,P|302:91|356:100,1,90
146,36,27600,5,0,0:0:0:0:
319,179,27749,1,0,0:0:0:0:
28,273,27899,1,0,0:0:0:0:
7,246,27973,1,0,0:0:0:0:
0,214,28048,1,0,0:0:0:0:
0,181,28122,1,0,0:0:0:0:
8,149,28197,1,0,0:0:0:0:
243,328,28346,1,0,0:0:0:0:
308,40,28496,1,0,0:0:0:0:
78,202,28645,1,0,0:0:0:0:
355,278,28794,5,0,0:0:0:0:
373,296,29093,2,0,L|514:306,1,135.000005149842
306,225,29540,2,0,P|275:286|302:361,1,135.000005149842
405,197,29988,1,0,0:0:0:0:
393,165,30062,1,0,0:0:0:0:
370,140,30137,1,0,0:0:0:0:
340,125,30211,1,0,0:0:0:0:
307,122,30286,1,0,0:0:0:0:
155,39,30436,5,0,0:0:0:0:
133,64,30510,1,0,0:0:0:0:
123,96,30585,1,0,0:0:0:0:
125,130,30659,1,0,0:0:0:0:
139,160,30734,1,0,0:0:0:0:
234,340,30884,2,0,P|199:334|150:333,1,67.5000025749208
77,212,31182,6,0,P|143:242|205:205,1,135.000005149842
245,91,31630,1,0,0:0:0:0:
245,91,31704,1,0,0:0:0:0:
245,91,31779,1,0,0:0:0:0:
139,160,31928,1,0,0:0:0:0:
271,253,32078,2,0,P|277:207|268:175,1,67.5000025749208
214,310,32376,5,0,0:0:0:0:
240,330,32450,1,0,0:0:0:0:
273,337,32525,1,0,0:0:0:0:
305,328,32599,1,0,0:0:0:0:
331,307,32675,2,0,P|399:292|458:332,1,135.000005149842
417,105,33122,2,0,B|401:203|401:203|372:148,1,135.000005149842
283,88,33570,5,0,0:0:0:0:
250,77,33644,1,0,0:0:0:0:
217,79,33719,1,0,0:0:0:0:
186,92,33793,1,0,0:0:0:0:
161,114,33868,1,0,0:0:0:0:
230,237,34018,1,0,0:0:0:0:
230,237,34093,1,0,0:0:0:0:
230,237,34167,2,0,L|234:163,1,67.5000025749208
69,48,34466,6,0,L|78:190,1,135.000005149842
157,320,34913,1,0,0:0:0:0:
157,320,34988,1,0,0:0:0:0:
157,320,35063,2,0,B|50:301|50:301|72:327,1,135.000005149842
247,358,35510,6,0,P|250:332|257:296,1,45
109,232,35660,2,0,P|106:206|99:170,1,45
264,119,35809,2,0,P|267:93|274:57,1,45
215,205,35958,6,0,B|277:216|277:216|348:188|348:188|410:200,1,202.500007724762
383,381,36555,5,0,0:0:0:0:
362,349,36630,1,0,0:0:0:0:
366,311,36704,1,0,0:0:0:0:
395,288,36779,1,0,0:0:0:0:
444,271,36854,5,0,0:0:0:0:
479,240,36928,1,0,0:0:0:0:
487,193,37003,1,0,0:0:0:0:
476,146,37078,1,0,0:0:0:0:
434,125,37152,6,0,L|406:121,6,22.5
356,68,37451,2,0,L|328:72,6,22.5
280,125,37749,6,0,L|232:120,1,45
187,48,38048,6,0,B|208:121|182:185|182:185|172:150|144:118,1,202.500007724762
85,57,38346,6,0,P|33:65|-1:93,1,90
73,319,38645,1,0,0:0:0:0:
268,210,38794,1,0,0:0:0:0:
66,130,38943,5,0,0:0:0:0:
287,211,39093,1,0,0:0:0:0:
158,373,39242,2,0,L|166:270,1,90
407,214,39540,1,0,0:0:0:0:
247,330,39690,1,0,0:0:0:0:
211,136,39839,1,0,0:0:0:0:
383,295,39988,2,0,P|430:297|468:274,1,90
314,47,40287,6,0,L|310:95,1,45
224,149,40436,2,0,P|185:127|140:129,1,90
71,283,40734,1,0,0:0:0:0:
15,105,40884,1,0,0:0:0:0:
15,105,40958,1,0,0:0:0:0:
15,105,41033,2,0,L|21:150,1,45
167,202,41182,2,0,L|161:247,1,45
103,373,41331,5,0,0:0:0:0:
25,173,41481,1,0,0:0:0:0:
252,281,41630,2,0,B|298:291|298:291|359:274,1,90
507,95,41928,2,0,B|448:111|448:111|384:91|384:91|303:110,1,180
450,23,42376,1,0,0:0:0:0:
373,176,42525,5,0,0:0:0:0:
330,189,42599,1,0,0:0:0:0:
287,178,42674,1,0,0:0:0:0:
258,145,42748,1,0,0:0:0:0:
249,96,42823,5,0,0:0:0:0:
220,54,42899,1,0,0:0:0:0:
174,35,42973,1,0,0:0:0:0:
124,41,43048,1,0,0:0:0:0:
95,81,43122,6,0,L|100:175,1,90
210,285,43421,1,0,0:0:0:0:
38,297,43570,2,0,B|156:263|156:263|216:287,1,180
459,270,44018,1,0,0:0:0:0:
328,329,44167,1,0,0:0:0:0:
328,329,44242,1,0,0:0:0:0:
328,329,44316,2,0,B|315:281|315:281|328:223,1,90
490,149,44615,6,0,P|446:159|400:150,1,90
275,19,44913,1,0,0:0:0:0:
194,237,45063,1,0,0:0:0:0:
388,148,45212,1,0,0:0:0:0:
149,84,45362,1,0,0:0:0:0:
149,84,45436,1,0,0:0:0:0:
149,84,45510,6,0,L|142:29,3,45
76,140,45809,2,0,L|69:195,3,45
5,241,46108,1,0,0:0:0:0:
31,261,46182,1,0,0:0:0:0:
64,270,46257,1,0,0:0:0:0:
97,266,46331,1,0,0:0:0:0:
139,232,46406,5,0,0:0:0:0:
185,203,46481,1,0,0:0:0:0:
242,205,46555,1,0,0:0:0:0:
288,233,46630,1,0,0:0:0:0:
310,281,46704,5,0,0:0:0:0:
510,10,46903,5,0,0:0:0:0:
180,116,47102,5,0,0:0:0:0:
402,325,47301,6,0,P|413:273|401:232,1,90
160,77,47899,6,0,B|230:68|219:128|308:100,1,135
365,65,48197,2,0,P|415:73|451:109,1,90
354,319,48496,1,0,0:0:0:0:
495,224,48645,1,0,0:0:0:0:
249,135,48794,2,0,L|258:235,1,90
64,339,49093,6,0,B|55:237|55:237|86:267,1,135
154,308,49391,2,0,P|203:319|255:308,1,90
340,106,49690,1,0,0:0:0:0:
198,234,49839,1,0,0:0:0:0:
127,47,49988,1,0,0:0:0:0:
355,213,50137,1,0,0:0:0:0:
355,213,50212,1,0,0:0:0:0:
355,213,50287,6,0,P|361:106|368:53,1,135
258,14,50585,2,0,P|268:64|275:108,1,90
467,175,50884,1,0,0:0:0:0:
323,309,51033,1,0,0:0:0:0:
277,114,51182,2,0,P|227:104|183:97,1,90
24,260,51481,6,0,B|74:260|121:250|121:250|110:267|104:288,1,135
183,351,51779,2,0,P|232:357|282:336,1,90
423,225,52078,1,0,0:0:0:0:
419,193,52152,1,0,0:0:0:0:
416,161,52227,1,0,0:0:0:0:
413,129,52301,1,0,0:0:0:0:
407,79,52376,5,0,0:0:0:0:
370,112,52451,1,0,0:0:0:0:
325,131,52525,1,0,0:0:0:0:
275,129,52600,1,0,0:0:0:0:
230,105,52675,6,0,B|173:78|121:101|121:101|135:105|155:118,1,135
181,195,52973,2,0,P|181:245|161:284,1,90
26,137,53272,1,0,0:0:0:0:
266,239,53421,1,0,0:0:0:0:
49,357,53570,2,0,L|40:264,1,90
269,345,53869,6,0,B|358:312|358:312|423:333,1,135
396,324,54167,2,0,L|405:231,1,90
281,91,54466,2,0,P|278:140|295:183,1,90
511,145,54764,2,0,P|454:113|379:128,1,135
303,191,55063,6,0,P|257:205|200:200,1,90
104,90,55361,1,0,0:0:0:0:
63,276,55510,1,0,0:0:0:0:
244,44,55660,5,0,0:0:0:0:
281,328,55809,1,0,0:0:0:0:
488,9,55958,5,0,0:0:0:0:
437,373,56107,1,0,0:0:0:0:
167,193,56257,6,0,L|110:198,3,45
60,269,56555,2,0,L|3:264,3,45
140,341,56854,5,0,0:0:0:0:
190,365,56928,1,0,0:0:0:0:
245,369,57003,1,0,0:0:0:0:
299,352,57077,1,0,0:0:0:0:
341,316,57152,5,0,0:0:0:0:
368,267,57227,1,0,0:0:0:0:
373,211,57301,1,0,0:0:0:0:
358,158,57376,1,0,0:0:0:0:
323,114,57451,5,0,0:0:0:0:
27,189,57600,1,0,0:0:0:0:
12,194,57899,5,0,0:0:0:0:
253,371,58048,1,0,0:0:0:0:
157,50,58197,1,0,0:0:0:0:
144,38,58496,6,0,B|125:139|125:139|139:182,1,135
143,193,58794,1,0,0:0:0:0:
245,110,58943,1,0,0:0:0:0:
36,75,59093,1,0,0:0:0:0:
109,276,59242,6,0,P|153:280|197:257,1,90
424,344,59540,2,0,P|364:313|277:338,1,135
299,323,59839,6,0,L|306:222,1,99.0000030212403
511,276,60137,1,0,0:0:0:0:
393,66,60287,2,0,B|384:115|384:115|398:165,1,99.0000030212403
397,162,60585,2,0,L|451:154,1,49.5000015106202
270,112,60734,1,0,0:0:0:0:
375,286,60884,1,0,0:0:0:0:
253,91,61033,6,0,L|151:109,1,99.0000030212403
119,303,61331,1,0,0:0:0:0:
303,206,61481,1,0,0:0:0:0:
76,70,61630,2,0,B|48:140|107:140|77:225,1,148.50000453186
128,312,61928,2,0,P|172:326|228:322,1,99.0000030212403
338,115,62227,1,0,0:0:0:0:
185,239,62376,1,0,0:0:0:0:
399,316,62525,1,0,0:0:0:0:
258,61,62675,6,0,P|246:113|268:169,1,99.0000030212403
448,246,62973,2,0,P|396:234|340:256,1,99.0000030212403
157,339,63272,2,0,B|143:188|143:188|181:252,1,198.000006042481
41,288,63719,1,0,0:0:0:0:
129,92,63869,1,0,0:0:0:0:
263,263,64018,5,0,0:0:0:0:
304,289,64092,1,0,0:0:0:0:
354,292,64167,1,0,0:0:0:0:
401,279,64241,1,0,0:0:0:0:
444,238,64316,5,0,0:0:0:0:
472,185,64391,1,0,0:0:0:0:
464,126,64465,1,0,0:0:0:0:
430,76,64540,1,0,0:0:0:0:
377,47,64615,6,0,B|281:29|297:118|186:74,1,198.000006042481
355,131,65063,1,0,0:0:0:0:
270,295,65212,2,0,L|262:182,1,99.0000030212403
108,31,65510,2,0,B|95:85|95:85|118:130,1,99.0000030212403
221,64,65809,5,0,0:0:0:0:
135,249,65958,1,0,0:0:0:0:
0,89,66108,1,0,0:0:0:0:
136,266,66257,1,0,0:0:0:0:
108,31,66406,5,0,0:0:0:0:
15,223,66555,1,0,0:0:0:0:
253,195,66704,1,0,0:0:0:0:
253,195,66854,1,0,0:0:0:0:
114,116,67003,5,0,0:0:0:0:
366,147,67152,1,0,0:0:0:0:
75,291,67301,5,0,0:0:0:0:
426,260,67451,1,0,0:0:0:0:
196,87,67600,5,0,0:0:0:0:
165,339,67749,1,0,0:0:0:0:
309,27,67898,5,0,0:0:0:0:
340,378,68048,1,0,0:0:0:0:
500,191,68197,6,0,L|439:186,3,49.5000015106202
368,85,68496,2,0,L|394:140,3,49.5000015106202
371,261,68794,5,0,0:0:0:0:
330,232,68868,1,0,0:0:0:0:
280,233,68943,1,0,0:0:0:0:
242,264,69017,1,0,0:0:0:0:
201,308,69092,5,0,0:0:0:0:
147,333,69167,1,0,0:0:0:0:
88,330,69241,1,0,0:0:0:0:
39,295,69316,1,0,0:0:0:0:
19,237,69391,6,0,P|15:181|25:137,1,99.0000030212403
232,169,69690,1,0,0:0:0:0:
129,13,69839,2,0,B|84:112|160:112|125:216,1,198.000006042481
292,71,70287,1,0,0:0:0:0:
337,285,70436,1,0,0:0:0:0:
507,140,70585,6,0,P|464:112|411:111,1,99.0000030212403
239,197,70884,1,0,0:0:0:0:
445,295,71033,1,0,0:0:0:0:
235,383,71182,2,0,L|220:203,1,148.50000453186
169,154,71481,2,0,B|123:143|123:143|63:165,1,99.0000030212403
221,71,71779,1,0,0:0:0:0:
131,256,71928,1,0,0:0:0:0:
0,104,72078,1,0,0:0:0:0:
133,282,72227,6,0,L|129:382,1,99.0000030212403
242,182,72525,2,0,L|239:125,2,49.5000015106202
442,306,72824,2,0,B|383:301|383:301|316:326|316:326|243:316,1,198.000006042481
128,89,73272,5,0,0:0:0:0:
380,136,73421,1,0,0:0:0:0:
218,313,73570,5,0,0:0:0:0:
259,48,73719,1,0,0:0:0:0:
209,189,73869,6,0,L|273:177,3,49.5000015106202
367,127,74167,2,0,B|402:176|414:223|414:223|368:268|296:291,1,198.000006042481
209,189,74615,1,0,0:0:0:0:
506,246,74764,1,0,0:0:0:0:
506,246,75063,1,0,0:0:0:0:
301,101,75361,6,0,B|275:60|218:68|218:68|186:118|122:102,1,198.000006042481
17,14,75809,1,0,0:0:0:0:
109,304,75958,1,0,0:0:0:0:
109,304,76257,1,0,0:0:0:0:
386,103,76555,6,0,P|352:32|296:189,1,405.000015449525
301,101,77600,1,0,0:0:0:0:
84,39,78048,6,0,L|98:194,1,135.000005149842
61,322,78496,6,0,B|130:363|206:341|206:341|192:332|169:311,1,180
166,247,78869,1,0,0:0:0:0:
175,216,78943,2,0,P|214:195|265:201,1,90
362,328,79242,1,0,0:0:0:0:
441,178,79391,1,0,0:0:0:0:
348,344,79540,6,0,L|343:249,1,90
512,110,79839,2,0,P|454:82|377:102,1,135
309,136,80137,6,0,B|263:148|263:148|212:135,1,90
102,35,80436,1,0,0:0:0:0:
102,35,80585,1,0,0:0:0:0:
137,250,80734,1,0,0:0:0:0:
264,70,80884,1,0,0:0:0:0:
26,148,81033,2,0,B|72:136|72:136|123:149,1,90
251,340,81331,6,0,B|342:360|342:360|448:335,1,180
281,227,81779,1,0,0:0:0:0:
281,227,81854,1,0,0:0:0:0:
281,227,81928,2,0,L|188:236,1,90
388,217,82227,1,0,0:0:0:0:
268,69,82376,1,0,0:0:0:0:
191,235,82525,5,0,0:0:0:0:
191,235,82675,1,0,0:0:0:0:
387,121,82824,1,0,0:0:0:0:
184,17,82973,1,0,0:0:0:0:
409,132,83122,6,0,L|466:121,1,45
317,214,83272,2,0,L|260:203,1,45
156,124,83421,1,0,0:0:0:0:
112,116,83495,1,0,0:0:0:0:
70,131,83570,1,0,0:0:0:0:
42,166,83644,1,0,0:0:0:0:
36,210,83719,5,0,0:0:0:0:
184,17,83869,1,0,0:0:0:0:
209,267,84018,1,0,0:0:0:0:
10,83,84167,1,0,0:0:0:0:
289,112,84316,2,0,B|188:83|221:166|95:127,1,180
224,291,84764,1,0,0:0:0:0:
75,362,84913,6,0,P|63:310|70:264,1,90
311,304,85212,1,0,0:0:0:0:
311,304,85361,1,0,0:0:0:0:
181,119,85510,2,0,L|187:215,1,90
325,321,85809,1,0,0:0:0:0:
423,143,85958,5,0,0:0:0:0:
423,143,86033,1,0,0:0:0:0:
423,143,86107,2,0,P|375:139|336:161,1,90
156,291,86406,2,0,P|204:295|243:273,1,90
426,312,86704,2,0,B|449:257|449:257|419:128,1,180
224,74,87152,1,0,0:0:0:0:
224,74,87227,1,0,0:0:0:0:
224,74,87301,1,0,0:0:0:0:
288,244,87451,1,0,0:0:0:0:
368,20,87600,5,0,0:0:0:0:
97,71,87749,1,0,0:0:0:0:
446,186,87899,5,0,0:0:0:0:
52,233,88048,2,0,L|100:239,1,45
224,74,88197,2,0,L|272:68,1,45
429,282,88346,1,0,0:0:0:0:
