osu file format v14

[General]
AudioFilename: audio.mp3
AudioLeadIn: 0
PreviewTime: 3014
Countdown: 0
SampleSet: Soft
StackLeniency: 0.4
Mode: 0
LetterboxInBreaks: 0
WidescreenStoryboard: 0

[Editor]
Bookmarks: 1205,13145,22697,27473,29861,32249
DistanceSpacing: 1
BeatDivisor: 4
GridSize: 4
TimelineZoom: 3.160002

[Metadata]
Title:Paradisus-Paradoxum (ft. R3 Music Box)
TitleUnicode:Paradisus-Paradoxum (ft. R3 Music Box)
Artist:MYTH & ROID
ArtistUnicode:MYTH & ROID
Creator:Megapcmx
Version:Re:Zero
Source:Re:ゼロから始める異世界生活
Tags:
BeatmapID:1759209
BeatmapSetID:840443

[Difficulty]
HPDrainRate:5.6
CircleSize:4
OverallDifficulty:8.2
ApproachRate:9.6
SliderMultiplier:2.2
SliderTickRate:1

[Events]
//Background and Video events
0,0,"bg.jpg",0,0
//Break Periods
//Storyboard Layer 0 (Background)
//Storyboard Layer 1 (Fail)
//Storyboard Layer 2 (Pass)
//Storyboard Layer 3 (Foreground)
//Storyboard Sound Samples

[TimingPoints]
1205,298.507462686567,4,2,1,50,1,0
3593,-83.3333333333333,4,1,2,70,0,1
3742,-83.3333333333333,4,1,1,70,0,1
5384,-100,4,1,1,70,0,1
5981,-83.3333333333333,4,1,1,70,0,1
7772,-100,4,1,1,80,0,1
8369,-71.4285714285714,4,1,2,70,0,1
8518,-71.4285714285714,4,1,1,70,0,1
8667,-83.3333333333333,4,1,1,70,0,1
9563,-71.4285714285714,4,1,1,70,0,1
10757,-100,4,1,1,75,0,1
12548,-62.5,4,1,1,80,0,1
13145,-71.4285714285714,4,1,2,70,0,1
13294,-83.3333333333333,4,1,1,70,0,1
14936,-100,4,1,1,70,0,1
15533,-71.4285714285714,4,1,1,70,0,1
15682,-83.3333333333333,4,1,1,70,0,1
16727,-125,4,1,1,70,0,1
16951,-125,4,1,1,5,0,1
17025,-111.111111111111,4,1,1,70,0,1
17249,-111.111111111111,4,1,1,5,0,1
17324,-100,4,1,1,70,0,1
17548,-100,4,1,1,5,0,1
17622,-90.9090909090909,4,1,1,70,0,1
17846,-90.9090909090909,4,1,1,5,0,1
17921,-125,4,3,2,60,0,0
18369,-83.3333333333333,4,3,1,70,0,0
19115,-125,4,3,2,60,0,0
19563,-83.3333333333333,4,3,1,70,0,0
20309,-125,4,3,2,70,0,0
21204,-125,4,3,1,5,0,0
21354,-125,4,3,1,70,0,0
21503,-125,4,3,1,5,0,0
21802,-125,4,3,1,70,0,0
21951,-125,4,3,1,5,0,0
22249,-100,4,3,1,70,0,0
22399,-100,4,1,1,70,0,0
22697,-100,4,1,2,70,0,0
22996,-83.3333333333333,4,1,1,70,0,0
24637,-83.3333333333333,4,1,1,70,0,0
25085,-100,4,1,1,70,0,0
25384,-83.3333333333333,4,1,1,70,0,0
26876,-83.3333333333333,4,1,1,80,0,0
27473,-83.3333333333333,4,1,2,70,0,0
27622,-83.3333333333333,4,1,1,70,0,0
31055,-83.3333333333333,4,1,1,80,0,0
31652,-71.4285714285714,4,1,1,85,0,0
31951,-66.6666666666667,4,1,1,85,0,0
33294,-71.4285714285714,4,1,2,85,0,0

[Colours]
Combo1 : 222,0,0
Combo2 : 255,130,10
Combo3 : 20,123,255

[HitObjects]
139,78,2996,5,2,0:0:0:0:
147,86,3294,1,2,0:0:0:0:
183,212,3593,6,0,P|238:178|270:121,1,131.99999597168,6|0,0:0|0:0,0:0:0:0:
270,15,3891,1,8,0:0:0:0:
359,74,4040,2,0,B|431:98|431:58|488:72,1,131.99999597168,2|0,0:0|0:0,0:0:0:0:
463,179,4339,2,0,P|410:212|358:178,1,131.99999597168,2|8,0:0|0:0,0:0:0:0:
270,120,4637,6,0,L|270:252,1,131.99999597168,0|2,0:0|0:0,0:0:0:0:
359,310,4936,1,0,0:0:0:0:
181,194,5085,1,8,0:0:0:0:
212,341,5234,1,2,0:0:0:0:
399,234,5384,6,0,P|435:273|441:327,1,110,0|2,0:0|0:0,0:0:0:0:
274,181,5682,2,0,P|289:129|333:97,1,110,8|0,0:0|0:0,0:0:0:0:
359,310,5981,6,0,B|302:324|302:284|230:308,1,131.99999597168,2|0,0:0|0:0,0:0:0:0:
131,346,6279,1,8,0:0:0:0:
54,278,6428,2,0,P|92:228|153:243,1,131.99999597168,2|0,0:0|0:0,0:0:0:0:
229,308,6727,2,0,L|274:182,1,131.99999597168,2|8,0:0|0:0,0:0:0:0:
304,95,7025,1,0,0:0:0:0:
364,167,7175,5,2,0:0:0:0:
335,8,7324,1,0,0:0:0:0:
213,112,7473,1,8,0:0:0:0:
395,79,7622,1,2,0:0:0:0:
244,23,7772,5,2,0:0:0:0:
203,18,7846,1,0,0:0:0:0:
164,30,7921,1,0,0:0:0:0:
134,58,7996,1,0,0:0:0:0:
119,97,8070,1,10,0:0:0:0:
122,137,8145,1,0,0:0:0:0:
142,173,8219,1,2,0:0:0:0:
175,197,8294,1,0,0:0:0:0:
215,205,8369,6,0,B|300:233|300:186|365:202,1,153.999995300293,6|0,0:0|0:0,0:0:0:0:
443,237,8667,1,8,0:0:0:0:
355,115,8816,1,2,0:0:0:0:
293,254,8966,2,0,P|247:300|185:319,1,131.99999597168,0|2,0:0|0:0,0:0:0:0:
88,149,9264,2,0,P|151:164|199:209,1,131.99999597168,8|0,0:0|0:0,0:0:0:0:
84,372,9563,6,0,P|46:312|97:263,1,153.999995300293,2|0,0:0|0:0,0:0:0:0:
184,319,9861,1,8,0:0:0:0:
198,208,10010,1,2,0:0:0:0:
284,263,10160,2,0,P|335:214|297:154,1,153.999995300293,0|2,0:0|0:0,0:0:0:0:
212,97,10458,1,8,0:0:0:0:
198,208,10607,1,0,0:0:0:0:
108,140,10757,5,6,0:0:0:0:
97,262,10906,1,0,0:0:0:0:
212,97,11055,1,14,0:0:0:0:
2,195,11204,1,0,0:0:0:0:
202,212,11354,5,14,0:0:0:0:
12,80,11503,1,0,0:0:0:0:
97,262,11652,1,14,0:0:0:0:
116,30,11802,1,0,0:0:0:0:
202,212,11951,5,6,0:0:0:0:
236,246,12025,1,0,0:0:0:0:
283,263,12100,1,0,0:0:0:0:
331,257,12175,1,0,0:0:0:0:
373,232,12249,1,14,0:0:0:0:
400,191,12324,1,0,0:0:0:0:
406,142,12399,1,0,0:0:0:0:
391,95,12473,1,0,0:0:0:0:
352,61,12548,6,0,P|314:40|271:38,1,88,6|0,0:0|0:0,0:0:0:0:
126,176,12697,2,0,P|127:220|147:259,1,88,0|0,0:0|0:0,0:0:0:0:
308,219,12846,2,0,P|306:175|287:137,1,88,14|0,0:0|0:0,0:0:0:0:
171,18,12996,2,0,P|172:62|192:101,1,88,14|0,0:0|0:0,0:0:0:0:
223,195,13145,6,0,B|312:200|300:154|367:153,1,153.999995300293,6|0,0:0|0:0,0:0:0:0:
473,153,13443,1,8,0:0:0:0:
420,245,13593,2,0,P|358:258|307:219,1,131.99999597168,2|0,0:0|0:0,0:0:0:0:
252,25,13891,2,0,P|294:72|287:137,1,131.99999597168,2|8,0:0|0:0,0:0:0:0:
220,321,14190,2,0,B|203:255|203:255|223:195,1,131.99999597168,0|2,0:0|0:0,0:0:0:0:
367,152,14488,5,0,0:0:0:0:
179,260,14637,1,8,0:0:0:0:
327,300,14787,1,2,0:0:0:0:
219,112,14936,6,0,P|221:58|255:16,1,110,0|2,0:0|0:0,0:0:0:0:
367,152,15234,2,0,P|364:205|330:247,1,110,8|0,0:0|0:0,0:0:0:0:
93,174,15533,6,0,B|180:153|176:200|242:190,1,153.999995300293,2|0,0:0|0:0,0:0:0:0:
367,152,15831,1,8,0:0:0:0:
448,256,15981,2,0,P|428:316|368:340,1,131.99999597168,2|0,0:0|0:0,0:0:0:0:
209,286,16279,2,0,B|265:247|265:247|329:247,1,131.99999597168,2|8,0:0|0:0,0:0:0:0:
330,248,16503,1,0,0:0:0:0:
330,248,16578,1,0,0:0:0:0:
367,152,16727,6,0,B|416:163|452:153|452:153|461:198,1,132,4|0,0:0|0:0,0:0:0:0:
480,275,17025,6,0,B|460:310|424:308|424:308|424:266|396:227,1,148.49999546814,4|0,0:0|0:0,0:0:0:0:
307,189,17324,6,0,B|272:166|229:183|229:183|222:228|187:253,1,165,6|0,0:0|0:0,0:0:0:0:
224,336,17622,6,0,B|154:377|87:329|87:329|119:311,1,181.500005538941,6|0,0:0|0:0,0:0:0:0:
290,286,17921,6,0,B|352:248|360:168|360:168|416:216|414:272,1,264,4|2,0:1|0:1,0:0:0:0:
400,352,18518,1,0,0:0:0:0:
239,176,19115,6,0,P|312:80|360:168,1,264,4|2,0:1|0:1,0:0:0:0:
346,248,19712,1,0,0:0:0:0:
200,127,20309,6,0,B|200:77|256:45|256:45|313:127|256:191|256:191|200:256|256:337|256:337|313:305|313:256,1,528,4|0,0:1|0:0,0:0:0:0:
373,189,21354,6,0,P|397:225|400:268,1,88,6|0,0:1|0:0,0:0:0:0:
138,189,21802,2,0,P|114:225|111:268,1,88,6|0,0:1|0:0,0:0:0:0:
256,327,22249,6,0,L|256:217,1,110,6|2,0:1|0:0,0:0:0:0:
256,175,22473,1,2,0:0:0:0:
256,134,22548,1,2,0:0:0:0:
256,93,22622,1,2,0:0:0:0:
256,52,22697,6,0,B|303:32|303:32|364:61|364:61|404:36|465:55,1,220,4|8,0:0|0:0,0:0:0:0:
417,148,23145,1,2,0:0:0:0:
485,230,23294,2,0,P|422:249|358:235,1,131.99999597168,0|2,0:0|0:0,0:0:0:0:
130,182,23593,2,0,P|192:162|256:176,1,131.99999597168,8|0,0:0|0:0,0:0:0:0:
251,291,23891,5,0,0:0:0:0:
363,120,24040,1,0,0:0:0:0:
458,298,24190,1,8,0:0:0:0:
255,175,24339,2,0,P|192:193|147:241,1,131.99999597168,2|0,0:0|0:0,0:0:0:0:
146,340,24637,6,0,P|84:318|50:263,1,131.99999597168,2|8,0:0|0:0,0:0:0:0:
73,157,24936,1,0,0:0:0:0:
147,240,25085,6,0,B|194:260|194:260|255:231|255:231|295:256|356:237,1,220,4|8,0:0|0:0,0:0:0:0:
423,158,25533,1,2,0:0:0:0:
492,237,25682,2,0,P|469:297|417:337,1,131.99999597168,0|2,0:0|0:0,0:0:0:0:
312,154,25981,2,0,P|335:93|387:53,1,131.99999597168,8|0,0:0|0:0,0:0:0:0:
493,79,26279,5,0,0:0:0:0:
353,237,26428,1,0,0:0:0:0:
492,237,26578,1,8,0:0:0:0:
354,79,26727,1,2,0:0:0:0:
215,79,26876,5,4,0:0:0:0:
158,85,26950,1,0,0:0:0:0:
111,118,27025,1,2,0:0:0:0:
85,169,27099,1,0,0:0:0:0:
87,226,27174,1,6,0:0:0:0:
115,276,27249,1,0,0:0:0:0:
163,307,27323,1,2,0:0:0:0:
220,311,27398,1,0,0:0:0:0:
272,288,27473,5,4,0:0:0:0:
323,166,27622,1,0,0:0:0:0:
414,261,27772,2,0,P|391:321|339:361,1,131.99999597168,8|2,0:0|0:0,0:0:0:0:
289,55,28070,2,0,P|352:44|413:69,1,131.99999597168,0|2,0:0|0:0,0:0:0:0:
504,165,28369,1,8,0:0:0:0:
323,166,28518,6,0,B|251:190|251:150|194:164,1,131.99999597168,0|0,0:0|0:0,0:0:0:0:
78,189,28816,1,0,0:0:0:0:
218,279,28966,1,8,0:0:0:0:
103,304,29115,1,2,0:0:0:0:
193,164,29265,1,0,0:0:0:0:
169,331,29413,5,2,0:0:0:0:
126,136,29563,1,8,0:0:0:0:
50,255,29712,1,0,0:0:0:0:
245,212,29861,6,0,P|305:235|345:287,1,131.99999597168,4|0,0:0|0:0,0:0:0:0:
147,265,30160,2,0,P|136:201|161:140,1,131.99999597168,8|2,0:0|0:0,0:0:0:0:
240,324,30458,2,0,P|126:373|38:286,1,263.99999194336,0|10,0:0|0:0,0:0:0:0:
38,152,30906,1,0,0:0:0:0:
155,205,31055,5,4,0:0:0:0:
203,199,31129,1,0,0:0:0:0:
242,169,31204,1,0,0:0:0:0:
259,123,31278,1,0,0:0:0:0:
251,75,31353,1,6,0:0:0:0:
219,38,31428,1,0,0:0:0:0:
172,24,31502,1,0,0:0:0:0:
124,35,31577,1,0,0:0:0:0:
90,69,31652,6,0,P|69:102|67:141,1,76.9999976501466,6|0,0:0|0:0,0:0:0:0:
131,275,31802,2,0,P|152:242|154:203,1,76.9999976501466,4|0,0:0|0:0,0:0:0:0:
13,107,31951,6,0,P|21:147|47:178,1,82.5000031471254,6|0,0:0|0:0,0:0:0:0:
207,236,32101,2,0,P|199:196|173:165,1,82.5000031471254,6|0,0:0|0:0,0:0:0:0:
0,194,32249,5,4,0:0:0:0:
172,24,32399,1,4,0:0:0:0:
172,293,32697,5,4,0:0:0:0:
343,194,32846,1,4,0:0:0:0:
172,94,32996,1,4,0:0:0:0:
284,290,33294,6,0,B|324:340|380:364|456:344|456:344|408:320|372:261,1,307.999990600586,4|4,0:0|0:0,0:0:0:0:
312,124,33742,5,6,0:0:0:0:
