osu file format v14

[General]
AudioFilename: MYTH & ROID - Paradisus-Paradoxum.mp3
AudioLeadIn: 0
PreviewTime: 59253
Countdown: 0
SampleSet: Soft
StackLeniency: 0.7
Mode: 0
LetterboxInBreaks: 0
WidescreenStoryboard: 0

[Editor]
DistanceSpacing: 1.2
BeatDivisor: 4
GridSize: 16
TimelineZoom: 1

[Metadata]
Title:Paradisus-Paradoxum
TitleUnicode:Paradisus-Paradoxum
Artist:MYTH & ROID
ArtistUnicode:MYTH & ROID
Creator:_DT3
Version:Easy
Source:Re:ゼロから始める異世界生活
Tags:re: zero kara hajimeru isekai seikatsu life in a different world from zero re:zero tv size op opening
BeatmapID:1057227
BeatmapSetID:492514

[Difficulty]
HPDrainRate:2
CircleSize:2.5
OverallDifficulty:2
ApproachRate:3
SliderMultiplier:1
SliderTickRate:1

[Events]
//Background and Video events
0,0,"tumblr_o89fy2IP1D1tj6qzbo6_1280[1].jpg",0,0
Video,0,"optc.flv"
//Break Periods
2,29005,34529
//Storyboard Layer 0 (Background)
//Storyboard Layer 1 (Fail)
//Storyboard Layer 2 (Pass)
//Storyboard Layer 3 (Foreground)
//Storyboard Sound Samples

[TimingPoints]
148,298.507462686567,4,2,10,75,1,0
6118,-133.333333333333,4,2,10,75,0,0
9103,-133.333333333333,4,2,10,30,0,0
9700,-133.333333333333,4,2,10,85,0,0
14476,-133.333333333333,4,2,10,75,0,0
19252,-133.333333333333,4,2,10,85,0,0
28804,-133.333333333333,4,2,12,85,0,0
38655,-133.333333333333,4,2,10,55,0,0
47909,-133.333333333333,4,2,10,65,0,0
55073,-133.333333333333,4,2,10,75,0,0
59849,-133.333333333333,4,2,10,85,0,1
74177,-133.333333333333,4,2,10,75,0,0
78953,-133.333333333333,4,2,10,85,0,1
88506,-133.333333333333,4,2,10,40,0,0

[Colours]
Combo1 : 124,124,124
Combo2 : 68,170,253
Combo3 : 253,98,114
Combo4 : 160,233,168
Combo5 : 227,202,100
SliderTrackOverride : 24,32,88
SliderBorder : 142,181,253

[HitObjects]
72,68,7313,6,0,P|140:50|221:70,1,150.000005722046,8|8,0:0|0:0,0:0:0:0:
277,133,8357,2,0,L|278:250,1,112.500004291535,8|8,0:0|0:0,0:0:0:0:
200,292,9104,1,0,0:0:0:0:
53,187,9701,6,0,L|52:74,1,112.500004291535,6|2,0:0|0:0,0:0:0:0:
109,4,10447,1,2,0:0:0:0:
162,74,10745,2,0,P|217:87|271:74,1,112.500004291535,0|8,0:0|0:0,0:0:0:0:
348,27,11492,2,0,P|361:73|354:108,1,75.0000028610231,0|8,0:0|0:0,0:0:0:0:
295,161,12089,6,0,B|284:221|284:221|298:274,1,112.500004291535,2|2,0:0|0:0,0:0:0:0:
374,317,12835,1,2,0:0:0:0:
444,261,13133,2,0,B|456:230|452:180|417:152|417:152|437:113|422:66,1,187.500007152558,0|8,0:0|0:0,0:0:0:0:
255,23,14477,6,4,B|188:17|188:17|102:37,1,150.000005722046,6|6,0:0|0:0,0:0:0:0:
43,204,15671,2,0,B|110:210|110:210|196:190,1,150.000005722046,6|6,0:0|0:0,0:0:0:0:
370,162,16865,6,0,B|411:151|434:122|434:122|446:317,1,262.500010013581,6|12,0:0|0:0,0:0:0:0:
316,351,18357,2,0,P|262:363|208:350,1,112.500004291535
99,270,19253,6,0,B|83:201|83:201|99:124,1,150.000005722046,6|0,0:0|0:0,0:0:0:0:
160,57,20148,1,8,0:0:0:0:
218,123,20447,2,0,P|255:131|291:124,1,75.0000028610231,2|8,0:0|0:0,0:0:0:0:
352,57,21044,1,0,0:0:0:0:
476,184,21641,6,0,P|497:256|477:327,1,150.000005722046,2|0,0:0|0:0,0:0:0:0:
392,357,22536,1,8,0:0:0:0:
306,327,22835,2,0,B|270:320|270:320|232:327,1,75.0000028610231,2|8,0:0|0:0,0:0:0:0:
147,357,23432,1,0,0:0:0:0:
24,225,24029,6,0,L|16:76,2,150.000005722046,2|0|2,0:0|0:0|0:0,0:0:0:0:
95,279,25521,1,8,0:0:0:0:
167,228,25820,2,0,P|204:221|241:227,1,75.0000028610231,0|8,0:0|0:0,0:0:0:0:
318,276,26417,6,0,B|373:285|373:285|467:255,1,150.000005722046,2|0,0:0|0:0,0:0:0:0:
461,76,27611,2,0,P|424:69|387:76,1,75.0000028610231,2|2,0:0|0:0,0:0:0:0:
316,133,28208,2,0,P|279:139|242:133,1,75.0000028610231,2|2,0:0|0:0,0:0:0:0:
173,76,28805,5,4,0:0:0:0:
256,192,35969,12,0,37163,0:0:0:0:
78,150,38357,5,6,0:0:0:0:
119,69,38656,2,0,P|177:58|235:69,1,112.500004291535,8|2,0:0|0:0,0:0:0:0:
281,191,39551,2,0,L|278:311,2,112.500004291535,2|2|8,0:0|0:0|0:0,0:0:0:0:
324,112,40745,6,0,B|397:106|397:106|483:130,1,150.000005722046,2|0,0:0|0:0,0:0:0:0:
505,209,41641,1,8,0:0:0:0:
371,330,42238,2,0,P|317:340|261:330,1,112.500004291535,8|2,0:0|0:0,0:0:0:0:
149,255,43133,6,0,B|136:203|136:203|150:146,1,112.500004291535,2|2,0:0|0:0,0:0:0:0:
273,90,44029,1,8,0:0:0:0:
448,131,44626,2,0,L|462:245,1,112.500004291535,8|2,0:0|0:0,0:0:0:0:
380,350,45521,6,0,P|343:356|306:350,1,75.0000028610231,2|2,0:0|0:0,0:0:0:0:
228,304,46118,2,0,P|191:298|154:304,1,75.0000028610231,2|2,0:0|0:0,0:0:0:0:
81,359,46716,1,2,0:0:0:0:
22,189,47313,2,0,P|12:153|24:111,1,75.0000028610231
103,152,47910,6,0,P|175:171|247:153,1,150.000005722046,6|2,0:0|0:0,0:0:0:0:
311,89,48805,1,8,0:0:0:0:
247,24,49104,2,0,P|175:5|103:23,1,150.000005722046,2|2,0:0|0:0,0:0:0:0:
39,87,49999,1,8,0:0:0:0:
15,173,50298,6,0,B|4:247|4:247|15:321,1,150.000005722046,2|2,0:0|0:0,0:0:0:0:
96,358,51193,1,8,0:0:0:0:
178,321,51492,2,0,B|254:306|254:306|325:321,1,150.000005722046,2|2,0:0|0:0,0:0:0:0:
406,358,52387,1,8,0:0:0:0:
467,293,52686,6,0,P|485:220|469:147,1,150.000005722046,6|2,0:0|0:0,0:0:0:0:
393,98,53581,1,8,0:0:0:0:
319,148,53880,2,0,P|246:163|173:146,1,150.000005722046,2|2,0:0|0:0,0:0:0:0:
97,98,54775,1,8,0:0:0:0:
93,188,55074,6,0,L|91:262,1,75.0000028610231,8|8,0:0|0:0,0:0:0:0:
152,329,55671,2,8,P|192:337|224:328,1,75.0000028610231
286,263,56268,2,8,P|322:254|358:262,1,75.0000028610231
439,299,56865,2,8,P|448:262|439:226,1,75.0000028610231
373,164,57462,5,8,0:0:0:0:
373,164,59253,2,0,L|362:240,1,75.0000028610231
280,199,59850,6,0,P|226:183|172:196,1,112.500004291535,6|2,0:0|0:0,0:0:0:0:
116,267,60596,1,2,0:0:0:0:
84,182,60895,2,0,B|69:126|69:126|84:61,1,112.500004291535,2|8,0:0|0:0,0:0:0:0:
171,69,61641,2,0,B|210:78|210:78|244:70,1,75.0000028610231,2|8,0:0|0:0,0:0:0:0:
309,8,62238,6,0,P|333:57|323:112,1,112.500004291535,2|2,0:0|0:0,0:0:0:0:
249,164,62984,1,2,0:0:0:0:
322,216,63283,2,0,B|337:252|322:290|322:290|341:305|344:318,1,112.500004291535,0|8,0:0|0:0,0:0:0:0:
265,361,64029,2,0,B|231:369|231:369|191:359,1,75.0000028610231,2|2,0:0|0:0,0:0:0:0:
110,319,64626,5,6,0:0:0:0:
172,149,65223,2,0,L|248:162,1,75.0000028610231,0|8,0:0|0:0,0:0:0:0:
275,77,65820,2,0,L|338:120,1,75.0000028610231,2|8,0:0|0:0,0:0:0:0:
398,55,66417,1,0,0:0:0:0:
491,209,67014,6,0,B|509:242|502:306|475:324|475:324|448:307|409:306|377:322,1,225.000008583069,2|8,0:0|0:0,0:0:0:0:
298,363,68208,1,2,0:0:0:0:
203,210,68805,2,0,P|166:203|129:210,1,75.0000028610231
40,223,69402,6,0,B|26:175|26:175|39:114,1,112.500004291535,6|2,0:0|0:0,0:0:0:0:
105,51,70148,1,2,0:0:0:0:
168,114,70447,2,0,P|222:124|277:113,1,112.500004291535,0|8,0:0|0:0,0:0:0:0:
354,65,71193,2,0,P|390:57|427:64,1,75.0000028610231,0|8,0:0|0:0,0:0:0:0:
497,121,71790,6,0,P|512:175|497:228,1,112.500004291535,2|2,0:0|0:0,0:0:0:0:
429,285,72536,1,0,0:0:0:0:
359,228,72835,2,0,B|305:217|305:217|248:228,1,112.500004291535,0|8,0:0|0:0,0:0:0:0:
187,293,73581,1,2,0:0:0:0:
74,152,74178,6,0,P|54:80|80:9,1,150.000005722046,6|6,0:0|0:0,0:0:0:0:
258,17,75372,2,0,P|277:88|253:157,1,150.000005722046,6|6,0:0|0:0,0:0:0:0:
154,307,76566,6,0,B|145:336|111:357|111:357|312:359,1,262.500010013581,4|4,0:0|0:0,0:0:0:0:
416,280,78059,2,0,L|428:165,1,112.500004291535
351,56,78954,6,0,P|277:41|205:56,1,150.000005722046,6|0,0:0|0:0,0:0:0:0:
139,118,79850,1,8,0:0:0:0:
205,178,80148,2,0,B|213:213|213:213|205:251,1,75.0000028610231,2|8,0:0|0:0,0:0:0:0:
139,312,80745,1,2,0:0:0:0:
289,213,81342,6,0,B|364:201|364:201|437:212,1,150.000005722046,2|0,0:0|0:0,0:0:0:0:
492,283,82238,1,8,0:0:0:0:
437,354,82536,2,0,P|400:359|362:353,1,75.0000028610231,2|8,0:0|0:0,0:0:0:0:
288,302,83133,2,0,P|251:296|214:301,1,75.0000028610231,2|2,0:0|0:0,0:0:0:0:
131,338,83730,6,0,P|125:301|131:264,1,75.0000028610231,2|8,0:0|0:0,0:0:0:0:
181,189,84327,1,2,0:0:0:0:
291,111,84775,2,0,L|303:231,1,112.500004291535,2|8,0:0|0:0,0:0:0:0:
392,222,85521,2,0,L|365:297,1,75.0000028610231,0|8,0:0|0:0,0:0:0:0:
303,356,86118,6,0,B|270:361|270:361|228:356,1,75.0000028610231,2|8,0:0|0:0,0:0:0:0:
133,279,86716,1,0,0:0:0:0:
222,178,87163,2,0,L|334:173,1,112.500004291535,2|8,0:0|0:0,0:0:0:0:
357,85,87910,2,0,L|282:88,1,75.0000028610231,2|8,0:0|0:0,0:0:0:0:
