osu file format v14

[General]
AudioFilename: audio.mp3
AudioLeadIn: 0
PreviewTime: 59241
Countdown: 0
SampleSet: Normal
StackLeniency: 0.7
Mode: 0
LetterboxInBreaks: 0
WidescreenStoryboard: 0

[Editor]
Bookmarks: 25609
DistanceSpacing: 1.5
BeatDivisor: 4
GridSize: 4
TimelineZoom: 2.5

[Metadata]
Title:Paradisus-Paradoxum
TitleUnicode:Paradisus-Paradoxum
Artist:MYTH & ROID
ArtistUnicode:MYTH & ROID
Creator:Yasaija 714
Version:Re:Zero
Source:Re:ゼロから始める異世界生活
Tags:re: zero kara hajimeru isekai seikatsu life in a different world from zero tv size opening _kotachi_ Nanashima Asami Akitoshi Corinn Meg iMage--
BeatmapID:1031604
BeatmapSetID:483503

[Difficulty]
HPDrainRate:6
CircleSize:4
OverallDifficulty:9
ApproachRate:9.6
SliderMultiplier:1.8
SliderTickRate:1

[Events]
//Background and Video events
0,0,"BG6.jpg",0,0
Video,0,"optc.flv"
//Break Periods
//Storyboard Layer 0 (Background)
//Storyboard Layer 1 (Fail)
//Storyboard Layer 2 (Pass)
//Storyboard Layer 3 (Foreground)
//Storyboard Sound Samples

[TimingPoints]
6107,298.507462686567,4,2,0,100,1,0
7301,-100,4,1,1,60,0,0
8569,-100,4,1,1,10,0,0
8644,-100,4,1,1,60,0,0
9092,-133.333333333333,4,2,1,60,0,0
9689,-90.9090909090909,4,2,1,70,0,0
14465,-133.333333333333,4,2,1,50,0,0
17898,-166.666666666667,4,2,1,40,0,0
18793,-200,4,2,1,40,0,0
19241,-100,4,2,1,60,0,0
28793,-133.333333333333,4,1,1,35,0,0
38345,-100,4,1,1,45,0,0
47301,-200,4,1,1,20,0,0
47898,-100,4,2,1,50,0,0
55062,-90.9090909090909,4,1,1,60,0,0
56256,-83.3333333333333,4,1,1,50,0,0
56554,-83.3333333333333,4,1,1,55,0,0
56853,-83.3333333333333,4,1,1,60,0,0
57151,-83.3333333333333,4,1,1,65,0,0
57450,-100,4,1,1,70,0,0
58718,-100,4,1,1,20,0,0
58793,-100,4,1,1,70,0,0
59241,-133.333333333333,4,2,1,60,0,0
59539,-153.846153846153,4,2,1,60,0,0
59838,-76.9230769230769,4,2,1,80,0,1
67002,-76.9230769230769,4,2,1,70,0,1
67301,-76.9230769230769,4,2,1,60,0,1
67599,-76.9230769230769,4,2,1,50,0,1
67898,-76.9230769230769,4,2,1,40,0,1
68196,-76.9230769230769,4,2,1,50,0,1
68495,-76.9230769230769,4,2,1,65,0,1
68793,-76.9230769230769,4,2,1,70,0,1
69390,-76.9230769230769,4,2,1,80,0,1
74166,-133.333333333333,4,2,1,80,0,0
77599,-166.666666666667,4,2,1,80,0,0
78495,-200,4,2,1,80,0,0
78942,-100,4,2,1,70,0,0

[Colours]
Combo1 : 78,69,243
Combo2 : 192,192,192
Combo3 : 108,255,255
Combo4 : 255,91,91

[HitObjects]
136,128,7301,5,4,0:0:0:0:
376,128,7450,1,2,0:2:0:0:
144,40,7748,5,2,0:2:0:0:
256,184,7897,1,8,0:0:0:0:
368,40,8047,1,2,0:2:0:0:
140,288,8345,6,0,L|312:288,1,135,2|0,0:2|0:0,0:0:0:0:
372,288,8644,1,2,0:2:0:0:
256,184,8793,1,8,0:0:0:0:
352,160,9092,6,0,P|356:196|340:236,1,67.5000025749208,2|0,0:0|0:0,0:0:0:0:
165,225,9390,2,0,P|155:193|160:160,1,67.5000025749208,2|0,0:0|0:0,0:0:0:0:
256,344,9689,6,0,P|304:328|392:352,1,99.0000030212403,6|2,0:0|0:0,0:0:0:0:
468,360,9987,1,8,0:0:0:0:
355,130,10136,2,0,P|339:186|347:226,1,99.0000030212403,2|0,0:0|0:0,0:0:0:0:
484,148,10435,2,0,P|500:92|492:52,1,99.0000030212403,0|8,0:0|0:0,0:0:0:0:
420,184,10733,1,0,0:0:0:0:
292,24,10883,6,0,L|276:136,1,99.0000030212403,2|0,0:0|0:0,0:0:0:0:
292,208,11106,1,0,0:0:0:0:
292,208,11181,1,8,0:0:0:0:
228,340,11330,1,2,0:0:0:0:
132,152,11480,2,0,P|136:244|176:304,1,148.50000453186,2|0,0:0|0:0,0:0:0:0:
228,340,11778,1,8,0:0:0:0:
56,340,11927,1,2,0:0:0:0:
212,208,12077,6,0,P|268:196|324:216,1,99.0000030212403,4|2,0:0|0:0,0:0:0:0:
400,316,12375,1,8,0:0:0:0:
488,144,12524,2,0,L|508:28,1,99.0000030212403,8|0,0:0|0:0,0:0:0:0:
324,108,12823,2,0,L|304:224,1,99.0000030212403,8|0,0:0|0:0,0:0:0:0:
432,340,13121,5,8,0:1:0:0:
400,316,13196,1,8,0:1:0:0:
360,308,13271,1,8,0:1:0:0:
324,320,13345,1,8,0:1:0:0:
296,348,13420,1,8,0:1:0:0:
260,360,13495,1,8,0:1:0:0:
220,368,13569,1,8,0:1:0:0:
180,364,13644,1,8,0:1:0:0:
140,360,13718,1,8,0:1:0:0:
104,348,13793,1,8,0:1:0:0:
68,332,13868,5,2,0:0:0:0:
84,312,13942,1,2,0:0:0:0:
96,292,14017,1,2,0:0:0:0:
104,268,14092,1,2,0:0:0:0:
104,244,14166,1,2,0:0:0:0:
100,220,14241,1,2,0:0:0:0:
92,196,14315,1,2,0:0:0:0:
80,172,14390,1,2,0:0:0:0:
68,152,14465,6,0,P|60:80|83:12,1,135.000005149842,4|0,0:0|0:0,0:0:0:0:
208,92,14912,1,2,0:0:0:0:
68,152,15062,1,8,0:0:0:0:
436,320,15659,6,0,B|392:300|368:324|347:345|280:320,1,135.000005149842,6|0,0:0|0:0,0:0:0:0:
364,192,16106,1,2,0:0:0:0:
436,320,16256,1,8,0:0:0:0:
56,348,16853,6,0,B|20:280|48:220|48:220|32:168|32:168|80:100|48:12|48:12|88:52|160:36,1,438.750016736985,4|0,0:0|0:0,0:0:0:0:
216,12,17898,6,0,P|200:68|240:136,1,134.999995880127,8|0,0:0|0:0,0:0:0:0:
304,192,18345,2,0,B|336:168|336:168|396:168|396:168|424:192,1,134.999995880127,8|0,0:0|0:0,0:0:0:0:
364,264,18793,6,0,L|364:364,1,90,12|2,0:0|0:0,0:0:0:0:
288,364,19166,1,2,0:0:0:0:
288,364,19241,6,0,P|260:296|152:292,1,180,4|8,0:0|0:0,0:0:0:0:
64,364,19689,2,0,L|44:260,1,90,2|0,0:0|0:0,0:0:0:0:
112,172,19987,1,2,0:0:0:0:
202,365,20136,2,0,P|242:353|290:365,1,90,8|2,0:0|0:0,0:0:0:0:
416,360,20435,6,0,L|440:244,1,90,0|2,0:0|0:0,0:0:0:0:
340,112,20733,1,8,0:0:0:0:
324,292,20883,1,2,0:0:0:0:
427,90,21032,2,0,L|340:112,1,90,0|2,0:0|0:0,0:0:0:0:
198,224,21330,1,8,0:0:0:0:
252,28,21480,1,2,0:0:0:0:
252,40,21554,1,2,0:0:0:0:
252,52,21629,6,0,B|252:152|252:152|288:188|324:196,1,180,2|8,0:0|0:0,0:0:0:0:
444,220,22077,1,2,0:0:0:0:
276,268,22226,2,0,P|232:236|172:220,1,90,0|2,0:0|0:0,0:0:0:0:
192,324,22524,1,8,0:0:0:0:
376,280,22674,1,2,0:0:0:0:
120,268,22823,5,4,0:0:0:0:
276,360,22972,1,2,0:0:0:0:
264,180,23121,2,0,L|284:68,1,90,8|2,0:0|0:0,0:0:0:0:
448,40,23420,1,0,0:0:0:0:
352,144,23569,1,2,0:0:0:0:
476,312,23718,1,8,0:0:0:0:
360,256,23868,1,2,0:0:0:0:
360,256,23942,1,2,0:0:0:0:
360,256,24017,6,0,P|280:312|192:272,1,180,4|8,0:0|0:0,0:0:0:0:
128,192,24465,1,2,0:0:0:0:
184,360,24614,2,0,P|232:380|304:376,1,90,0|2,0:0|0:0,0:0:0:0:
452,336,24912,2,0,L|452:228,1,90,8|2,0:0|0:0,0:0:0:0:
344,80,25211,5,0,0:0:0:0:
168,148,25360,1,2,0:0:0:0:
256,20,25509,1,8,0:0:0:0:
256,208,25659,1,2,0:0:0:0:
120,60,25808,1,0,0:0:0:0:
168,244,25957,1,2,0:0:0:0:
324,160,26106,1,8,0:0:0:0:
120,60,26256,1,2,0:0:0:0:
152,44,26330,1,2,0:0:0:0:
188,40,26405,6,0,B|252:52|312:12|312:12|340:60,1,180,2|8,0:0|0:0,0:0:0:0:
416,152,26853,1,2,0:0:0:0:
251,217,27002,2,0,L|264:128,1,90,2|0,0:0|0:0,0:0:0:0:
328,328,27301,2,0,P|248:288|196:312,1,135,8|0,0:0|0:0,0:0:0:0:
256,368,27599,5,0,0:0:0:0:
384,260,27748,1,2,0:0:0:0:
184,328,27898,1,8,0:0:0:0:
145,350,27972,1,8,0:0:0:0:
100,357,28047,1,8,0:0:0:0:
57,348,28121,1,8,0:0:0:0:
19,324,28196,1,8,0:0:0:0:
104,216,28345,6,0,L|116:156,1,45,8|0,0:0|0:0,0:0:0:0:
172,60,28495,2,0,L|176:112,1,45,8|0,0:0|0:0,0:0:0:0:
224,252,28644,1,2,0:0:0:0:
264,232,28718,1,2,0:0:0:0:
308,228,28793,6,0,P|356:228|396:248,1,67.5000025749208,4|2,0:0|0:2,0:0:0:0:
440,324,29092,2,0,P|484:260|480:200,1,135.000005149842,8|0,0:0|0:0,0:0:0:0:
364,100,29539,2,0,B|316:88|316:88|276:112|212:92,1,135.000005149842,2|2,0:2|0:2,0:0:0:0:
88,40,29987,6,0,B|84:76|84:76|100:144|100:144|96:184,1,135.000005149842,2|2,0:2|0:2,0:0:0:0:
32,272,30435,2,0,P|96:260|172:300,1,135.000005149842,2|0,0:2|0:0,0:0:0:0:
260,376,30883,1,0,0:0:0:0:
484,192,31181,6,0,P|420:180|344:220,1,135.000005149842,2|0,0:2|0:0,0:0:0:0:
256,296,31629,1,0,0:0:0:0:
432,340,31778,2,0,L|428:256,1,67.5000025749208,2|0,0:2|0:0,0:0:0:0:
416,100,32077,2,0,P|352:112|276:72,1,135.000005149842,2|0,0:2|0:0,0:0:0:0:
104,24,32674,6,0,B|80:124|80:124|128:232,2,202.500007724762,2|2|2,0:2|0:2|0:2,0:0:0:0:
256,160,33868,2,0,L|248:232,1,67.5000025749208,2|0,0:2|0:0,0:0:0:0:
260,348,34166,2,0,P|348:352|404:304,1,135.000005149842,2|0,0:2|0:0,0:0:0:0:
180,296,34763,5,2,0:2:0:0:
412,188,35062,2,0,P|416:100|367:44,1,135.000005149842,2|2,0:2|0:2,0:0:0:0:
300,20,35509,1,2,0:2:0:0:
328,137,35659,2,0,P|292:145|256:141,1,67.5000025749208,2|0,0:2|0:0,0:0:0:0:
144,40,35957,6,0,L|132:116,1,67.5000025749208,2|0,0:2|0:0,0:0:0:0:
133,106,36181,1,0,0:0:0:0:
133,106,36256,1,2,0:2:0:0:
200,216,36405,1,0,0:0:0:0:
32,268,36554,2,0,L|44:192,1,67.5000025749208,2|0,0:2|0:0,0:0:0:0:
42,201,36778,1,0,0:0:0:0:
42,201,36853,1,2,0:2:0:0:
200,216,37002,1,0,0:0:0:0:
256,32,37151,6,0,L|252:64,6,16.8750006437302
184,128,37450,6,0,L|188:160,6,16.8750006437302
256,224,37748,1,0,0:0:0:0:
184,320,37898,6,0,L|188:368,2,33.7500012874604,2|0|2,0:2|0:0|0:2,0:0:0:0:
256,224,38196,1,2,0:2:0:0:
32,192,38345,6,0,P|48:112|168:88,1,180,4|8,0:0|0:0,0:0:0:0:
256,120,38793,2,0,B|307:151|375:86|444:120,1,180,2|2,0:2|0:2,0:0:0:0:
500,212,39241,1,8,0:0:0:0:
344,328,39390,1,2,0:2:0:0:
340,316,39465,1,0,0:0:0:0:
336,304,39539,5,0,0:0:0:0:
464,344,39689,1,0,0:0:0:0:
216,360,39838,1,8,0:0:0:0:
424,248,39987,2,0,B|436:172|376:132|376:132|408:68,1,180,2|2,0:2|0:2,0:0:0:0:
332,216,40435,2,0,P|280:228|228:212,1,90,8|2,0:0|0:2,0:0:0:0:
124,112,40733,6,0,B|108:156|120:196|120:196|112:224|112:224|124:264|112:300,1,180,0|8,0:0|0:0,0:0:0:0:
48,352,41181,2,0,P|24:304|40:240,1,90,2|0,0:2|0:0,0:0:0:0:
208,160,41480,1,2,0:2:0:0:
208,160,41554,1,0,0:0:0:0:
208,160,41629,1,8,0:0:0:0:
184,348,41778,1,2,0:2:0:0:
316,192,41927,6,0,P|368:192|416:208,1,90,8|2,0:0|0:2,0:0:0:0:
488,324,42226,1,8,0:0:0:0:
348,288,42375,1,2,0:2:0:0:
500,168,42524,1,8,0:0:0:0:
496,156,42599,1,0,0:0:0:0:
488,144,42674,1,0,0:0:0:0:
476,136,42748,1,0,0:0:0:0:
464,132,42823,1,8,0:0:0:0:
452,132,42898,1,0,0:0:0:0:
440,132,42972,1,0,0:0:0:0:
428,128,43047,1,0,0:0:0:0:
416,124,43121,6,0,B|360:120|296:124|296:124|240:76,1,180,4|8,0:0|0:0,0:0:0:0:
128,100,43569,1,2,0:2:0:0:
320,48,43718,2,0,B|352:44|384:44|440:52,1,90,0|2,0:0|0:2,0:0:0:0:
404,202,44017,1,8,0:0:0:0:
250,85,44166,1,0,0:2:0:0:
204,292,44315,6,0,P|256:260|292:256,1,90,0|2,0:0|0:2,0:0:0:0:
368,347,44614,2,0,P|428:279|392:191,1,180,8|0,0:0|0:0,0:0:0:0:
250,85,45062,1,2,0:2:0:0:
250,85,45136,1,0,0:0:0:0:
250,85,45211,1,8,0:0:0:0:
184,192,45360,1,2,0:2:0:0:
404,200,45509,6,0,P|448:184|476:144,1,90,0|2,0:0|0:2,0:0:0:0:
284,176,45808,1,8,0:0:0:0:
396,116,45957,1,2,0:2:0:0:
436,288,46106,5,8,0:0:0:0:
284,176,46256,1,2,0:2:0:0:
396,116,46405,1,0,0:0:0:0:
324,348,46554,1,2,0:2:0:0:
68,328,46704,5,0,0:0:0:0:
220,40,46903,1,8,0:0:0:0:
324,348,47102,1,8,0:0:0:0:
444,56,47301,5,0,0:0:0:0:
68,328,47599,1,0,0:0:0:0:
504,136,47898,6,0,P|504:184|372:268,1,180,4|8,0:0|0:0,0:0:0:0:
256,272,48345,1,2,0:0:0:0:
252,284,48420,1,0,0:0:0:0:
248,296,48495,1,8,0:0:0:0:
308,168,48644,1,2,0:0:0:0:
312,180,48719,1,0,0:0:0:0:
316,192,48794,1,8,0:0:0:0:
256,64,48942,1,2,0:0:0:0:
96,192,49092,6,0,B|100:240|100:240|136:276,1,90,6|2,0:0|0:0,0:0:0:0:
140,276,49315,1,0,0:0:0:0:
150,282,49390,1,8,0:0:0:0:
300,352,49539,1,2,0:0:0:0:
300,340,49614,1,0,0:0:0:0:
300,328,49689,1,8,0:0:0:0:
360,192,49838,2,0,L|360:240,2,45,2|0|8,0:0|0:0|0:0,0:0:0:0:
416,352,50136,1,2,0:0:0:0:
232,244,50286,6,0,L|212:344,1,90,8|2,0:0|0:0,0:0:0:0:
80,336,50509,1,0,0:0:0:0:
80,336,50584,2,0,L|62:247,1,90,8|2,0:0|0:0,0:0:0:0:
68,112,50883,1,8,0:0:0:0:
208,108,51032,1,2,0:0:0:0:
208,108,51106,1,0,0:0:0:0:
208,108,51181,1,8,0:0:0:0:
48,148,51330,1,2,0:0:0:0:
232,244,51480,6,0,P|292:240|328:224,1,90,8|2,0:0|0:0,0:0:0:0:
428,146,51778,1,10,0:0:0:0:
264,164,51927,1,2,0:0:0:0:
312,344,52077,5,8,0:0:0:0:
332,340,52151,1,0,0:0:0:0:
352,336,52226,1,0,0:0:0:0:
372,328,52301,1,0,0:0:0:0:
392,316,52375,1,8,0:0:0:0:
408,300,52450,1,0,0:0:0:0:
420,280,52524,1,0,0:0:0:0:
428,260,52599,1,0,0:0:0:0:
428,236,52674,6,0,L|428:120,1,90,12|2,0:0|0:0,0:0:0:0:
352,16,52972,1,8,0:0:0:0:
264,164,53121,1,2,0:0:0:0:
508,120,53271,2,0,L|508:212,1,90,8|2,0:0|0:0,0:0:0:0:
348,260,53569,2,0,L|348:168,1,90,8|2,0:0|0:0,0:0:0:0:
252,40,53868,6,0,P|188:56|144:160,1,180,8|8,0:0|0:0,0:0:0:0:
208,272,54315,1,2,0:0:0:0:
208,288,54390,1,0,0:0:0:0:
208,304,54465,2,0,B|224:364|224:364|256:336|300:340,1,135,8|2,0:0|0:0,0:0:0:0:
384,328,54763,2,0,P|432:328|472:348,1,90,8|2,0:0|0:0,0:0:0:0:
328,264,55062,6,0,L|320:160,1,99.0000030212403,6|2,0:2|0:2,0:0:0:0:
288,92,55286,1,2,0:2:0:0:
288,92,55360,1,8,0:0:0:0:
140,156,55509,1,0,0:0:0:0:
320,165,55659,5,8,0:0:0:0:
108,83,55808,1,2,0:2:0:0:
364,76,55957,2,0,L|464:60,1,99.0000030212403,8|0,0:0|0:0,0:0:0:0:
496,172,56256,5,12,0:0:0:0:
472,332,56405,1,2,0:2:0:0:
308,136,56554,5,12,0:0:0:0:
368,332,56704,1,2,0:2:0:0:
204,52,56853,5,12,0:0:0:0:
144,332,57002,1,2,0:2:0:0:
16,16,57151,5,12,0:0:0:0:
40,332,57301,1,2,0:2:0:0:
352,192,57450,5,12,0:0:0:0:
24,144,57599,1,8,0:0:0:0:
144,332,57898,5,4,0:0:0:0:
475,202,58047,1,8,0:0:0:0:
192,56,58196,1,8,0:0:0:0:
472,332,58495,6,0,B|492:244|492:244|472:192,1,135,4|0,0:0|0:0,0:0:0:0:
416,128,58793,1,8,0:0:0:0:
390,302,58942,1,8,0:0:0:0:
256,36,59241,6,0,P|216:44|184:64,1,67.5000025749208,2|0,0:0|0:0,0:0:0:0:
236,176,59539,6,0,P|248:132|248:108,1,58.4999973220826,2|0,0:0|0:0,0:0:0:0:
36,124,59838,6,0,P|100:120|156:132,1,116.999994644165,4|0,0:0|0:0,0:0:0:0:
348,212,60136,1,8,0:0:0:0:
238,284,60286,2,0,B|216:246|216:246|242:152,1,116.999994644165,2|0,0:0|0:0,0:0:0:0:
456,152,60584,2,0,P|464:224|452:284,1,116.999994644165,0|8,0:0|0:0,0:0:0:0:
324,360,60883,1,0,0:0:0:0:
188,212,61032,6,0,B|204:156|204:156|180:100,1,116.999994644165,2|0,0:0|0:0,0:0:0:0:
67,77,61330,1,8,0:0:0:0:
171,267,61480,1,0,0:0:0:0:
57,242,61629,2,0,L|185:270,1,116.999994644165,2|0,0:0|0:0,0:0:0:0:
67,77,61927,2,0,L|182:103,1,116.999994644165,8|0,0:0|0:0,0:0:0:0:
276,352,62226,6,0,B|336:360|372:304|372:304|373:340|392:368,1,175.499991966248,2|0,0:0|0:0,0:0:0:0:
456,308,62524,1,8,0:0:0:0:
171,267,62674,2,0,P|169:325|173:383,1,116.999994644165,2|0,0:0|0:0,0:0:0:0:
334,208,62972,2,0,P|336:150|332:92,1,116.999994644165,0|8,0:0|0:0,0:0:0:0:
472,348,63271,6,0,P|380:272|308:348,1,233.999989288331,2|0,0:0|0:0,0:0:0:0:
448,210,63718,2,0,B|412:194|368:194|316:214,1,116.999994644165,8|2,0:0|0:0,0:0:0:0:
212,360,64017,5,8,0:1:0:0:
176,320,64092,1,8,0:1:0:0:
168,268,64166,1,8,0:1:0:0:
184,216,64241,1,8,0:1:0:0:
228,184,64315,1,8,0:1:0:0:
260,144,64390,1,8,0:1:0:0:
272,92,64465,1,8,0:1:0:0:
260,40,64539,1,8,0:1:0:0:
220,8,64614,6,0,P|144:48|204:112,1,175.499991966248,4|0,0:0|0:0,0:0:0:0:
260,144,64912,2,0,P|328:136|392:160,1,116.999994644165,8|0,0:0|0:0,0:0:0:0:
472,348,65211,1,0,0:0:0:0:
276,276,65360,1,2,0:0:0:0:
487,144,65509,2,0,P|419:136|355:160,1,116.999994644165,8|0,0:0|0:0,0:0:0:0:
216,360,65808,6,0,P|172:300|212:200,1,175.499991966248,2|0,0:0|0:0,0:0:0:0:
260,144,66106,2,0,P|312:96|312:40,1,116.999994644165,8|0,0:0|0:0,0:0:0:0:
315,53,66330,1,0,0:0:0:0:
315,53,66405,1,2,0:0:0:0:
289,232,66554,1,2,0:0:0:0:
135,157,66704,2,0,P|83:205|83:261,1,116.999994644165,8|0,0:0|0:0,0:0:0:0:
315,53,67002,5,10,0:0:0:0:
344,368,67151,1,0,0:0:0:0:
236,116,67301,5,10,0:0:0:0:
260,368,67450,1,0,0:0:0:0:
160,184,67599,5,10,0:0:0:0:
176,368,67748,1,0,0:0:0:0:
80,248,67898,5,10,0:0:0:0:
92,368,68047,1,0,0:0:0:0:
200,24,68196,5,8,0:1:0:0:
176,64,68271,1,8,0:1:0:0:
172,112,68345,1,8,0:1:0:0:
188,156,68420,1,8,0:1:0:0:
236,196,68495,5,12,0:1:0:0:
260,236,68570,1,8,0:1:0:0:
264,284,68644,1,8,0:1:0:0:
248,328,68719,1,8,0:1:0:0:
192,356,68793,6,0,L|124:368,1,58.4999973220826,10|10,0:0|0:0,0:0:0:0:
360,324,68942,2,0,L|428:336,1,58.4999973220826,10|10,0:0|0:0,0:0:0:0:
160,264,69092,2,0,L|92:252,1,58.4999973220826,10|10,0:0|0:0,0:0:0:0:
388,232,69241,2,0,L|456:220,1,58.4999973220826,10|10,0:0|0:0,0:0:0:0:
164,188,69390,6,0,P|224:152|348:184,1,175.499991966248,4|0,0:0|0:0,0:0:0:0:
388,232,69689,1,8,0:0:0:0:
107,317,69838,2,0,P|79:257|83:193,1,116.999994644165,0|2,0:0|0:0,0:0:0:0:
192,20,70136,1,0,0:0:0:0:
220,224,70286,1,8,0:0:0:0:
8,156,70435,6,0,P|-8:224|136:272,1,233.999989288331,2|0,0:0|0:0,0:0:0:0:
256,140,70883,1,8,0:0:0:0:
280,332,71032,1,2,0:0:0:0:
372,144,71181,2,0,L|352:260,1,116.999994644165,2|0,0:0|0:0,0:0:0:0:
164,340,71480,2,0,L|284:332,1,116.999994644165,8|0,0:0|0:0,0:0:0:0:
372,144,71778,6,0,P|320:108|216:152,1,175.499991966248,4|0,0:0|0:0,0:0:0:0:
190,211,72077,1,8,0:0:0:0:
408,212,72226,2,0,P|448:164|440:108,1,116.999994644165,8|0,0:0|0:0,0:0:0:0:
157,112,72524,2,0,P|153:169|192:212,1,116.999994644165,8|0,0:0|0:0,0:0:0:0:
368,32,72823,6,0,B|307:-10|187:71|128:32,1,233.999989288331,10|2,0:0|0:0,0:0:0:0:
32,16,73271,2,0,B|0:51|64:106|32:144,1,116.999994644165,8|0,0:0|0:0,0:0:0:0:
16,304,73569,5,8,0:1:0:0:
60,284,73644,1,8,0:1:0:0:
108,280,73718,1,8,0:1:0:0:
156,288,73793,1,8,0:1:0:0:
200,308,73868,1,8,0:1:0:0:
232,340,73942,1,8,0:1:0:0:
276,352,74017,1,8,0:1:0:0:
324,348,74091,1,8,0:1:0:0:
368,328,74166,6,0,P|433:293|465:237,1,135.000005149842,4|0,0:0|0:0,0:0:0:0:
328,184,74614,1,2,0:0:0:0:
368,328,74763,1,8,0:0:0:0:
148,332,75360,6,0,B|123:295|47:335|16:304,1,135.000005149842,4|0,0:0|0:0,0:0:0:0:
112,188,75808,1,2,0:0:0:0:
148,332,75957,1,8,0:0:0:0:
24,96,76554,6,0,B|88:64|152:88|152:88|212:72|212:72|280:104|344:52|344:52|388:104|368:168,1,438.750016736985,4|0,0:0|0:0,0:0:0:0:
320,216,77599,6,0,P|288:256|336:312,1,134.999995880127,8|0,0:0|0:0,0:0:0:0:
424,364,78047,2,0,B|448:348|448:348|448:272|448:272|420:256,1,135.000005149842,8|0,0:0|0:0,0:0:0:0:
334,311,78495,6,0,P|296:280|246:275,1,90,12|0,0:0|0:0,0:0:0:0:
263,358,78868,1,0,0:0:0:0:
263,358,78942,6,0,B|196:340|136:368|136:368|147:338|148:312,1,180,4|8,0:0|0:0,0:0:0:0:
144,140,79390,1,2,0:0:0:0:
144,140,79465,1,2,0:0:0:0:
144,140,79539,2,0,B|160:64|128:16|128:16|176:36,1,180,2|8,0:0|0:0,0:0:0:0:
256,184,79987,1,0,0:0:0:0:
147,319,80136,6,0,L|43:327,1,90,2|2,0:0|0:0,0:0:0:0:
264,312,80435,1,8,0:0:0:0:
96,244,80584,1,2,0:0:0:0:
256,94,80733,2,0,P|260:150|252:198,1,90,2|0,0:0|0:0,0:0:0:0:
96,244,81032,1,8,0:0:0:0:
308,244,81181,1,2,0:0:0:0:
316,240,81256,1,2,0:0:0:0:
324,236,81330,6,0,P|384:216|480:288,1,180,2|8,0:0|0:0,0:0:0:0:
372,356,81778,1,0,0:0:0:0:
300,164,81927,2,0,P|336:148|404:144,1,90,2|0,0:0|0:0,0:0:0:0:
244,268,82226,2,0,P|192:236|196:148,1,135,8|0,0:0|0:0,0:0:0:0:
256,32,82524,5,2,0:0:0:0:
300,164,82674,1,2,0:0:0:0:
372,29,82823,5,8,0:0:0:0:
184,167,82973,1,2,0:0:0:0:
128,16,83121,6,0,L|184:24,1,45,8|8,0:1|0:1,0:1:0:0:
428,180,83271,2,0,L|372:172,1,45,8|8,0:1|0:1,0:1:0:0:
96,176,83420,6,0,L|164:168,1,45,8|8,0:1|0:1,0:1:0:0:
460,20,83569,2,0,L|392:28,1,45,8|8,0:1|0:1,0:1:0:0:
268,296,83718,5,12,0:0:0:0:
296,72,83868,1,0,0:0:0:0:
96,176,84017,1,8,0:0:0:0:
276,160,84166,1,0,0:0:0:0:
60,100,84315,2,0,P|24:132|16:192,1,90,8|0,0:0|0:0,0:0:0:0:
160,352,84614,2,0,B|172:304|172:304|172:252,1,90,8|0,0:0|0:0,0:0:0:0:
152,112,84912,5,8,0:0:0:0:
300,232,85062,1,0,0:0:0:0:
312,232,85136,1,0,0:0:0:0:
324,232,85211,1,8,0:0:0:0:
440,208,85360,1,0,0:0:0:0:
294,355,85509,1,8,0:0:0:0:
444,296,85659,2,0,P|496:276|524:236,1,90,0|8,0:0|0:0,0:0:0:0:
396,136,85957,1,0,0:0:0:0:
376,328,86106,6,0,P|327:354|278:350,1,90,8|0,0:0|0:0,0:0:0:0:
176,304,86405,1,8,0:0:0:0:
293,354,86554,1,0,0:0:0:0:
104,360,86704,2,0,L|88:240,1,90,8|0,0:0|0:0,0:0:0:0:
76,72,87002,2,0,P|120:48|168:52,1,90,8|0,0:0|0:0,0:0:0:0:
416,80,87301,6,0,L|400:128,1,45,2|0,0:0|0:0,0:0:0:0:
416,304,87450,2,0,L|400:256,1,45,2|0,0:0|0:0,0:0:0:0:
328,68,87599,6,0,L|312:116,1,45,2|0,0:0|0:0,0:0:0:0:
328,316,87748,2,0,L|312:268,1,45,2|0,0:0|0:0,0:0:0:0:
240,48,87898,5,8,0:1:0:0:
228,100,87972,1,8,0:1:0:0:
216,152,88047,1,8,0:1:0:0:
204,204,88121,1,8,0:1:0:0:
188,256,88196,2,0,L|160:216,1,45,8|0,0:0|0:0,0:0:0:0:
76,72,88345,1,2,0:0:0:0:
