osu file format v14

[General]
AudioFilename: audio.mp3
AudioLeadIn: 0
PreviewTime: 59253
Countdown: 0
SampleSet: Normal
StackLeniency: 0.7
Mode: 0
LetterboxInBreaks: 0
WidescreenStoryboard: 0

[Editor]
DistanceSpacing: 1.1
BeatDivisor: 3
GridSize: 32
TimelineZoom: 2.899999

[Metadata]
Title:Paradisus-Paradoxum
TitleUnicode:Paradisus-Paradoxum
Artist:MYTH & ROID
ArtistUnicode:MYTH & ROID
Creator:StarrStyx
Version:Sing's Insane
Source:Re:ゼロから始める異世界生活
Tags:re: zero kara hajimeru isekai seikatsu life in a different world from zero re:zero tv size op opening sahuang wing my way sing deetz xxdeathx -kevincela- vinxis hvick225 hvick snowwhite handsome
BeatmapID:1021592
BeatmapSetID:477640

[Difficulty]
HPDrainRate:6
CircleSize:4
OverallDifficulty:8
ApproachRate:9.1
SliderMultiplier:1.6
SliderTickRate:1

[Events]
//Background and Video events
0,0,"sing_emilia.jpg",0,0
Video,0,"optc.flv"
//Break Periods
//Storyboard Layer 0 (Background)
//Storyboard Layer 1 (Fail)
//Storyboard Layer 2 (Pass)
//Storyboard Layer 3 (Foreground)
//Storyboard Sound Samples

[TimingPoints]
6119,298.507462686567,4,1,1,65,1,0
9701,-83.3333333333333,4,1,1,60,0,1
14477,-166.666666666667,4,2,1,50,0,0
16865,-200,4,1,1,40,0,0
18357,-133.333333333333,4,1,1,55,0,0
19253,-100,4,1,1,60,0,1
28805,-133.333333333333,4,1,1,70,0,0
29104,-133.333333333333,4,2,1,50,0,0
31193,-200,4,2,1,50,0,0
32686,-133.333333333333,4,2,1,50,0,0
33581,-166.666666666667,4,2,1,50,0,0
34477,-133.333333333333,4,2,1,50,0,0
35671,-100,4,2,1,50,0,0
35969,-100,4,2,1,65,0,0
38357,-100,4,1,1,60,0,0
45521,-100,4,1,1,40,0,0
45820,-100,4,1,1,50,0,0
46118,-100,4,1,1,65,0,0
47313,-100,4,2,1,45,0,0
47910,-90.9090909090909,4,1,1,50,0,0
55074,-90.9090909090909,4,1,1,60,0,0
56268,-90.9090909090909,4,1,1,70,0,0
59850,-83.3333333333333,4,1,1,65,0,1
74178,-133.333333333333,4,2,1,50,0,0
76566,-200,4,1,1,40,0,0
78059,-100,4,1,1,55,0,0
78954,-100,4,1,1,60,0,1
83730,-83.3333333333333,4,1,1,60,0,1
88357,-100,4,1,1,60,0,0

[Colours]
Combo1 : 122,255,94
Combo2 : 255,147,247
Combo3 : 116,213,254
Combo4 : 252,255,128

[HitObjects]
304,290,7313,5,8,0:0:0:0:
273,72,7462,1,8,0:0:0:0:
273,72,7760,5,0,0:0:0:0:
170,266,7910,1,8,0:0:0:0:
367,169,8059,1,8,0:0:0:0:
367,169,8357,6,0,P|315:193|195:155,1,160,0|0,0:0|0:0,0:0:0:0:
151,131,8805,1,8,0:0:0:0:
303,289,8954,1,0,0:0:0:0:
303,289,9701,6,0,P|359:272|406:276,1,95.9999970703126,0|0,0:0|0:0,0:0:0:0:
333,177,9999,1,8,0:0:0:0:
445,147,10148,2,0,P|402:107|382:64,1,95.9999970703126,0|0,0:0|0:0,0:0:0:0:
333,177,10447,1,0,0:0:0:0:
252,96,10596,2,0,P|238:152|211:191,1,95.9999970703126,8|0,0:0|0:0,0:0:0:0:
133,232,10895,6,0,B|128:162|119:87|119:87|140:106|166:114,1,191.999994140625,0|8,0:0|0:0,0:0:0:0:
182,31,11342,1,0,0:0:0:0:
44,223,11492,2,0,L|34:114,1,95.9999970703126,0|0,0:0|0:0,0:0:0:0:
227,279,11790,2,0,L|217:170,1,95.9999970703126,8|0,0:0|0:0,0:0:0:0:
251,76,12089,6,0,B|317:86|317:86|359:122|359:122|434:136,1,191.999994140625,0|8,0:0|0:0,0:0:0:0:
497,35,12536,2,0,L|397:46,1,95.9999970703126,0|0,0:0|0:0,0:0:0:0:
285,169,12835,1,0,0:0:0:0:
512,120,12984,1,8,0:0:0:0:
399,316,13133,6,0,L|408:199,1,95.9999970703126,0|2,0:0|0:0,0:0:0:0:
406,220,13357,1,0,0:0:0:0:
406,220,13432,2,0,P|436:225|474:231,1,47.9999985351563,0|0,0:0|0:0,0:0:0:0:
322,359,13581,2,0,P|311:330|297:294,1,47.9999985351563,0|0,0:0|0:0,0:0:0:0:
488,346,13730,2,0,P|468:369|444:399,1,47.9999985351563,0|0,0:0|0:0,0:0:0:0:
311,226,13880,5,2,0:0:0:0:
300,211,13954,1,0,0:0:0:0:
287,199,14029,1,0,0:0:0:0:
271,189,14104,1,0,0:0:0:0:
255,183,14178,1,0,0:0:0:0:
237,180,14253,1,0,0:0:0:0:
219,180,14327,1,0,0:0:0:0:
201,184,14402,1,0,0:0:0:0:
185,191,14477,6,0,L|197:40,1,143.999995605469,6|0,0:0|0:0,0:0:0:0:
196,48,15074,1,2,1:0:0:0:
16,221,15671,6,0,L|27:372,1,143.999995605469,4|0,0:0|0:0,0:0:0:0:
27,364,16268,1,2,1:0:0:0:
406,220,16865,6,2,B|261:200|294:298|130:262,1,280
322,359,18357,5,2,0:0:0:0:
322,359,18656,1,0,0:0:0:0:
207,64,18805,2,0,L|197:203,1,120.000004577637,2|0,0:0|0:0,0:0:0:0:
198,183,19178,1,0,0:0:0:0:
198,183,19253,6,0,P|134:162|27:179,1,160,4|8,0:0|0:0,0:0:0:0:
140,303,19701,2,0,L|135:236,1,40
288,120,19850,2,0,P|352:98|459:115,1,160,0|8,0:0|0:0,0:0:0:0:
442,108,20447,6,0,L|435:205,1,80,2|0,0:0|0:0,0:0:0:0:
354,15,20745,1,8,0:0:0:0:
288,120,20895,2,0,L|295:217,1,80,2|0,0:0|0:0,0:0:0:0:
354,15,21193,1,0,0:0:0:0:
354,15,21492,6,0,L|303:21,1,40,0|0,0:0|0:0,0:0:0:0:
181,4,21641,2,0,B|207:50|207:50|196:180,1,160,0|8,0:0|0:0,0:0:0:0:
142,236,22089,2,0,L|193:242,1,40,0|0,0:0|0:0,0:0:0:0:
315,225,22238,2,0,B|289:271|289:271|300:401,1,160,0|8,0:0|0:0,0:0:0:0:
298,377,22835,6,0,P|250:376|208:355,1,80,2|0,0:0|0:0,0:0:0:0:
224,180,23133,1,8,0:0:0:0:
371,301,23283,1,2,0:0:0:0:
371,301,23581,5,0,0:0:0:0:
391,211,23730,2,0,P|343:211|300:233,1,80,10|0,0:0|0:0,0:0:0:0:
465,338,24029,6,0,L|488:155,1,160,6|8,0:0|0:0,0:0:0:0:
501,81,24477,2,0,P|465:93|446:94,1,40,0|0,0:0|0:0,0:0:0:0:
294,65,24626,2,0,L|317:248,1,160,0|8,0:0|0:0,0:0:0:0:
313,223,25223,6,0,P|275:237|236:236,1,80,2|0,0:0|0:0,0:0:0:0:
383,120,25521,1,8,0:0:0:0:
188,340,25671,2,0,P|225:354|264:353,1,80,2|0,0:0|0:0,0:0:0:0:
118,237,25969,1,0,0:0:0:0:
118,237,26268,6,0,L|108:296,1,40,0|0,0:0|0:0,0:0:0:0:
69,364,26417,2,0,P|67:285|19:208,1,160,0|8,0:0|0:0,0:0:0:0:
187,109,26865,2,0,L|197:168,1,40,0|0,0:0|0:0,0:0:0:0:
236,236,27014,2,0,P|238:157|286:80,1,160,0|8,0:0|0:0,0:0:0:0:
277,88,27611,6,0,L|176:103,1,80,8|0,0:0|0:0,0:0:0:0:
197,99,27835,1,0,0:0:0:0:
197,99,27910,2,0,L|207:158,1,40,10|8,0:0|0:0,0:0:0:0:
328,187,28059,1,8,0:0:0:0:
328,187,28133,1,0,0:0:0:0:
328,187,28208,1,0,0:0:0:0:
401,43,28357,6,0,L|391:102,1,40,10|8,0:0|0:0,0:0:0:0:
290,201,28507,2,0,L|346:180,1,40,8|0,0:0|0:0,0:0:0:0:
483,219,28656,2,0,L|436:180,1,40,0|0,0:0|0:0,0:0:0:0:
147,197,28805,5,4,0:0:0:0:
147,197,29104,2,0,P|143:266|137:328,1,120.000004577637,2|0,0:0|0:0,0:0:0:0:
242,381,29551,2,0,P|238:312|232:250,1,120.000004577637,2|0,0:0|0:0,0:0:0:0:
414,122,29999,2,0,P|418:191|424:253,1,120.000004577637,2|0,0:0|0:0,0:0:0:0:
319,306,30447,2,0,P|323:237|329:175,1,120.000004577637,2|0,0:0|0:0,0:0:0:0:
258,115,30895,1,2,0:0:0:0:
258,115,31193,6,0,B|134:99|165:186|21:150,1,240,2|0,0:0|0:0,0:0:0:0:
28,151,32686,6,0,L|39:281,1,120.000004577637,2|0,0:0|0:0,0:0:0:0:
129,233,33133,2,0,L|140:103,1,120.000004577637,2|0,0:0|0:0,0:0:0:0:
235,21,33581,6,0,B|250:87|250:87|238:138|238:138|252:224,1,191.999994140625,2|2,0:0|0:0,0:0:0:0:
249,208,34477,6,0,P|332:192|430:225,1,180.000006866455,2|0,0:0|0:0,0:0:0:0:
512,85,35074,2,0,P|427:112|339:96,1,180.000006866455,2|0,0:0|0:0,0:0:0:0:
258,36,35671,2,0,L|253:135,1,80,2|0,0:0|0:0,0:0:0:0:
249,208,35969,5,2,0:0:0:0:
256,192,36044,12,0,38059,0:0:0:0:
72,139,38357,6,0,P|80:199|87:237,1,80,4|0,0:0|0:0,0:0:0:0:
168,297,38656,2,0,P|176:237|183:199,1,80,8|0,0:0|0:0,0:0:0:0:
179,217,39104,1,0,0:0:0:0:
41,298,39253,1,8,0:0:0:0:
437,209,39551,6,0,P|429:269|422:307,1,80,2|0,0:0|0:0,0:0:0:0:
341,367,39850,2,0,P|333:307|326:269,1,80,8|2,0:0|0:0,0:0:0:0:
330,287,40298,1,0,0:0:0:0:
468,368,40447,1,10,0:0:0:0:
335,190,40745,6,0,L|250:204,1,80,2|0,0:0|0:0,0:0:0:0:
179,101,41044,2,0,L|264:115,1,80,8|0,0:0|0:0,0:0:0:0:
257,114,41492,1,0,0:0:0:0:
248,300,41641,1,10,0:0:0:0:
248,300,41939,6,0,L|253:209,1,80,0|0,0:0|0:0,0:0:0:0:
172,174,42238,1,10,0:0:0:0:
330,268,42387,1,0,0:0:0:0:
330,268,42462,1,0,0:0:0:0:
330,268,42536,6,0,L|377:262,1,40,0|0,0:0|0:0,0:0:0:0:
172,350,42686,2,0,L|132:355,1,40,0|0,0:0|0:0,0:0:0:0:
324,353,42835,2,0,L|363:358,1,40,0|0,0:0|0:0,0:0:0:0:
165,259,42984,2,0,L|118:253,1,40,0|0,0:0|0:0,0:0:0:0:
23,236,43133,6,0,L|45:350,1,80,4|0,0:0|0:0,0:0:0:0:
101,167,43432,1,8,0:0:0:0:
200,201,43581,2,0,L|287:124,1,80,2|0,0:0|0:0,0:0:0:0:
101,167,43880,1,0,0:0:0:0:
75,67,44029,2,0,L|-34:29,1,80,10|0,0:0|0:0,0:0:0:0:
437,288,44327,6,0,L|415:402,1,80,0|0,0:0|0:0,0:0:0:0:
359,219,44626,1,2,0:0:0:0:
260,253,44775,2,0,L|172:176,1,80,0|8,0:0|0:0,0:0:0:0:
359,219,45074,1,2,0:0:0:0:
385,119,45223,2,0,L|494:81,1,80,0|0,0:0|0:0,0:0:0:0:
327,321,45521,6,0,L|317:370,3,40,2|0|0|0,0:0|0:0|0:0|0:0,0:0:0:0:
125,253,45820,2,0,L|135:302,3,40,2|0|0|0,0:0|0:0|0:0|0:0,0:0:0:0:
270,178,46118,2,0,L|260:227,3,40,2|0|0|0,0:0|0:0|0:0|0:0,0:0:0:0:
158,128,46417,5,2,0:0:0:0:
231,344,46566,1,0,0:0:0:0:
359,219,46716,6,0,L|471:237,1,106.666666666667
464,235,47014,2,0,L|456:165,2,53.3333333333333
353,320,47313,5,2,0:0:0:0:
370,98,47611,1,2,0:0:0:0:
230,302,47910,6,0,L|139:289,1,88.000002685547,4|0,0:0|0:0,0:0:0:0:
142,289,48133,1,0,0:0:0:0:
142,289,48208,1,8,0:0:0:0:
65,367,48357,1,0,0:0:0:0:
142,195,48507,1,0,0:0:0:0:
185,377,48656,2,0,L|246:385,2,44.0000013427735,0|0|8,0:0|0:0|0:0,0:0:0:0:
44,253,48954,1,0,0:0:0:0:
308,245,49104,6,0,L|399:232,1,88.000002685547,0|0,0:0|0:0,0:0:0:0:
396,232,49327,1,0,0:0:0:0:
396,232,49402,1,8,0:0:0:0:
473,310,49551,1,0,0:0:0:0:
396,138,49701,1,0,0:0:0:0:
353,320,49850,2,0,L|291:328,2,44.0000013427735,0|0|8,0:0|0:0|0:0,0:0:0:0:
494,196,50148,1,0,0:0:0:0:
311,77,50298,6,0,P|298:141|302:178,1,88.000002685547,0|0,0:0|0:0,0:0:0:0:
299,163,50521,1,0,0:0:0:0:
299,163,50596,1,8,0:0:0:0:
218,57,50745,1,0,0:0:0:0:
396,138,50895,1,0,0:0:0:0:
212,207,51044,2,0,P|211:178|204:151,2,44.0000013427735,0|0|8,0:0|0:0|0:0,0:0:0:0:
397,133,51342,1,0,0:0:0:0:
126,190,51492,5,0,0:0:0:0:
309,240,51641,1,0,0:0:0:0:
309,240,51716,1,0,0:0:0:0:
309,240,51790,2,0,L|301:338,1,88.000002685547,8|0,0:0|0:0,0:0:0:0:
207,369,52089,6,0,L|204:321,3,44.0000013427735,2|0|0|0,0:0|0:0|0:0|0:0,0:0:0:0:
393,320,52387,2,0,L|396:272,3,44.0000013427735,10|0|0|0,0:0|0:0|0:0|0:0,0:0:0:0:
210,226,52686,6,0,P|165:237|121:236,1,88.000002685547,2|0,0:0|0:0,0:0:0:0:
123,236,52910,1,0,0:0:0:0:
123,236,52984,1,8,0:0:0:0:
158,149,53133,1,0,0:0:0:0:
126,333,53283,1,0,0:0:0:0:
44,213,53432,2,0,P|10:213|-21:205,2,44.0000013427735,0|0|8,0:0|0:0|0:0,0:0:0:0:
224,239,53730,1,0,0:0:0:0:
279,166,53880,6,0,P|324:177|368:176,1,88.000002685547,0|0,0:0|0:0,0:0:0:0:
366,176,54104,1,0,0:0:0:0:
366,176,54178,1,8,0:0:0:0:
331,89,54327,1,0,0:0:0:0:
363,273,54477,1,0,0:0:0:0:
445,153,54626,2,0,P|478:153|510:145,2,44.0000013427735,0|0|8,0:0|0:0|0:0,0:0:0:0:
265,179,54924,1,0,0:0:0:0:
489,152,55074,6,0,L|483:61,1,88.000002685547,8|0,0:0|0:0,0:0:0:0:
297,182,55372,2,0,L|291:273,1,88.000002685547,8|0,0:0|0:0,0:0:0:0:
378,71,55671,6,0,L|287:77,1,88.000002685547,10|0,0:0|0:0,0:0:0:0:
408,263,55969,2,0,L|499:269,1,88.000002685547,8|0,0:0|0:0,0:0:0:0:
281,192,56268,6,0,L|275:283,1,88.000002685547,10|0,0:0|0:0,0:0:0:0:
275,279,56492,1,0,0:0:0:0:
275,279,56566,2,0,L|216:271,1,44.0000013427735,8|0,0:0|0:0,0:0:0:0:
194,169,56716,2,0,L|188:78,1,88.000002685547,0|10,0:0|0:0,0:0:0:0:
267,32,57014,1,0,0:0:0:0:
106,136,57163,1,8,0:0:0:0:
281,192,57313,1,0,0:0:0:0:
133,256,57462,5,10,0:0:0:0:
325,114,57611,1,8,0:0:0:0:
325,114,57910,5,8,0:0:0:0:
104,34,58059,1,10,0:0:0:0:
231,273,58208,1,10,0:0:0:0:
231,273,58507,6,2,B|140:257|159:317|41:290,1,176.000005371094
197,356,58954,1,10,0:0:0:0:
104,214,59104,1,2,0:0:0:0:
104,214,59850,6,0,P|172:230|217:220,1,95.9999970703126,4|0,0:0|0:0,0:0:0:0:
270,187,60148,1,8,0:0:0:0:
377,318,60298,2,0,P|357:249|326:216,1,95.9999970703126,0|0,0:0|0:0,0:0:0:0:
270,187,60596,1,0,0:0:0:0:
330,29,60745,2,0,P|280:80|267:123,1,95.9999970703126,8|0,0:0|0:0,0:0:0:0:
193,245,61044,6,0,B|170:98|170:98|155:127|135:148,1,191.999994140625,0|8,0:0|0:0,0:0:0:0:
92,75,61492,1,0,0:0:0:0:
269,202,61641,2,0,L|249:93,1,95.9999970703126,0|0,0:0|0:0,0:0:0:0:
118,302,61939,2,0,L|98:193,1,95.9999970703126,8|0,0:0|0:0,0:0:0:0:
279,308,62238,6,0,B|343:299|343:299|393:323|393:323|489:318,1,191.999994140625,0|8,0:0|0:0,0:0:0:0:
505,215,62686,2,0,B|466:239|466:239|403:243,1,95.9999970703126,0|0,0:0|0:0,0:0:0:0:
270,187,62984,1,0,0:0:0:0:
332,384,63133,1,8,0:0:0:0:
415,242,63283,6,0,P|426:178|429:133,1,95.9999970703126,0|0,0:0|0:0,0:0:0:0:
362,61,63581,1,0,0:0:0:0:
267,111,63730,2,0,P|278:175|281:220,1,95.9999970703126,0|0,0:0|0:0,0:0:0:0:
214,292,64029,2,0,L|151:280,3,47.9999985351563,2|0|0|0,0:0|0:0|0:0|0:0,0:0:0:0:
317,317,64327,2,0,L|380:305,3,47.9999985351563,2|0|0|0,0:0|0:0|0:0|0:0,0:0:0:0:
213,313,64626,6,0,L|113:289,1,95.9999970703126,4|0,0:0|0:0,0:0:0:0:
185,200,64924,1,8,0:0:0:0:
269,120,65074,2,0,L|298:218,1,95.9999970703126,0|0,0:0|0:0,2:0:0:0:
185,200,65372,1,0,0:0:0:0:
74,168,65521,2,0,L|144:93,1,95.9999970703126,8|0,0:0|0:0,0:0:0:0:
242,35,65820,6,0,B|341:27|314:98|444:81,1,191.999994140625,0|8,0:0|0:0,0:0:0:0:
497,33,66268,2,0,P|508:84|490:133,1,95.9999970703126
424,199,66566,1,0,0:0:0:0:
347,133,66716,2,0,P|336:82|354:33,1,95.9999970703126,8|0,0:0|0:0,0:0:0:0:
507,270,67014,6,0,B|454:269|417:301|417:301|383:263|312:245,1,191.999994140625,2|8,0:0|0:0,0:0:0:0:
424,199,67462,1,0,0:0:0:0:
481,357,67611,1,2,0:0:0:0:
339,347,67760,1,0,0:0:0:0:
424,199,67910,2,0,L|433:84,1,95.9999970703126,8|0,0:0|0:0,0:0:0:0:
431,103,68208,6,0,L|493:110,3,47.9999985351563,2|0|0|0,0:0|0:0|0:0|0:0,0:0:0:0:
424,199,68507,2,0,L|361:206,3,47.9999985351563,10|0|0|0,0:0|0:0|0:0|0:0,0:0:0:0:
322,92,68805,5,2,0:0:0:0:
308,72,68880,1,0,0:0:0:0:
290,55,68954,1,0,0:0:0:0:
270,42,69029,1,0,0:0:0:0:
248,33,69104,1,2,0:0:0:0:
225,29,69178,1,0,0:0:0:0:
201,28,69253,1,0,0:0:0:0:
177,33,69327,1,0,0:0:0:0:
155,41,69402,6,0,P|163:90|164:141,1,95.9999970703126,4|0,0:0|0:0,0:0:0:0:
195,212,69701,1,8,0:0:0:0:
67,333,69850,2,0,P|105:301|149:275,1,95.9999970703126,0|0,0:0|0:0,0:0:0:0:
195,212,70148,1,0,0:0:0:0:
364,263,70298,2,0,P|317:245|272:220,1,95.9999970703126,8|0,0:0|0:0,0:0:0:0:
41,78,70596,6,0,B|50:151|50:151|74:181|74:181|87:266,1,191.999994140625,0|8,0:0|0:0,0:0:0:0:
126,111,71044,1,0,0:0:0:0:
3,222,71193,2,0,L|18:322,1,95.9999970703126,0|0,0:0|0:0,0:0:0:0:
170,288,71492,2,0,L|155:193,1,95.9999970703126,8|0,0:0|0:0,0:0:0:0:
253,141,71790,6,0,B|304:94|403:95|403:95|392:116|387:145,1,191.999994140625,0|8,0:0|0:0,0:0:0:0:
336,298,72238,2,0,P|328:236|338:197,1,95.9999970703126,0|0,0:0|0:0,0:0:0:0:
416,247,72536,1,0,0:0:0:0:
241,266,72686,1,8,0:0:0:0:
342,384,72835,1,0,0:0:0:0:
416,247,72984,6,0,P|424:199|415:152,1,95.9999970703126,2|0,0:0|0:0,0:0:0:0:
347,71,73283,2,0,L|350:16,3,47.9999985351563,2|0|0|0,0:0|0:0|0:0|0:0,0:0:0:0:
310,170,73581,2,0,L|260:194,3,47.9999985351563,2|0|0|0,0:0|0:0|0:0|0:0,0:0:0:0:
415,152,73880,2,0,L|461:182,3,47.9999985351563,2|0|0|0,0:0|0:0|0:0|0:0,0:0:0:0:
242,81,74178,6,0,P|197:64|102:150,1,180.000006866455,6|0,0:0|0:0,0:0:0:0:
92,16,74775,1,2,1:0:0:0:
305,243,75372,6,0,P|350:226|445:312,1,180.000006866455,2|0,0:0|0:0,0:0:0:0:
455,178,75969,1,2,1:0:0:0:
219,344,76566,6,2,B|140:283|16:291|16:291|38:316|49:354,1,280
186,233,78059,5,2,0:0:0:0:
186,233,78357,1,0,0:0:0:0:
92,39,78507,2,0,P|79:103|28:192,1,160,2|0,0:0|0:0,0:0:0:0:
33,185,78880,1,0,0:0:0:0:
33,185,78954,6,0,P|96:152|191:146,1,160,4|8,0:0|0:0,0:0:0:0:
273,191,79402,2,0,L|272:143,1,40,0|0,0:0|0:0,0:0:0:0:
423,80,79551,2,0,P|343:75|272:39,1,160,0|8,0:0|0:0,0:0:0:0:
272,39,80148,6,0,L|263:131,1,80,2|0,0:0|0:0,0:0:0:0:
361,170,80447,1,8,0:0:0:0:
272,301,80596,2,0,L|263:209,1,80,2|0,0:0|0:0,0:0:0:0:
361,170,80895,1,0,0:0:0:0:
361,170,81193,6,0,L|412:176,1,40,0|0,0:0|0:0,0:0:0:0:
499,164,81342,2,0,B|474:220|474:220|486:326,1,160,0|8,0:0|0:0,0:0:0:0:
399,315,81790,2,0,L|348:309,1,40,0|0,0:0|0:0,0:0:0:0:
261,321,81939,2,0,B|286:265|286:265|274:159,1,160,0|8,0:0|0:0,0:0:0:0:
274,166,82536,6,0,P|239:180|176:176,1,80,2|0,0:0|0:0,0:0:0:0:
106,146,82835,1,8,0:0:0:0:
169,269,82984,1,2,0:0:0:0:
223,103,83133,6,0,L|230:55,3,40,0|0|0|0,0:0|0:0|0:0|0:0,0:0:0:0:
82,255,83432,2,0,L|89:303,3,40,10|0|0|0,0:0|0:0|0:0|0:0,0:0:0:0:
14,129,83730,6,0,P|55:146|118:142,1,95.9999970703126,0|0,0:0|0:0,0:0:0:0:
211,112,84029,2,0,L|221:-4,1,95.9999970703126,10|2,0:0|0:0,0:0:0:0:
354,131,84327,2,0,P|285:193|160:185,1,191.999994140625,2|8,0:0|0:0,0:0:0:0:
2,232,84775,6,0,P|96:236|165:299,1,191.999994140625,0|0,0:0|0:0,0:0:0:0:
244,359,85223,2,0,L|256:251,1,95.9999970703126,8|0,0:0|0:0,0:0:0:0:
329,197,85521,1,0,0:0:0:0:
401,363,85671,2,0,L|389:255,1,95.9999970703126,0|8,0:0|0:0,0:0:0:0:
329,197,85969,1,0,0:0:0:0:
482,308,86118,5,2,0:0:0:0:
506,155,86268,2,0,P|444:161|401:197,1,95.9999970703126,0|8,0:0|0:0,0:0:0:0:
322,324,86566,1,0,0:0:0:0:
259,113,86716,2,0,P|336:105|418:183,1,191.999994140625,2|8,0:0|0:0,0:0:0:0:
392,35,87163,1,0,0:0:0:0:
329,197,87313,5,2,0:0:0:0:
329,197,87387,1,0,0:0:0:0:
329,197,87462,1,0,0:0:0:0:
420,144,87611,1,2,0:0:0:0:
322,324,87760,1,0,0:0:0:0:
236,118,87910,5,0,0:0:0:0:
449,282,88059,1,0,0:0:0:0:
449,282,88133,1,0,0:0:0:0:
449,282,88208,1,0,0:0:0:0:
158,321,88357,1,0,0:0:0:0:
