osu file format v14

[General]
AudioFilename: Remparadisus.mp3
AudioLeadIn: 0
PreviewTime: -1
Countdown: 0
SampleSet: Normal
StackLeniency: 0.7
Mode: 0
LetterboxInBreaks: 1
WidescreenStoryboard: 0

[Editor]
Bookmarks: 8358,9105,16866,18657,27911,28657,31642,46119,55970,59254,72836,76567,82388,87313
DistanceSpacing: 0.9
BeatDivisor: 4
GridSize: 4
TimelineZoom: 1.5

[Metadata]
Title:Paradisus-Paradoxum
TitleUnicode:Paradisus-Paradoxum
Artist:MYTH & ROID
ArtistUnicode:MYTH & ROID
Creator:Ruruchin
Version:Another?
Source:Re:ゼロから始める異世界生活
Tags:Rem, Ram, Emilia, Puck, Re zero, Subaru, MYTH & ROID, paradisus, Bad map, The worst map ever, Slider
BeatmapID:1054032
BeatmapSetID:495089

[Difficulty]
HPDrainRate:6.1
CircleSize:4
OverallDifficulty:8.5
ApproachRate:9.5
SliderMultiplier:1.8
SliderTickRate:1

[Events]
//Background and Video events
0,0,"Back.png",0,0
//Break Periods
//Storyboard Layer 0 (Background)
//Storyboard Layer 1 (Fail)
//Storyboard Layer 2 (Pass)
//Storyboard Layer 3 (Foreground)
//Storyboard Sound Samples

[TimingPoints]
7314,298.507462686567,4,1,0,100,1,0
9105,-133.333333333333,4,1,0,100,0,1
14478,-133.333333333333,4,1,0,100,0,0
18358,-133.333333333333,4,1,0,100,0,0
29105,-181.818181818181,4,1,0,100,0,0
38358,-133.333333333333,4,1,0,100,0,0
47761,-117.647058823529,4,1,0,100,0,0
59254,-100,4,1,0,100,0,1
68806,-100,4,1,0,100,0,1
76567,-100,4,1,0,100,0,0
88358,-100,4,1,0,100,0,0

[HitObjects]
140,272,7314,5,0,0:0:0:0:
376,96,7463,1,0,0:0:0:0:
160,256,7761,5,0,0:0:0:0:
376,96,7911,1,0,0:0:0:0:
184,236,8060,1,0,0:0:0:0:
416,320,8358,2,0,B|376:352|328:324|328:324|288:304|232:332,1,180
476,252,8806,1,0,0:0:0:0:
80,80,9105,2,0,B|104:72|124:60|124:60|152:80|184:84|212:80,1,135.000005149842
336,320,9702,6,0,P|404:316|448:240,1,135.000005149842
372,72,10149,2,0,P|336:56|288:56,1,67.5000025749208
160,184,10448,2,0,B|164:228|196:252,1,67.5000025749208
376,280,10746,1,0,0:0:0:0:
204,104,10896,2,0,B|164:84|124:104,1,67.5000025749208
16,224,11194,1,0,0:0:0:0:
192,360,11343,1,0,0:0:0:0:
328,208,11493,2,0,B|325:150|325:150|348:114|348:114|351:53,1,135.000005149842
204,32,11940,1,0,0:0:0:0:
132,212,12090,6,0,B|116:252|116:252|76:296|76:296|68:276|84:244,1,135.000005149842
120,56,12537,1,0,0:0:0:0:
272,248,12687,1,0,0:0:0:0:
432,168,12836,2,0,P|468:140|484:100,1,67.5000025749208
272,248,13134,6,0,B|196:300|160:244|72:244|108:312|144:312|148:276,1,202.500007724762
416,348,13731,1,0,0:0:0:0:
472,176,13881,2,0,B|465:130|519:-2|519:-2|482:12|475:51|475:51|456:34,1,270.000010299683
304,128,14776,1,0,0:0:0:0:
252,312,14925,1,0,0:0:0:0:
68,248,15075,2,0,P|40:224|28:196,1,67.5000025749208
156,312,15373,6,0,B|200:332|224:344|224:344|304:344,1,135.000005149842
392,308,15821,1,0,0:0:0:0:
180,196,15970,2,0,P|148:172|140:124,1,67.5000025749208
356,32,16269,2,0,P|384:44|416:92,1,67.5000025749208
372,156,16567,1,0,0:0:0:0:
288,224,16716,1,0,0:0:0:0:
372,156,16866,2,0,P|529:212|362:215,1,472.500018024445
184,136,18358,1,0,0:0:0:0:
184,136,18806,2,0,P|216:112|312:156,1,135.000005149842
320,272,19254,6,0,B|292:315|234:331|234:331|158:331|158:331|193:298,1,202.500007724762
236,236,19851,2,0,P|256:184|156:80,1,202.500007724762
104,152,20448,2,0,P|72:120|72:88,1,67.5000025749208
144,32,20746,1,0,0:0:0:0:
232,84,20896,2,0,B|256:84|296:64|296:64|348:88|376:88,1,135.000005149842
452,128,21343,2,0,L|460:60,1,67.5000025749208
308,220,21642,6,0,L|296:148,1,67.5000025749208
444,248,21940,2,0,L|424:328,1,67.5000025749208
332,364,22239,1,0,0:0:0:0:
216,364,22388,2,0,P|160:336|144:252,1,135.000005149842
224,160,22836,5,0,0:0:0:0:
139,270,22985,1,0,0:0:0:0:
68,160,23134,1,0,0:0:0:0:
228,240,23284,1,0,0:0:0:0:
148,104,23433,1,0,0:0:0:0:
64,240,23582,1,0,0:0:0:0:
224,160,23731,1,0,0:0:0:0:
332,264,23881,6,0,P|356:244|368:196,1,67.5000025749208
284,56,24179,1,0,0:0:0:0:
392,68,24328,2,0,P|456:108|452:180,1,135.000005149842
392,248,24776,2,0,P|368:288|368:232,1,135.000005149842
428,148,25224,6,0,P|464:120|472:76,1,67.5000025749208
344,16,25522,1,0,0:0:0:0:
216,96,25672,2,0,L|204:188,1,67.5000025749208
104,272,25970,2,0,L|88:196,1,67.5000025749208
272,264,26269,2,0,L|256:344,1,67.5000025749208
152,376,26567,1,0,0:0:0:0:
40,348,26716,2,0,B|16:300|20:244|20:244|60:148,1,202.500007724762
144,80,27313,1,0,0:0:0:0:
200,200,27463,1,0,0:0:0:0:
316,140,27612,6,0,L|320:52,1,67.5000025749208
452,92,27911,1,0,0:0:0:0:
452,124,27985,1,0,0:0:0:0:
452,156,28060,1,0,0:0:0:0:
452,188,28134,1,0,0:0:0:0:
452,220,28209,1,0,0:0:0:0:
452,252,28284,1,0,0:0:0:0:
448,328,28358,2,0,L|492:336,1,33.7500012874604
360,344,28508,2,0,L|324:332,1,33.7500012874604
236,352,28657,2,0,P|188:332|180:320,1,67.5000025749208
48,72,29105,6,0,P|48:120|92:156,1,99.0000030212403
172,172,29552,2,0,B|220:184|220:184|288:168,1,99.0000030212403
344,136,30000,2,0,P|392:116|408:64,1,99.0000030212403
336,28,30448,1,0,0:0:0:0:
256,88,30597,2,0,P|244:116|248:148,1,49.5000015106202
288,224,30896,2,0,P|312:240|348:240,1,49.5000015106202
424,188,31194,6,0,B|432:204|440:224|440:224|440:284,1,99.0000030212403
372,332,31642,2,0,P|320:352|272:332,1,99.0000030212403
444,292,32090,2,0,P|476:280|492:252,1,49.5000015106202
504,188,32388,5,0,0:0:0:0:
504,188,32537,2,0,L|496:80,1,99.0000030212403
416,40,32985,2,0,B|392:28|392:28|372:44,1,49.5000015106202
316,120,33284,1,0,0:0:0:0:
316,120,33433,1,0,0:0:0:0:
316,120,33582,6,0,B|296:148|252:124|252:124|220:144|164:128,1,148.50000453186
92,168,34179,2,0,L|28:164,1,49.5000015106202
160,236,34478,2,0,L|216:240,1,49.5000015106202
280,304,34776,2,0,P|324:280|336:220,1,99.0000030212403
224,112,35224,1,0,0:0:0:0:
272,184,35373,1,0,0:0:0:0:
296,64,35522,2,0,B|320:56|320:56|360:64|360:64|392:64,1,99.0000030212403
448,144,35970,6,0,L|500:144,1,49.5000015106202
392,224,36269,2,0,L|336:224,1,49.5000015106202
260,264,36567,1,0,0:0:0:0:
164,216,36716,2,0,L|152:104,1,99.0000030212403
200,48,37164,2,0,P|244:40|268:44,1,49.5000015106202
320,92,37463,2,0,P|364:104|432:80,1,99.0000030212403
496,116,37911,2,0,L|508:216,1,99.0000030212403
440,316,38358,6,0,B|396:312|396:312|352:332|352:332|284:324,1,135.000005149842
204,276,38806,1,0,0:0:0:0:
128,176,38955,2,0,P|136:128|168:104,1,67.5000025749208
264,72,39254,1,0,0:0:0:0:
328,188,39403,6,0,P|368:164|376:136,1,67.5000025749208
388,36,39702,1,0,0:0:0:0:
468,116,39851,1,0,0:0:0:0:
260,148,40000,1,0,0:0:0:0:
376,272,40149,2,0,P|405:251|417:223,1,67.5000025749208
276,320,40448,1,0,0:0:0:0:
176,340,40597,1,0,0:0:0:0:
68,292,40746,6,0,L|56:128,1,135.000005149842
192,68,41194,2,0,L|176:160,1,67.5000025749208
144,228,41493,1,0,0:0:0:0:
332,160,41642,1,0,0:0:0:0:
460,320,41791,2,0,B|412:336|412:336|392:292|392:292|412:252,1,135.000005149842
480,196,42239,2,0,L|492:108,1,67.5000025749208
448,44,42537,1,0,0:0:0:0:
288,244,42687,2,0,P|252:220|244:184,1,67.5000025749208
256,96,42985,1,0,0:0:0:0:
376,244,43134,6,0,P|356:320|288:332,1,135.000005149842
220,304,43582,1,0,0:0:0:0:
168,224,43731,2,0,L|156:136,1,67.5000025749208
348,92,44030,2,0,L|336:172,1,67.5000025749208
268,224,44328,5,0,0:0:0:0:
372,352,44478,2,0,P|416:348|444:320,1,67.5000025749208
476,248,44776,1,0,0:0:0:0:
424,96,44925,1,0,0:0:0:0:
272,140,45075,1,0,0:0:0:0:
372,352,45224,2,0,B|364:308|364:308|380:272|380:272|380:204,1,135.000005149842
448,176,45672,1,0,0:0:0:0:
300,252,45821,1,0,0:0:0:0:
212,296,45970,1,0,0:0:0:0:
212,296,46119,6,0,B|184:260|184:260|144:268|144:268|120:220|76:188|112:92|216:184|136:208,1,270.000010299683
280,236,46866,2,0,P|286:325|210:289,1,202.500007724762
124,260,47463,1,0,0:0:0:0:
36,224,47612,1,0,0:0:0:0:
40,124,47761,1,0,0:0:0:0:
132,68,47911,2,0,B|176:80|212:56|212:56|292:56,1,153.000002918243
432,200,48358,2,0,L|444:120,1,76.5000014591217
308,304,48657,2,0,P|332:336|380:344,1,76.5000014591217
168,176,48955,6,0,P|116:164|80:180,1,76.5000014591217
8,236,49254,1,0,0:0:0:0:
132,68,49403,2,0,P|172:56|212:68,1,76.5000014591217
248,136,49702,1,0,0:0:0:0:
240,220,49851,2,0,P|220:248|172:260,1,76.5000014591217
100,340,50149,1,0,0:0:0:0:
100,340,50299,6,0,B|152:332|152:332|220:348|220:348|276:332,1,153.000002918243
348,296,50746,2,0,L|352:220,1,76.5000014591217
428,144,51045,1,0,0:0:0:0:
312,40,51194,2,0,L|304:128,1,76.5000014591217
436,252,51493,6,0,B|460:268|472:360|472:360|496:320,1,153.000002918243
408,56,51940,1,0,0:0:0:0:
332,132,52090,1,0,0:0:0:0:
436,252,52239,1,0,0:0:0:0:
268,240,52388,2,0,P|232:216|220:164,1,76.5000014591217
120,56,52687,6,0,P|80:48|40:68,1,76.5000014591217
268,240,52985,2,0,P|304:232|332:204,1,76.5000014591217
108,184,53284,2,0,P|60:188|24:216,1,76.5000014591217
8,304,53582,1,0,0:0:0:0:
200,188,53731,1,0,0:0:0:0:
144,304,53881,1,0,0:0:0:0:
248,336,54030,6,0,P|300:336|328:316,1,76.5000014591217
460,192,54328,2,0,P|448:228|400:260,1,76.5000014591217
312,240,54627,1,0,0:0:0:0:
428,88,54776,1,0,0:0:0:0:
272,164,54925,2,0,L|276:80,1,76.5000014591217
428,44,55224,6,0,L|424:132,1,76.5000014591217
396,244,55522,1,0,0:0:0:0:
208,336,55672,2,0,L|204:248,1,76.5000014591217
188,156,55970,1,0,0:0:0:0:
48,100,56119,5,0,0:0:0:0:
64,208,56269,1,0,0:0:0:0:
180,40,56418,5,0,0:0:0:0:
188,156,56567,1,0,0:0:0:0:
324,88,56716,5,0,0:0:0:0:
336,196,56866,1,0,0:0:0:0:
472,280,57015,5,0,0:0:0:0:
472,172,57164,1,0,0:0:0:0:
248,220,57313,5,0,0:0:0:0:
264,344,57463,1,0,0:0:0:0:
248,220,57612,1,0,0:0:0:0:
320,24,57911,5,0,0:0:0:0:
304,148,58060,1,0,0:0:0:0:
320,24,58209,1,0,0:0:0:0:
176,180,58508,5,0,0:0:0:0:
160,196,58657,1,0,0:0:0:0:
140,208,58806,1,0,0:0:0:0:
120,216,58955,1,0,0:0:0:0:
468,280,59254,2,0,B|420:296|420:296|396:272|356:272|356:272|328:296|284:268,1,180
208,336,59702,1,0,0:0:0:0:
92,316,59851,6,0,P|40:292|28:248,1,90
168,76,60149,1,0,0:0:0:0:
272,236,60299,2,0,P|320:236|352:200,1,90
384,48,60597,1,0,0:0:0:0:
160,192,60746,1,0,0:0:0:0:
344,336,60896,1,0,0:0:0:0:
436,268,61045,6,0,B|448:216|448:216|432:160|432:160|448:92,1,180
244,140,61493,1,0,0:0:0:0:
352,252,61642,1,0,0:0:0:0:
188,288,61791,1,0,0:0:0:0:
48,196,61940,2,0,P|56:144|96:108,1,90
280,8,62239,5,0,0:0:0:0:
332,164,62388,2,0,P|384:160|412:128,1,90
188,208,62687,2,0,L|96:212,1,90
276,296,62985,1,0,0:0:0:0:
244,120,63134,1,0,0:0:0:0:
432,216,63284,2,0,P|472:176|328:80,1,270
196,284,63881,2,0,P|144:304|92:292,1,90
268,172,64179,2,0,P|308:148|356:144,1,90
464,312,64478,1,0,0:0:0:0:
336,256,64627,6,0,B|304:228|304:228|348:180|336:100|260:80|196:128|248:216|284:156,1,270
392,112,65224,2,0,P|428:80|436:40,1,90
208,96,65522,2,0,P|180:136|180:184,1,90
268,320,65821,2,0,P|304:352|360:348,1,90
420,220,66119,1,0,0:0:0:0:
196,268,66269,1,0,0:0:0:0:
296,124,66418,1,0,0:0:0:0:
140,176,66567,2,0,P|104:136|104:92,1,90
196,268,66866,1,0,0:0:0:0:
360,136,67015,6,0,P|432:256|304:184,1,360
404,56,67761,1,0,0:0:0:0:
220,156,67911,1,0,0:0:0:0:
296,80,68060,1,0,0:0:0:0:
318,254,68209,6,0,B|298:198|298:198|306:126|306:126|294:74,1,180
220,156,68657,1,0,0:0:0:0:
176,276,68806,5,0,0:0:0:0:
156,276,68881,1,0,0:0:0:0:
140,276,68955,1,0,0:0:0:0:
136,260,69030,1,0,0:0:0:0:
136,240,69105,1,0,0:0:0:0:
136,224,69179,1,0,0:0:0:0:
136,204,69254,1,0,0:0:0:0:
136,188,69328,1,0,0:0:0:0:
136,168,69403,2,0,P|156:96|264:64,1,180
448,176,69851,2,0,P|400:200|352:192,1,90
340,68,70149,1,0,0:0:0:0:
396,308,70299,2,0,P|360:340|304:336,1,90
232,260,70597,5,0,0:0:0:0:
328,180,70746,1,0,0:0:0:0:
196,40,70896,2,0,L|204:144,1,90
84,296,71194,2,0,L|96:188,1,90
76,84,71493,1,0,0:0:0:0:
244,168,71642,1,0,0:0:0:0:
148,220,71791,1,0,0:0:0:0:
336,276,71940,2,0,B|380:284|380:284|432:276,1,90
508,172,72239,2,0,B|524:128|524:128|504:68,1,90
308,84,72537,1,0,0:0:0:0:
280,228,72687,1,0,0:0:0:0:
424,44,72836,6,0,B|476:80|476:80|476:140|476:140|476:256|408:256|408:192,1,270
212,188,73433,1,0,0:0:0:0:
280,372,73582,1,0,0:0:0:0:
212,188,73731,1,0,0:0:0:0:
132,320,73881,2,0,P|76:300|64:180,1,180
140,228,74328,1,0,0:0:0:0:
224,292,74478,2,0,L|408:296,1,180
472,212,74925,1,0,0:0:0:0:
428,108,75075,1,0,0:0:0:0:
236,56,75373,5,0,0:0:0:0:
164,128,75522,1,0,0:0:0:0:
224,204,75672,1,0,0:0:0:0:
464,292,75970,5,0,0:0:0:0:
392,184,76119,1,0,0:0:0:0:
500,136,76269,1,0,0:0:0:0:
312,84,76567,6,0,P|112:112|332:304,1,630
404,280,78060,5,0,0:0:0:0:
444,92,78508,1,0,0:0:0:0:
444,92,78955,2,0,B|372:84|372:84|320:104|320:104|248:84,1,180
204,152,79403,1,0,0:0:0:0:
204,152,79478,1,0,0:0:0:0:
204,152,79552,2,0,L|224:340,1,180
112,144,80000,6,0,P|140:80|176:64,1,90
128,312,80299,2,0,P|76:320|32:292,1,90
288,196,80597,2,0,P|328:176|384:192,1,90
452,264,80896,1,0,0:0:0:0:
232,72,81045,1,0,0:0:0:0:
356,256,81194,1,0,0:0:0:0:
196,236,81343,6,0,L|188:132,1,90
384,76,81642,2,0,L|372:184,1,90
316,340,81940,1,0,0:0:0:0:
160,324,82090,2,0,P|112:288|108:240,1,90
156,80,82388,1,0,0:0:0:0:
44,144,82537,1,0,0:0:0:0:
216,188,82687,1,0,0:0:0:0:
108,240,82836,1,0,0:0:0:0:
76,72,82985,5,0,0:0:0:0:
224,108,83134,1,0,0:0:0:0:
184,260,83284,1,0,0:0:0:0:
32,220,83433,1,0,0:0:0:0:
160,328,83582,2,0,P|216:344|260:328,1,90
316,256,83881,1,0,0:0:0:0:
416,312,84030,2,0,L|428:104,1,180
324,48,84478,1,0,0:0:0:0:
184,184,84627,2,0,P|144:144|144:80,1,90
344,156,84925,5,0,0:0:0:0:
212,268,85075,2,0,P|172:272|120:236,1,90
256,108,85373,1,0,0:0:0:0:
388,252,85522,2,0,P|428:236|440:168,1,90
300,308,85821,1,0,0:0:0:0:
184,184,85970,1,0,0:0:0:0:
144,328,86119,1,0,0:0:0:0:
272,212,86269,5,0,0:0:0:0:
104,212,86418,1,0,0:0:0:0:
104,76,86567,1,0,0:0:0:0:
276,76,86716,1,0,0:0:0:0:
272,212,86866,5,0,0:0:0:0:
436,212,87015,1,0,0:0:0:0:
436,344,87164,1,0,0:0:0:0:
272,344,87313,5,0,0:0:0:0:
208,292,87463,1,0,0:0:0:0:
172,224,87612,1,0,0:0:0:0:
172,144,87761,1,0,0:0:0:0:
200,68,87911,1,0,0:0:0:0:
272,32,88060,1,0,0:0:0:0:
324,92,88209,1,0,0:0:0:0:
252,124,88358,1,0,0:0:0:0:
