osu file format v14

[General]
AudioFilename: audio.mp3
AudioLeadIn: 0
PreviewTime: 59184
Countdown: 0
SampleSet: Soft
StackLeniency: 0.7
Mode: 1
LetterboxInBreaks: 0
WidescreenStoryboard: 1

[Editor]
Bookmarks: 47916,59856
DistanceSpacing: 0.4
BeatDivisor: 4
GridSize: 4
TimelineZoom: 2.5

[Metadata]
Title:Paradisus-Paradoxum
TitleUnicode:Paradisus-Paradoxum
Artist:MYTH & ROID
ArtistUnicode:MYTH & ROID
Creator:Quilt
Version:Taiko
Source:Re:ゼロから始める異世界生活
Tags:
BeatmapID:1105770
BeatmapSetID:520246

[Difficulty]
HPDrainRate:5
CircleSize:4
OverallDifficulty:5
ApproachRate:5
SliderMultiplier:1.4
SliderTickRate:2

[Events]
//Background and Video events
0,0,"57254861_p0.jpg",0,0
Video,0,"VideoOP.flv"
//Break Periods
//Storyboard Layer 0 (Background)
//Storyboard Layer 1 (Fail)
//Storyboard Layer 2 (Pass)
//Storyboard Layer 3 (Foreground)
//Storyboard Sound Samples

[TimingPoints]
155,298.507462686567,4,2,1,50,1,0
59856,-100,4,2,1,70,0,1
74184,-100,4,2,1,70,0,0

[Colours]
Combo1 : 233,186,213
Combo2 : 180,145,238
Combo3 : 131,98,157
Combo4 : 192,192,192

[HitObjects]
228,160,7319,5,4,0:0:0:0:
228,160,7468,1,4,0:0:0:0:
280,232,7766,1,6,0:0:0:0:
368,148,7916,1,4,0:0:0:0:
356,292,8065,1,6,0:0:0:0:
224,252,8363,1,4,0:0:0:0:
224,252,8662,1,6,0:0:0:0:
216,252,8811,1,4,0:0:0:0:
272,172,9110,1,2,0:0:0:0:
392,228,9184,1,2,0:0:0:0:
392,228,9259,1,0,0:0:0:0:
392,228,9408,1,0,0:0:0:0:
392,228,9483,1,0,0:0:0:0:
288,248,9557,1,2,0:0:0:0:
184,120,9707,1,2,0:0:0:0:
168,228,9781,1,0,0:0:0:0:
184,120,9856,1,2,0:0:0:0:
200,288,10005,1,2,0:0:0:0:
112,128,10154,1,0,0:0:0:0:
112,128,10229,1,0,0:0:0:0:
292,144,10304,1,2,0:0:0:0:
292,144,10453,1,0,0:0:0:0:
292,144,10528,1,2,0:0:0:0:
292,144,10602,1,0,0:0:0:0:
344,228,10752,1,2,0:0:0:0:
344,228,10826,1,2,0:0:0:0:
344,228,10901,1,2,0:0:0:0:
344,228,11050,1,0,0:0:0:0:
344,228,11199,1,2,0:0:0:0:
248,184,11349,1,2,0:0:0:0:
208,240,11498,1,0,0:0:0:0:
208,240,11572,1,0,0:0:0:0:
208,240,11647,1,2,0:0:0:0:
272,296,11796,1,2,0:0:0:0:
364,244,11946,1,2,0:0:0:0:
260,184,12095,1,2,0:0:0:0:
260,184,12169,1,2,0:0:0:0:
260,184,12244,1,0,0:0:0:0:
260,184,12393,1,2,0:0:0:0:
260,184,12468,1,0,0:0:0:0:
260,184,12543,1,0,0:0:0:0:
292,304,12692,1,2,0:0:0:0:
292,304,12841,1,0,0:0:0:0:
396,320,12990,1,0,0:0:0:0:
252,216,13140,1,2,0:0:0:0:
252,216,13289,1,0,0:0:0:0:
160,132,13363,1,0,0:0:0:0:
160,132,13438,1,0,0:0:0:0:
252,216,13587,1,0,0:0:0:0:
252,216,13662,1,0,0:0:0:0:
252,216,13736,1,2,0:0:0:0:
252,216,13811,1,2,0:0:0:0:
252,216,13886,1,0,0:0:0:0:
252,216,13960,1,0,0:0:0:0:
252,216,14035,1,2,0:0:0:0:
252,216,14109,1,2,0:0:0:0:
324,204,14184,1,2,0:0:0:0:
324,204,14259,1,2,0:0:0:0:
324,204,14334,1,2,0:0:0:0:
324,204,14408,1,2,0:0:0:0:
324,204,14483,1,0,0:0:0:0:
324,192,14781,1,6,0:0:0:0:
324,192,15080,1,4,0:0:0:0:
324,192,15378,1,6,0:0:0:0:
324,192,15677,1,4,0:0:0:0:
324,192,15975,1,2,0:0:0:0:
324,192,16125,1,0,0:0:0:0:
324,192,16274,1,2,0:0:0:0:
324,192,16349,1,2,0:0:0:0:
324,192,16423,1,0,0:0:0:0:
324,192,16572,1,2,0:0:0:0:
324,192,16722,1,0,0:0:0:0:
288,260,16871,1,0,0:0:0:0:
288,260,16946,1,2,0:0:0:0:
288,260,17020,1,0,0:0:0:0:
288,260,17169,1,2,0:0:0:0:
288,260,17244,1,2,0:0:0:0:
288,260,17319,1,0,0:0:0:0:
208,292,17468,1,0,0:0:0:0:
220,200,17617,1,0,0:0:0:0:
308,144,17766,1,2,0:0:0:0:
384,252,17916,1,4,0:0:0:0:
208,196,18363,1,4,0:0:0:0:
208,196,18811,1,6,0:0:0:0:
192,112,19259,1,2,0:0:0:0:
192,112,19334,1,2,0:0:0:0:
192,112,19408,1,0,0:0:0:0:
224,200,19557,1,0,0:0:0:0:
312,136,19707,1,2,0:0:0:0:
312,136,20005,1,2,0:0:0:0:
312,136,20080,1,2,0:0:0:0:
312,136,20154,1,0,0:0:0:0:
328,216,20304,1,2,0:0:0:0:
256,264,20453,1,2,0:0:0:0:
256,264,20602,1,2,0:0:0:0:
256,264,20752,1,2,0:0:0:0:
256,264,20826,1,0,0:0:0:0:
256,264,20901,1,2,0:0:0:0:
352,200,21050,1,2,0:0:0:0:
372,256,21199,1,0,0:0:0:0:
372,256,21274,1,0,0:0:0:0:
372,256,21349,1,0,0:0:0:0:
372,256,21498,1,2,0:0:0:0:
240,148,21647,1,2,0:0:0:0:
240,148,21722,1,2,0:0:0:0:
240,148,21796,1,0,0:0:0:0:
128,220,21946,1,2,0:0:0:0:
272,284,22095,1,0,0:0:0:0:
128,220,22244,1,2,0:0:0:0:
128,220,22393,1,2,0:0:0:0:
128,220,22543,1,0,0:0:0:0:
128,220,22617,1,0,0:0:0:0:
128,220,22692,1,2,0:0:0:0:
128,220,22841,1,0,0:0:0:0:
128,220,22990,1,2,0:0:0:0:
128,220,23140,1,0,0:0:0:0:
128,220,23289,1,2,0:0:0:0:
280,168,23438,1,2,0:0:0:0:
280,168,23587,1,2,0:0:0:0:
280,168,23737,1,0,0:0:0:0:
280,168,23811,1,0,0:0:0:0:
280,168,23886,1,2,0:0:0:0:
280,168,23960,1,2,0:0:0:0:
280,168,24035,1,2,0:0:0:0:
280,168,24184,1,0,0:0:0:0:
340,228,24334,1,2,0:0:0:0:
172,228,24483,1,2,0:0:0:0:
172,228,24557,1,2,0:0:0:0:
172,228,24632,1,2,0:0:0:0:
172,228,24781,1,0,0:0:0:0:
224,152,24931,1,2,0:0:0:0:
284,256,25080,1,2,0:0:0:0:
284,256,25154,1,2,0:0:0:0:
284,256,25229,1,0,0:0:0:0:
284,256,25304,1,0,0:0:0:0:
284,256,25378,1,2,0:0:0:0:
360,212,25528,1,0,0:0:0:0:
360,212,25677,1,0,0:0:0:0:
224,172,25826,1,0,0:0:0:0:
224,172,25975,1,2,0:0:0:0:
224,172,26125,1,0,0:0:0:0:
224,172,26274,1,2,0:0:0:0:
332,272,26423,1,0,0:0:0:0:
332,272,26498,1,0,0:0:0:0:
332,272,26572,1,0,0:0:0:0:
248,176,26722,1,2,0:0:0:0:
248,176,26796,1,2,0:0:0:0:
248,176,26871,1,2,0:0:0:0:
248,176,26946,1,0,0:0:0:0:
248,176,27020,1,2,0:0:0:0:
400,144,27169,1,2,0:0:0:0:
344,236,27319,1,0,0:0:0:0:
344,236,27393,1,0,0:0:0:0:
344,236,27468,1,0,0:0:0:0:
204,264,27617,1,2,0:0:0:0:
204,264,27692,1,2,0:0:0:0:
204,264,27766,1,2,0:0:0:0:
316,196,27916,1,2,0:0:0:0:
316,196,28065,1,0,0:0:0:0:
288,284,28214,1,0,0:0:0:0:
288,284,28289,1,2,0:0:0:0:
288,284,28363,1,0,0:0:0:0:
288,284,28438,1,2,0:0:0:0:
288,284,28513,1,0,0:0:0:0:
288,284,28587,1,2,0:0:0:0:
288,284,28662,1,2,0:0:0:0:
372,208,28811,1,0,0:0:0:0:
232,168,29110,1,0,0:0:0:0:
232,168,29259,1,0,0:0:0:0:
232,168,29408,1,2,0:0:0:0:
232,168,29557,1,0,0:0:0:0:
284,204,30005,1,2,0:0:0:0:
284,204,30154,1,2,0:0:0:0:
284,204,30304,1,2,0:0:0:0:
192,228,30453,1,2,0:0:0:0:
192,228,30602,1,0,0:0:0:0:
192,228,30752,1,0,0:0:0:0:
192,228,30901,1,2,0:0:0:0:
280,160,31199,1,2,0:0:0:0:
280,160,31274,1,2,0:0:0:0:
280,160,31349,1,2,0:0:0:0:
280,160,31498,1,0,0:0:0:0:
280,160,31647,1,2,0:0:0:0:
280,248,31796,1,0,0:0:0:0:
280,248,31946,1,0,0:0:0:0:
212,264,32095,1,2,0:0:0:0:
232,220,32543,1,2,0:0:0:0:
232,220,32617,1,2,0:0:0:0:
232,220,32692,1,0,0:0:0:0:
368,160,32841,1,2,0:0:0:0:
304,320,32990,1,0,0:0:0:0:
216,132,33140,1,2,0:0:0:0:
168,192,33587,1,0,0:0:0:0:
168,192,33737,1,0,0:0:0:0:
168,192,33886,1,2,0:0:0:0:
168,192,34035,1,0,0:0:0:0:
284,216,34483,1,2,0:0:0:0:
284,216,34632,1,2,0:0:0:0:
168,292,34781,1,0,0:0:0:0:
196,152,34931,1,2,0:0:0:0:
308,304,35080,1,2,0:0:0:0:
308,304,35229,1,2,0:0:0:0:
380,232,35378,1,0,0:0:0:0:
256,156,35528,1,2,0:0:0:0:
336,232,35677,1,2,0:0:0:0:
376,156,35826,1,0,0:0:0:0:
256,192,35975,12,0,38065,0:0:0:0:
320,160,38363,5,0,0:0:0:0:
280,224,38513,5,2,0:0:0:0:
380,172,38662,1,0,0:0:0:0:
240,88,38811,1,2,0:0:0:0:
300,276,38960,1,2,0:0:0:0:
300,276,39035,1,2,0:0:0:0:
300,276,39110,1,0,0:0:0:0:
396,312,39259,1,0,0:0:0:0:
144,208,39408,1,2,0:0:0:0:
144,208,39557,1,0,0:0:0:0:
332,120,39707,1,2,0:0:0:0:
264,232,39856,1,0,0:0:0:0:
264,232,40005,1,2,0:0:0:0:
128,300,40154,1,2,0:0:0:0:
120,164,40304,1,0,0:0:0:0:
120,164,40378,1,2,0:0:0:0:
120,164,40453,1,2,0:0:0:0:
268,120,40602,1,0,0:0:0:0:
368,168,40752,1,2,0:0:0:0:
368,168,40826,1,2,0:0:0:0:
368,168,40901,1,2,0:0:0:0:
256,240,41050,1,0,0:0:0:0:
192,152,41199,1,0,0:0:0:0:
372,272,41349,1,0,0:0:0:0:
372,272,41423,1,0,0:0:0:0:
372,272,41498,1,2,0:0:0:0:
440,180,41647,1,2,0:0:0:0:
256,264,41796,1,0,0:0:0:0:
320,184,42095,1,2,0:0:0:0:
320,184,42169,1,2,0:0:0:0:
320,184,42244,1,2,0:0:0:0:
428,304,42393,1,0,0:0:0:0:
144,232,42543,1,2,0:0:0:0:
144,232,42617,1,0,0:0:0:0:
144,232,42692,1,2,0:0:0:0:
248,184,42766,1,2,0:0:0:0:
240,104,42841,1,0,0:0:0:0:
240,104,42916,1,2,0:0:0:0:
240,104,42990,1,0,0:0:0:0:
316,192,43140,1,2,0:0:0:0:
316,192,43214,1,0,0:0:0:0:
316,192,43289,1,0,0:0:0:0:
384,200,43438,1,0,0:0:0:0:
384,200,43587,1,2,0:0:0:0:
208,136,43737,1,0,0:0:0:0:
208,224,44035,1,2,0:0:0:0:
208,224,44184,1,2,0:0:0:0:
264,288,44334,1,0,0:0:0:0:
264,288,44408,1,0,0:0:0:0:
264,288,44483,1,0,0:0:0:0:
264,288,44632,1,2,0:0:0:0:
264,288,44781,1,2,0:0:0:0:
356,208,44931,1,0,0:0:0:0:
356,208,45080,1,2,0:0:0:0:
184,176,45229,1,0,0:0:0:0:
184,176,45304,1,2,0:0:0:0:
184,176,45378,1,0,0:0:0:0:
232,124,45528,1,2,0:0:0:0:
232,124,45602,1,2,0:0:0:0:
232,124,45677,1,0,0:0:0:0:
276,232,45826,1,2,0:0:0:0:
276,232,45975,1,2,0:0:0:0:
276,232,46125,1,2,0:0:0:0:
380,264,46199,1,0,0:0:0:0:
380,264,46274,1,0,0:0:0:0:
380,264,46423,1,0,0:0:0:0:
308,124,46572,1,0,0:0:0:0:
116,120,46722,1,2,0:0:0:0:
116,120,46871,1,2,0:0:0:0:
116,120,47020,1,0,0:0:0:0:
116,120,47169,1,2,0:0:0:0:
320,128,47319,1,0,0:0:0:0:
320,128,47617,1,0,0:0:0:0:
240,188,47916,1,6,0:0:0:0:
348,180,48214,1,2,0:0:0:0:
348,180,48363,1,0,0:0:0:0:
332,192,48513,1,0,0:0:0:0:
332,144,48811,1,2,0:0:0:0:
332,144,48960,1,0,0:0:0:0:
332,144,49110,1,2,0:0:0:0:
376,200,49408,1,2,0:0:0:0:
376,200,49557,1,2,0:0:0:0:
376,200,49707,1,0,0:0:0:0:
372,192,49781,1,0,0:0:0:0:
372,192,49856,1,0,0:0:0:0:
232,156,50005,1,2,0:0:0:0:
252,224,50154,1,0,0:0:0:0:
288,172,50304,1,2,0:0:0:0:
384,108,50602,1,2,0:0:0:0:
384,108,50752,1,2,0:0:0:0:
384,108,50901,1,0,0:0:0:0:
384,108,50975,1,0,0:0:0:0:
384,108,51050,1,0,0:0:0:0:
340,212,51199,1,2,0:0:0:0:
340,212,51349,1,0,0:0:0:0:
340,212,51498,1,2,0:0:0:0:
224,212,51796,1,2,0:0:0:0:
224,212,51946,1,2,0:0:0:0:
224,212,52095,1,2,0:0:0:0:
224,212,52169,1,0,0:0:0:0:
224,212,52244,1,0,0:0:0:0:
344,224,52393,1,0,0:0:0:0:
344,224,52543,1,2,0:0:0:0:
324,136,52692,1,0,0:0:0:0:
176,116,52990,1,0,0:0:0:0:
176,116,53140,1,2,0:0:0:0:
176,116,53289,1,0,0:0:0:0:
216,224,53438,1,2,0:0:0:0:
216,224,53587,1,2,0:0:0:0:
216,224,53737,1,2,0:0:0:0:
216,224,53811,1,2,0:0:0:0:
216,224,53886,1,2,0:0:0:0:
320,256,54035,1,0,0:0:0:0:
320,256,54184,1,0,0:0:0:0:
424,196,54334,1,0,0:0:0:0:
396,216,54483,1,2,0:0:0:0:
156,128,54781,1,2,0:0:0:0:
156,128,54931,1,2,0:0:0:0:
100,232,55080,1,0,0:0:0:0:
256,224,55378,1,0,0:0:0:0:
256,224,55528,1,2,0:0:0:0:
296,212,55677,1,2,0:0:0:0:
296,212,55826,1,0,0:0:0:0:
296,212,55975,1,2,0:0:0:0:
296,212,56125,1,0,0:0:0:0:
296,212,56274,1,2,0:0:0:0:
296,212,56423,1,0,0:0:0:0:
296,212,56572,1,2,0:0:0:0:
352,212,56722,1,0,0:0:0:0:
352,212,56871,1,2,0:0:0:0:
352,212,57020,1,0,0:0:0:0:
352,212,57169,1,2,0:0:0:0:
352,212,57319,1,0,0:0:0:0:
208,152,57468,1,6,0:0:0:0:
208,152,57617,1,4,0:0:0:0:
208,152,57916,1,6,0:0:0:0:
208,152,58065,1,4,0:0:0:0:
204,160,58214,1,6,0:0:0:0:
320,192,58513,1,6,0:0:0:0:
320,192,58811,1,6,0:0:0:0:
320,192,58960,1,4,0:0:0:0:
224,244,59259,1,2,0:0:0:0:
224,244,59334,1,2,0:0:0:0:
224,244,59408,1,0,0:0:0:0:
168,128,59557,1,0,0:0:0:0:
168,128,59632,1,0,0:0:0:0:
224,244,59707,1,2,0:0:0:0:
296,152,59856,1,2,0:0:0:0:
296,152,59931,1,2,0:0:0:0:
296,152,60005,1,0,0:0:0:0:
296,152,60154,1,0,0:0:0:0:
296,152,60229,1,0,0:0:0:0:
296,152,60304,1,2,0:0:0:0:
296,152,60378,1,2,0:0:0:0:
296,152,60453,1,0,0:0:0:0:
380,224,60602,1,2,0:0:0:0:
208,232,60752,1,0,0:0:0:0:
208,236,60826,1,2,0:0:0:0:
208,232,60901,1,2,0:0:0:0:
240,136,61050,1,2,0:0:0:0:
240,136,61125,1,2,0:0:0:0:
240,136,61199,1,0,0:0:0:0:
240,136,61349,1,2,0:0:0:0:
340,280,61498,1,2,0:0:0:0:
216,276,61647,1,0,0:0:0:0:
216,276,61722,1,0,0:0:0:0:
216,276,61796,1,0,0:0:0:0:
140,180,61946,1,2,0:0:0:0:
96,296,62095,1,0,0:0:0:0:
316,160,62244,1,2,0:0:0:0:
316,160,62319,1,2,0:0:0:0:
316,160,62393,1,0,0:0:0:0:
160,160,62543,1,2,0:0:0:0:
256,292,62692,1,0,0:0:0:0:
256,292,62766,1,2,0:0:0:0:
256,292,62841,1,0,0:0:0:0:
136,216,62990,1,2,0:0:0:0:
136,216,63065,1,2,0:0:0:0:
136,216,63140,1,2,0:0:0:0:
304,208,63289,1,0,0:0:0:0:
304,208,63363,1,0,0:0:0:0:
304,208,63438,1,2,0:0:0:0:
304,208,63513,1,2,0:0:0:0:
304,208,63587,1,0,0:0:0:0:
304,208,63662,1,2,0:0:0:0:
304,208,63737,1,0,0:0:0:0:
124,248,63811,1,0,0:0:0:0:
400,116,63886,1,2,0:0:0:0:
412,208,64035,1,0,0:0:0:0:
260,208,64184,1,0,0:0:0:0:
128,116,64334,1,2,0:0:0:0:
128,116,64408,1,2,0:0:0:0:
128,116,64483,1,2,0:0:0:0:
116,244,64632,1,2,0:0:0:0:
256,280,64931,1,2,0:0:0:0:
208,180,65080,1,0,0:0:0:0:
376,256,65229,1,2,0:0:0:0:
376,256,65304,1,2,0:0:0:0:
376,256,65378,1,0,0:0:0:0:
356,104,65528,1,2,0:0:0:0:
356,104,65677,1,2,0:0:0:0:
356,104,65826,1,2,0:0:0:0:
356,104,65901,1,2,0:0:0:0:
356,104,65975,1,0,0:0:0:0:
180,280,66125,1,0,0:0:0:0:
116,152,66274,1,2,0:0:0:0:
280,240,66423,1,0,0:0:0:0:
280,240,66498,1,0,0:0:0:0:
280,240,66572,1,2,0:0:0:0:
280,240,66647,1,2,0:0:0:0:
280,240,66722,1,0,0:0:0:0:
408,252,66871,1,2,0:0:0:0:
408,156,67020,1,2,0:0:0:0:
156,156,67169,1,2,0:0:0:0:
156,156,67244,1,2,0:0:0:0:
156,156,67319,1,0,0:0:0:0:
156,156,67393,1,2,0:0:0:0:
156,156,67468,1,0,0:0:0:0:
156,156,67543,1,2,0:0:0:0:
156,156,67617,1,2,0:0:0:0:
156,156,67692,1,0,0:0:0:0:
156,156,67766,1,2,0:0:0:0:
268,272,67916,1,2,0:0:0:0:
268,272,68065,1,0,0:0:0:0:
124,272,68214,1,0,0:0:0:0:
124,272,68289,1,2,0:0:0:0:
124,272,68363,1,2,0:0:0:0:
228,144,68513,1,2,0:0:0:0:
228,144,68662,1,0,0:0:0:0:
228,144,68811,1,0,0:0:0:0:
228,144,68886,1,0,0:0:0:0:
228,144,68960,1,2,0:0:0:0:
228,144,69110,1,0,0:0:0:0:
328,212,69259,1,2,0:0:0:0:
136,240,69408,1,2,0:0:0:0:
136,240,69483,1,2,0:0:0:0:
136,240,69557,1,0,0:0:0:0:
276,244,69707,1,0,0:0:0:0:
276,244,69781,1,0,0:0:0:0:
276,244,69856,1,2,0:0:0:0:
396,176,70005,1,2,0:0:0:0:
396,176,70080,1,2,0:0:0:0:
396,176,70154,1,2,0:0:0:0:
396,312,70304,1,0,0:0:0:0:
184,208,70453,1,0,0:0:0:0:
288,108,70602,1,2,0:0:0:0:
288,108,70677,1,2,0:0:0:0:
288,108,70752,1,2,0:0:0:0:
252,308,70901,1,0,0:0:0:0:
136,172,71050,1,2,0:0:0:0:
72,64,71199,1,2,0:0:0:0:
72,64,71274,1,2,0:0:0:0:
72,64,71349,1,0,0:0:0:0:
240,156,71498,1,2,0:0:0:0:
352,220,71647,1,2,0:0:0:0:
116,288,71796,1,0,0:0:0:0:
116,288,71871,1,0,0:0:0:0:
116,288,71946,1,2,0:0:0:0:
272,184,72095,1,2,0:0:0:0:
288,284,72244,1,2,0:0:0:0:
272,184,72393,1,0,0:0:0:0:
272,184,72468,1,0,0:0:0:0:
272,184,72543,1,2,0:0:0:0:
408,268,72692,1,0,0:0:0:0:
192,112,72841,1,2,0:0:0:0:
148,172,73140,1,2,0:0:0:0:
148,172,73289,1,2,0:0:0:0:
148,172,73438,1,0,0:0:0:0:
148,172,73587,1,0,0:0:0:0:
148,172,73737,1,2,0:0:0:0:
148,172,73886,1,0,0:0:0:0:
324,236,74035,1,2,0:0:0:0:
112,312,74184,1,6,0:0:0:0:
228,144,74483,1,4,0:0:0:0:
360,148,74781,1,6,0:0:0:0:
88,284,75080,1,6,0:0:0:0:
288,288,75378,1,4,0:0:0:0:
288,288,75677,1,4,0:0:0:0:
288,288,75975,1,6,0:0:0:0:
160,216,76274,1,4,0:0:0:0:
160,216,76572,1,4,0:0:0:0:
160,216,77020,1,6,0:0:0:0:
160,216,77617,1,6,0:0:0:0:
244,152,78065,1,2,0:0:0:0:
244,152,78513,1,2,0:0:0:0:
312,184,78960,1,2,0:0:0:0:
312,184,79035,1,2,0:0:0:0:
312,184,79110,1,0,0:0:0:0:
208,248,79259,5,0,0:0:0:0:
208,248,79408,1,0,0:0:0:0:
316,224,79707,1,2,0:0:0:0:
316,224,79856,1,2,0:0:0:0:
168,288,80005,1,0,0:0:0:0:
168,288,80080,1,0,0:0:0:0:
168,288,80154,1,2,0:0:0:0:
288,208,80304,1,2,0:0:0:0:
288,208,80453,1,0,0:0:0:0:
168,144,80602,1,2,0:0:0:0:
260,168,80752,1,0,0:0:0:0:
320,264,80901,1,0,0:0:0:0:
320,264,80975,1,0,0:0:0:0:
320,264,81050,1,2,0:0:0:0:
392,176,81199,1,2,0:0:0:0:
412,268,81349,1,2,0:0:0:0:
412,268,81423,1,2,0:0:0:0:
412,268,81498,1,0,0:0:0:0:
156,328,81647,1,2,0:0:0:0:
224,304,81796,1,0,0:0:0:0:
272,240,81946,1,2,0:0:0:0:
180,208,82020,1,0,0:0:0:0:
272,240,82095,1,2,0:0:0:0:
352,160,82244,1,2,0:0:0:0:
352,160,82393,1,0,0:0:0:0:
368,280,82543,1,2,0:0:0:0:
368,280,82692,1,2,0:0:0:0:
368,280,82841,1,0,0:0:0:0:
368,280,82990,1,0,0:0:0:0:
128,240,83140,1,2,0:0:0:0:
128,240,83214,1,2,0:0:0:0:
128,240,83289,1,2,0:0:0:0:
128,240,83438,1,0,0:0:0:0:
244,136,83587,1,2,0:0:0:0:
400,192,83737,1,0,0:0:0:0:
400,192,83811,1,0,0:0:0:0:
400,192,83886,1,2,0:0:0:0:
152,220,84035,1,0,0:0:0:0:
276,116,84184,1,2,0:0:0:0:
400,208,84334,1,2,0:0:0:0:
144,272,84483,1,0,0:0:0:0:
144,272,84557,1,0,0:0:0:0:
144,272,84632,1,0,0:0:0:0:
188,112,84781,1,2,0:0:0:0:
188,112,84856,1,2,0:0:0:0:
188,112,84931,1,2,0:0:0:0:
188,112,85080,1,0,0:0:0:0:
188,112,85229,1,2,0:0:0:0:
308,272,85378,1,0,0:0:0:0:
132,256,85528,1,2,0:0:0:0:
132,256,85602,1,2,0:0:0:0:
132,256,85677,1,0,0:0:0:0:
280,128,85826,1,2,0:0:0:0:
368,216,85975,1,0,0:0:0:0:
368,216,86050,1,0,0:0:0:0:
368,216,86125,1,0,0:0:0:0:
172,188,86274,1,2,0:0:0:0:
172,188,86349,1,2,0:0:0:0:
172,188,86423,1,0,0:0:0:0:
184,308,86572,1,2,0:0:0:0:
312,216,86722,1,0,0:0:0:0:
428,272,86871,1,0,0:0:0:0:
396,120,87020,1,2,0:0:0:0:
144,252,87169,1,2,0:0:0:0:
144,252,87244,1,2,0:0:0:0:
144,252,87319,1,0,0:0:0:0:
144,252,87393,1,0,0:0:0:0:
144,252,87468,1,2,0:0:0:0:
144,252,87543,1,2,0:0:0:0:
144,252,87617,1,0,0:0:0:0:
144,252,87692,1,0,0:0:0:0:
144,252,87766,1,2,0:0:0:0:
304,240,87916,1,2,0:0:0:0:
388,172,88065,1,2,0:0:0:0:
192,116,88214,1,0,0:0:0:0:
192,116,88289,1,0,0:0:0:0:
192,116,88363,1,2,0:0:0:0:
