osu file format v14

[General]
AudioFilename: Paradisus-Paradoxum.mp3
AudioLeadIn: 0
PreviewTime: 59370
Countdown: 0
SampleSet: Soft
StackLeniency: 0.7
Mode: 0
LetterboxInBreaks: 0
WidescreenStoryboard: 0

[Editor]
Bookmarks: 18027,28922,38474,48027,59967,69519,79071,83848,88624,89818,99370,110116,124445,129221,138773,148325,163549,167430,168624,182952,186534,187728,202057,206833,211609
DistanceSpacing: 1.2
BeatDivisor: 4
GridSize: 4
TimelineZoom: 2.1

[Metadata]
Title:Paradisus-Paradoxum
TitleUnicode:Paradisus-Paradoxum
Artist:MYTH & ROID
ArtistUnicode:MYTH & ROID
Creator:Laurier
Version:CrystLer
Source:Re:ゼロから始める異世界生活
Tags:
BeatmapID:1118766
BeatmapSetID:527296

[Difficulty]
HPDrainRate:7
CircleSize:4
OverallDifficulty:7
ApproachRate:9
SliderMultiplier:1.9
SliderTickRate:2

[Events]
//Background and Video events
0,0,"BG.jpg",0,0
//Break Periods
2,90018,96382
//Storyboard Layer 0 (Background)
//Storyboard Layer 1 (Fail)
//Storyboard Layer 2 (Pass)
//Storyboard Layer 3 (Foreground)
//Storyboard Layer 4 (Overlay)
//Storyboard Sound Samples

[TimingPoints]
-928,298.507462686567,4,2,1,50,1,0
266,-200,4,2,1,30,0,0
7430,-100,4,2,1,60,0,0
8325,-100,4,2,1,30,0,0
8474,-125,4,2,1,60,0,0
9221,-166.666666666667,4,2,1,40,0,0
9818,-100,4,2,1,70,0,0
13251,-100,4,2,1,50,0,0
14594,-125,4,2,1,60,0,0
15788,-149.253731343284,4,2,1,60,0,0
16385,-125,4,2,1,60,0,0
16982,-200,4,2,1,60,0,0
18474,-166.666666666667,4,2,1,60,0,0
18848,-166.666666666667,4,2,1,40,0,0
18922,-100,4,2,1,60,0,0
23848,-76.9230769230769,4,2,1,60,0,0
24146,-100,4,2,1,60,0,0
26534,-125,4,2,1,60,0,0
26982,-100,4,2,1,60,0,0
28922,-100,4,2,1,60,0,0
29221,-200,4,2,1,40,0,0
29669,-200,4,2,2,40,0,0
38251,-142.857142857143,4,2,1,60,0,0
38429,-100,4,2,1,60,0,0
42654,-100,4,2,1,40,0,0
43251,-100,4,2,1,60,0,0
47430,-166.666666666667,4,2,1,40,0,0
48027,-100,4,2,1,60,0,0
59071,-125,4,2,1,60,0,0
59370,-166.666666666667,4,2,1,40,0,0
59370,-166.666666666667,4,2,1,60,0,0
59967,-100,4,2,1,70,0,0
64445,-66.6666666666667,4,2,1,60,0,0
64743,-100,4,2,1,60,0,0
68325,-100,4,2,1,40,0,0
68922,-100,4,2,1,50,0,0
71907,-83.3333333333333,4,2,1,60,0,0
73101,-100,4,2,1,60,0,0
74295,-125,4,2,1,60,0,0
76683,-200,4,2,1,60,0,0
78176,-166.666666666667,4,2,1,60,0,0
78624,-100,4,2,1,60,0,0
83251,-100,4,2,1,40,0,0
83848,-100,4,2,1,60,0,0
88624,-142.857142857143,4,2,1,30,0,0
89818,-142.857142857143,4,2,1,60,0,0
91460,-200,4,2,1,60,0,0
99071,-200,4,2,1,5,0,0
99370,-125,4,2,1,60,0,0
107430,-83.3333333333333,4,2,1,60,0,0
108773,-125,4,2,1,60,0,0
109221,-125,4,2,1,60,0,0
109519,-166.666666666667,4,2,1,40,0,0
110116,-100,4,2,1,70,0,0
118474,-100,4,2,1,50,0,0
119669,-100,4,2,1,70,0,0
122057,-83.3333333333333,4,2,1,70,0,0
123549,-100,4,2,1,60,0,0
124146,-100,4,2,1,40,0,0
124445,-125,4,2,1,60,0,0
126833,-200,4,2,1,60,0,0
128325,-166.666666666667,4,2,1,60,0,0
128773,-100,4,2,1,60,0,0
133400,-100,4,2,1,40,0,0
133997,-100,4,2,1,60,0,0
138848,-100,4,2,1,30,0,0
146833,-100,4,2,1,5,0,0
147131,-100,4,2,1,60,0,0
155788,-125,4,2,1,60,0,0
157280,-125,4,2,1,40,0,0
157877,-125,4,2,1,60,0,0
158027,-100,4,2,1,60,0,0
166086,-125,4,2,1,60,0,0
167430,-200,4,2,1,30,0,0
168624,-166.666666666667,4,2,2,40,0,0
175788,-200,4,2,2,40,0,0
177579,-166.666666666667,4,2,2,40,0,0
181609,-200,4,2,2,40,0,0
182355,-142.857142857143,4,2,1,60,0,0
182952,-100,4,2,1,50,0,0
185340,-83.3333333333333,4,2,1,60,0,0
186833,-142.857142857143,4,2,2,40,0,0
187728,-83.3333333333333,4,2,1,70,0,0
191907,-83.3333333333333,4,2,1,40,0,0
192504,-83.3333333333333,4,2,1,70,0,0
196086,-77.5193798449612,4,2,1,70,0,0
196534,-83.3333333333333,4,2,1,70,0,0
200116,-66.6666666666667,4,2,1,70,0,0
200713,-83.3333333333333,4,2,1,70,0,0
202057,-125,4,2,1,60,0,0
204445,-200,4,2,1,60,0,0
206385,-100,4,2,1,60,0,0
215937,-100,4,2,1,40,0,0
216385,-100,4,2,1,60,0,0
220863,-83.3333333333333,4,2,1,60,0,0
221161,-100,4,2,1,60,0,0
226982,-100,4,2,1,60,0,0
227728,-100,4,2,1,5,0,0

[Colours]
Combo1 : 192,192,192
Combo2 : 255,255,255

[HitObjects]
256,192,266,12,0,7131,0:0:0:0:
118,146,7430,5,6,0:0:0:0:
399,192,7579,1,2,0:0:0:0:
118,146,7877,5,2,0:0:0:0:
259,169,8027,1,2,0:0:0:0:
399,192,8176,2,0,L|446:187|493:182,1,95,2|0,0:0|0:0,0:0:0:0:
267,320,8474,6,0,P|265:244|259:168,1,152,6|2,0:0|0:0,0:0:0:0:
130,71,8922,2,0,P|123:107|117:145,1,76,2|0,0:0|0:0,0:0:0:0:
100,256,9221,6,0,L|27:269,1,56.9999982604981
273,81,9519,2,0,L|329:71,1,56.9999982604981
493,182,9818,38,0,B|399:190|399:190|377:235|400:288,1,190,6|8,0:0|0:0,0:0:0:0:
284,355,10266,2,0,P|238:364|194:349,1,95,2|0,0:0|0:0,0:0:0:0:
259,168,10564,1,2,0:0:0:0:
490,294,10713,6,0,L|299:266,1,190,8|2,0:0|0:0,0:0:0:0:
302,266,11161,2,0,P|282:309|284:355,1,95,0|8,0:0|0:0,0:0:0:0:
400,192,11460,2,0,B|418:117|375:58|375:58|327:70,1,190,2|2,0:0|0:0,0:0:0:0:
259,168,11907,2,0,L|154:149,1,95,8|0,0:0|0:0,0:0:0:0:
38,283,12206,38,0,B|22:321|22:321|33:377|91:383,1,142.5,2|0,0:0|0:0,0:0:0:0:
176,373,12504,1,8,0:0:0:0:
259,168,12654,2,0,L|256:73,1,95,2|0,0:0|0:0,0:0:0:0:
117,221,12952,2,0,L|119:315,1,95,2|8,0:0|0:0,0:0:0:0:
302,266,13251,1,2,0:0:0:0:
302,266,13325,1,2,0:0:0:0:
302,266,13400,5,2,0:0:0:0:
173,148,13549,1,2,0:0:0:0:
255,360,13698,1,2,0:0:0:0:
361,187,13848,1,2,0:0:0:0:
116,221,13997,37,2,0:0:0:0:
143,72,14146,1,2,0:0:0:0:
259,168,14295,1,2,0:0:0:0:
39,158,14445,1,2,0:0:0:0:
39,158,14519,1,2,0:0:0:0:
39,158,14594,6,0,B|31:203|12:244|12:244|35:305|123:317,1,228,6|2,0:0|0:0,0:0:0:0:
302,266,15191,1,2,0:0:0:0:
302,266,15788,38,0,L|116:220,1,190.949990967637,6|2,0:0|0:0,0:0:0:0:
256,79,16385,1,2,0:0:0:0:
257,79,16982,6,0,B|301:82|312:44|312:44|352:86|396:53|396:53|442:144|398:212,1,332.5,6|2,0:0|0:0,0:0:0:0:
255,343,18474,38,0,P|185:344|137:295,1,142.499995651245,2|0,0:0|0:0,0:0:0:0:
149,213,18922,6,0,P|192:232|218:271,1,95,6|2,0:0|0:0,0:0:0:0:
46,362,19221,1,8,0:0:0:0:
38,365,19295,1,8,0:0:0:0:
29,368,19370,38,0,L|62:172,1,190,6|8,0:0|0:0,0:0:0:0:
163,31,19818,2,0,B|243:31|243:31|272:80|244:142,1,190,2|2,0:0|0:0,0:0:0:0:
255,343,20266,2,0,L|357:336,1,95,8|0,0:0|0:0,0:0:0:0:
436,122,20564,6,0,L|246:136,1,190,2|8,0:0|0:0,0:0:0:0:
46,276,21012,2,0,B|90:319|155:300|155:300|195:240,1,190,2|2,0:0|0:0,0:0:0:0:
101,98,21460,2,0,L|108:192,1,95,8|0,0:0|0:0,0:0:0:0:
232,379,21758,38,0,L|338:218,1,190,2|8,0:0|0:0,0:0:0:0:
485,330,22206,2,0,P|420:358|352:341,1,142.5,2|0,0:0|0:0,0:0:0:0:
288,297,22504,1,2,0:0:0:0:
436,122,22654,2,0,L|447:216,1,95,8|0,0:0|0:0,0:0:0:0:
288,297,22952,6,0,P|223:269|155:286,1,142.5,2|0,0:0|0:0,0:0:0:0:
91,330,23250,1,8,0:0:0:0:
29,177,23400,2,0,P|120:190|196:136,1,190,2|2,0:0|0:0,0:0:0:0:
328,24,23848,38,0,P|357:33|380:54,1,61.7499971733095,8|0,0:0|0:0,0:0:0:0:
407,146,23997,2,0,L|413:207,1,61.7499971733095
338,303,24146,6,0,L|318:114,1,190,6|8,0:0|0:0,0:0:0:0:
428,303,24594,1,2,0:0:0:0:
428,303,24669,1,0,0:0:0:0:
428,303,24743,2,0,P|413:347|382:383,1,95,0|2,0:0|0:0,0:0:0:0:
91,330,25042,1,8,0:0:0:0:
89,336,25340,38,0,L|201:324,1,95,2|0,0:0|0:0,0:0:0:0:
428,303,25639,1,8,0:0:0:0:
407,146,25788,2,0,B|335:104|335:104|272:118|259:174,1,190,2|2,0:0|0:0,0:0:0:0:
267,368,26236,2,0,L|257:266,1,95,8|0,0:0|0:0,0:0:0:0:
204,221,26460,1,0,0:0:0:0:
204,221,26534,6,0,L|52:209,1,152,2|8,0:0|0:0,0:0:0:0:
0,66,26982,1,2,0:0:0:0:
0,66,27057,1,0,0:0:0:0:
0,66,27131,2,0,L|93:49,1,95,0|2,0:0|0:0,0:0:0:0:
500,129,27430,2,0,L|406:145,1,95,8|0,0:0|0:0,0:0:0:0:
93,49,27728,37,6,0:0:0:0:
406,145,27877,1,2,0:0:0:0:
188,314,28027,1,2,0:0:0:0:
196,267,28101,1,2,0:0:0:0:
204,221,28176,1,2,0:0:0:0:
211,174,28250,1,2,0:0:0:0:
218,125,28325,2,0,P|243:166|257:211,1,95,2|2,0:0|0:0,0:0:0:0:
485,308,28624,1,2,0:0:0:0:
439,297,28698,1,2,0:0:0:0:
392,302,28773,1,2,0:0:0:0:
350,324,28847,1,2,0:0:0:0:
318,359,28922,1,6,0:0:0:0:
46,333,29221,22,0,L|187:313,1,142.5,4|0,0:0|0:0,0:0:0:0:
287,261,29818,1,8,0:0:0:0:
287,261,30116,2,0,L|297:158,1,95
308,60,30564,1,8,0:0:0:0:
308,60,31012,2,0,P|330:70|356:74,1,47.5
457,31,31310,6,0,B|421:43|393:9|393:9|388:62|354:73|354:73|354:158,1,237.5,8|0,0:0|0:0,0:0:0:0:
428,235,32206,2,0,P|449:225|472:221,2,47.5,8|0|0,0:0|0:0|0:0,0:0:0:0:
166,353,32803,2,0,L|65:343,1,95,8|0,0:0|0:0,0:0:0:0:
303,273,33251,2,0,L|202:263,1,95,8|0,0:0|0:0,0:0:0:0:
31,189,33698,38,0,B|-2:139|16:72|16:72|49:88|81:88,1,190,8|0,0:0|0:0,0:0:0:0:
344,137,34594,6,0,P|366:71|329:14,1,142.5,8|0,0:0|0:0,0:0:0:0:
281,83,35191,2,0,P|259:148|296:206,1,142.5,8|0,0:0|0:0,0:0:0:0:
379,213,35788,2,0,L|442:200,1,47.5
498,302,36086,38,0,L|359:332,1,142.5,8|0,0:0|0:0,0:0:0:0:
217,376,36683,2,0,L|78:346,1,142.5
36,249,37280,6,0,L|28:209,1,23.75
38,243,37430,2,0,L|30:203,1,23.75
41,238,37579,2,0,L|33:198,1,23.75
45,234,37728,2,0,L|37:194,1,23.75
47,228,37877,2,0,L|31:127,1,95,4|0,0:0|0:0,0:0:0:0:
61,111,38251,6,0,L|66:143,1,33.2499989852906
243,339,38474,2,0,B|341:360|341:360|374:325|370:277,1,190,6|8,0:0|0:0,0:0:0:0:
230,33,38922,2,0,P|242:127|253:221,1,190,2|2,0:0|0:0,0:0:0:0:
144,362,39370,2,0,P|137:314|131:267,1,95,8|0,0:0|0:0,0:0:0:0:
243,123,39669,6,0,B|341:102|341:102|374:137|370:184,1,190,2|8,0:0|0:0,0:0:0:0:
341,359,40116,1,2,0:0:0:0:
461,165,40266,2,0,P|419:165|368:185,1,95,0|2,0:0|0:0,0:0:0:0:
39,248,40564,2,0,P|83:266|131:267,1,95,8|0,0:0|0:0,0:0:0:0:
463,384,40863,6,0,B|506:340|506:340|503:265|459:278|427:236,1,190,2|8,0:0|0:0,0:0:0:0:
78,38,41310,2,0,B|35:82|35:82|38:157|82:144|114:186,1,190,2|2,0:0|0:0,0:0:0:0:
244,339,41758,2,0,L|256:236,1,95,8|0,0:0|0:0,0:0:0:0:
274,36,42057,5,2,0:0:0:0:
150,98,42206,1,0,0:0:0:0:
344,196,42355,2,0,P|306:167|261:154,1,95,8|0,0:0|0:0,0:0:0:0:
15,287,42654,1,8,0:0:0:0:
27,294,42728,1,8,0:0:0:0:
40,299,42803,1,10,0:0:0:0:
54,302,42877,1,8,0:0:0:0:
68,303,42952,1,8,0:0:0:0:
82,301,43027,1,8,0:0:0:0:
96,298,43101,1,8,0:0:0:0:
109,292,43176,1,8,0:0:0:0:
121,285,43251,6,0,L|149:97,1,190,6|8,0:0|0:0,0:0:0:0:
372,8,43698,6,0,L|344:196,1,190,2|2,0:0|0:0,0:0:0:0:
328,373,44146,2,0,P|373:386|428:388,1,95,8|0,0:0|0:0,0:0:0:0:
254,240,44445,5,2,0:0:0:0:
177,348,44594,1,0,0:0:0:0:
256,118,44743,1,8,0:0:0:0:
480,213,44892,2,0,B|440:291|440:291|398:315|339:277,1,190,2|2,0:0|0:0,0:0:0:0:
343,279,45340,2,0,L|326:376,1,95,8|0,0:0|0:0,0:0:0:0:
111,230,45639,5,2,0:0:0:0:
111,230,45713,1,0,0:0:0:0:
111,230,45788,1,0,0:0:0:0:
254,240,45937,2,0,L|269:146,1,95,2|0,0:0|0:0,0:0:0:0:
387,205,46236,1,2,0:0:0:0:
387,205,46310,1,0,0:0:0:0:
387,205,46385,1,0,0:0:0:0:
155,113,46534,1,8,0:0:0:0:
256,342,46683,1,2,0:0:0:0:
269,146,46833,5,2,0:0:0:0:
111,230,46982,1,2,0:0:0:0:
72,19,47131,2,0,P|51:31|28:36,1,47.5,0|4,0:0|0:0,0:0:0:0:
221,2,47430,6,0,L|228:61,1,56.9999982604981
393,261,47728,2,0,L|387:205,1,56.9999982604981
51,290,48027,6,0,P|114:313|179:280,1,142.5,6|0,0:0|0:0,0:0:0:0:
254,240,48325,2,0,L|269:146,1,95,8|0,0:0|0:0,0:0:0:0:
88,5,48624,2,0,L|105:146,1,142.5,2|0,0:0|0:0,0:0:0:0:
111,230,48922,1,8,0:0:0:0:
190,107,49071,1,0,0:0:0:0:
254,239,49221,6,0,L|110:230,1,142.5,2|0,0:0|0:0,0:0:0:0:
51,290,49519,2,0,P|43:336|54:382,1,95,8|0,0:0|0:0,0:0:0:0:
255,349,49818,2,0,L|397:340,1,142.5,2|0,0:0|0:0,0:0:0:0:
397,340,50116,2,0,P|411:295|408:248,1,95,8|0,0:0|0:0,0:0:0:0:
322,122,50415,5,2,0:0:0:0:
254,239,50564,1,0,0:0:0:0:
306,19,50713,2,0,P|351:31|396:48,1,95,8|0,0:0|0:0,0:0:0:0:
190,107,51012,2,0,B|84:117|84:117|104:146,1,142.5,2|0,0:0|0:0,0:0:0:0:
179,236,51310,2,0,L|162:336,1,95,8|0,0:0|0:0,0:0:0:0:
87,335,51534,1,0,0:0:0:0:
87,335,51609,6,0,L|104:140,1,190,2|8,0:0|0:0,0:0:0:0:
0,231,52057,1,2,0:0:0:0:
192,340,52206,1,2,0:0:0:0:
214,346,52280,1,2,0:0:0:0:
237,352,52355,1,2,0:0:0:0:
260,359,52429,1,2,0:0:0:0:
279,349,52504,1,10,0:0:0:0:
294,330,52579,1,2,0:0:0:0:
303,309,52653,1,2,0:0:0:0:
307,285,52728,1,2,0:0:0:0:
306,262,52803,6,0,B|350:242|350:242|414:253|441:284,1,142.5,6|0,0:0|0:0,0:0:0:0:
496,227,53101,2,0,L|491:132,1,95,8|0,0:0|0:0,0:0:0:0:
356,0,53400,2,0,L|361:142,1,142.5,2|0,0:0|0:0,0:0:0:0:
361,142,53698,2,0,P|316:154|269:146,1,95,8|0,0:0|0:0,0:0:0:0:
3,48,53997,6,0,P|72:38|133:72,1,142.5,2|0,0:0|0:0,0:0:0:0:
194,126,54295,1,8,0:0:0:0:
47,301,54445,1,0,0:0:0:0:
59,124,54594,2,0,P|64:172|66:219,1,95,2|0,0:0|0:0,0:0:0:0:
179,376,54892,2,0,P|217:347|257:322,1,95,8|0,2:0|2:0,2:0:0:0:
465,364,55191,5,6,0:0:0:0:
331,192,55340,1,2,0:0:0:0:
257,322,55489,1,2,0:0:0:0:
423,229,55639,1,2,0:0:0:0:
184,220,55788,2,0,L|193:126,1,95,2|2,0:0|0:0,0:0:0:0:
331,192,56086,1,2,0:0:0:0:
59,124,56236,1,2,0:0:0:0:
256,50,56385,5,2,0:0:0:0:
257,322,56534,1,2,0:0:0:0:
257,322,56609,1,2,0:0:0:0:
257,322,56683,2,0,L|299:300,1,47.5,2|2,0:0|0:0,0:0:0:0:
464,99,56833,2,0,L|421:120,1,47.5,2|2,0:0|0:0,0:0:0:0:
183,219,56982,1,2,0:0:0:0:
376,356,57131,1,2,0:0:0:0:
341,97,57280,2,0,L|331:192,1,95,2|2,0:0|0:0,0:0:0:0:
128,301,57579,5,6,0:0:0:0:
449,208,57728,1,6,0:0:0:0:
449,208,58027,1,6,0:0:0:0:
183,62,58176,1,6,0:0:0:0:
257,322,58325,1,6,0:0:0:0:
183,62,58624,6,0,L|256:237,1,190,6|2,0:0|0:0,0:0:0:0:
257,322,59071,6,0,L|213:216,1,114,2|0,0:0|0:0,0:0:0:0:
112,200,59370,6,0,L|57:216,1,56.9999982604981
350,353,59669,2,0,L|404:336,1,56.9999982604981
453,21,59967,6,0,B|355:12|355:12|321:52|340:97,1,190,6|8,0:0|0:0,0:0:0:0:
439,254,60415,2,0,P|450:207|455:160,1,95,2|0,0:0|0:0,0:0:0:0:
358,17,60713,1,2,0:0:0:0:
301,214,60863,6,0,P|206:208|111:199,1,190,8|2,0:0|0:0,0:0:0:0:
111,199,61310,2,0,P|103:152|113:106,1,95,0|8,0:0|0:0,0:0:0:0:
245,369,61609,6,0,P|315:361|386:358,1,142.5,2|0,0:0|0:0,0:0:0:0:
468,329,61907,2,0,B|471:289|453:251|453:251|438:253,1,95,2|8,0:0|0:0,0:0:0:0:
318,363,62206,1,0,0:0:0:0:
501,317,62355,6,0,P|489:248|433:207,1,142.5,2|0,0:0|0:0,0:0:0:0:
363,239,62654,1,8,0:0:0:0:
122,293,62803,2,0,L|111:199,1,95,2|0,0:0|0:0,0:0:0:0:
260,24,63101,2,0,L|249:118,1,95,2|8,0:0|0:0,0:0:0:0:
225,347,63400,1,0,0:0:0:0:
225,347,63474,1,0,0:0:0:0:
225,347,63549,6,0,P|279:351|327:367,1,95,2|0,0:0|0:0,0:0:0:0:
122,293,63848,1,8,0:0:0:0:
256,157,63997,1,0,0:0:0:0:
32,51,64146,1,2,0:0:0:0:
32,51,64221,1,2,0:0:0:0:
32,51,64295,1,2,0:0:0:0:
32,51,64370,1,2,0:0:0:0:
31,51,64445,6,0,P|66:44|101:50,1,71.2500027179719,2|0,0:0|0:0,0:0:0:0:
256,157,64594,2,0,P|286:139|311:114,1,71.2500027179719,2|0,0:0|0:0,0:0:0:0:
407,30,64743,2,0,L|417:179,1,142.5,6|0,0:0|0:0,0:0:0:0:
426,253,65042,1,8,0:0:0:0:
324,345,65191,2,0,B|257:361|257:361|202:321|224:253,1,190,2|2,0:0|0:0,0:0:0:0:
505,296,65639,2,0,P|468:326|423:339,1,95,8|0,0:0|0:0,0:0:0:0:
101,210,65937,6,0,P|170:208|223:253,1,142.5,2|0,0:0|0:0,0:0:0:0:
233,336,66236,1,8,0:0:0:0:
52,282,66385,2,0,P|18:197|74:126,1,190,2|2,0:0|0:0,0:0:0:0:
322,41,66833,2,0,L|180:26,1,142.5,8|0,0:0|0:0,0:0:0:0:
97,52,67131,5,2,0:0:0:0:
312,190,67280,1,0,0:0:0:0:
150,384,67430,2,0,L|142:279,1,95,8|0,0:0|0:0,0:0:0:0:
411,136,67728,2,0,L|418:230,1,95,2|0,0:0|0:0,0:0:0:0:
101,210,68027,1,8,0:0:0:0:
101,210,68101,1,0,0:0:0:0:
101,210,68176,1,0,0:0:0:0:
311,189,68325,5,2,0:0:0:0:
335,188,68399,1,2,0:0:0:0:
358,182,68474,1,2,0:0:0:0:
379,170,68548,1,2,0:0:0:0:
397,155,68623,1,2,0:0:0:0:
411,136,68698,1,2,0:0:0:0:
421,115,68772,1,2,0:0:0:0:
427,92,68847,1,2,0:0:0:0:
404,100,68922,5,10,0:0:0:0:
372,122,68996,1,2,0:0:0:0:
348,151,69071,1,2,0:0:0:0:
335,188,69145,1,2,0:0:0:0:
333,226,69220,1,2,0:0:0:0:
342,263,69295,1,2,0:0:0:0:
364,296,69369,1,2,0:0:0:0:
395,320,69444,1,2,0:0:0:0:
432,334,69519,6,0,L|536:316,1,95,6|0,0:0|0:0,0:0:0:0:
457,233,69818,1,8,0:0:0:0:
184,243,69967,2,0,P|98:210|23:261,1,190,2|2,0:0|0:0,0:0:0:0:
23,261,70415,2,0,L|29:356,1,95,8|0,0:0|0:0,0:0:0:0:
218,311,70713,6,0,B|182:242|182:242|193:179|255:166,1,190,2|8,0:0|0:0,0:0:0:0:
497,86,71161,2,0,P|405:97|333:39,1,190,2|2,0:0|0:0,0:0:0:0:
128,16,71609,2,0,L|134:110,1,95,8|0,0:0|0:0,0:0:0:0:
388,326,71907,6,0,L|217:310,1,170.999994781494,6|0,0:0|0:0,0:0:0:0:
143,355,72206,1,8,0:0:0:0:
74,171,72355,2,0,P|126:192|181:182,1,113.999996520996,2|0,0:0|0:0,0:0:0:0:
386,209,72654,2,0,L|402:94,1,113.999996520996,2|8,0:0|0:0,0:0:0:0:
371,16,72877,1,8,0:0:0:0:
371,16,72952,1,8,0:0:0:0:
486,171,73101,5,2,0:0:0:0:
288,147,73251,1,2,0:0:0:0:
486,171,73400,2,0,L|472:265,1,95,8|0,0:0|0:0,0:0:0:0:
270,266,73698,1,8,0:0:0:0:
258,250,73773,1,0,0:0:0:0:
246,234,73848,1,0,0:0:0:0:
343,358,73997,1,8,0:0:0:0:
397,109,74146,1,0,0:0:0:0:
73,194,74295,6,0,B|152:147|152:147|222:157|245:234,1,228,6|2,0:0|0:0,0:0:0:0:
115,343,74892,1,2,0:0:0:0:
115,343,75489,6,0,L|343:358,1,228,6|2,0:0|0:0,0:0:0:0:
480,240,76086,1,2,0:0:0:0:
479,239,76683,2,0,B|448:202|476:150|476:150|429:143|446:78|446:78|356:77|326:144,1,332.5,6|2,0:0|0:0,0:0:0:0:
10,191,78176,6,0,P|64:206|118:190,1,113.999996520996,2|0,0:0|0:0,0:0:0:0:
156,113,78624,6,0,P|108:109|63:127,1,95,8|0,0:0|0:0,0:0:0:0:
143,294,78922,1,8,0:0:0:0:
143,294,78997,1,8,0:0:0:0:
143,294,79071,6,0,B|223:273|279:330|279:330|261:367,1,190,6|8,0:0|0:0,0:0:0:0:
3,284,79519,2,0,P|0:235|9:189,1,95,2|0,0:0|0:0,0:0:0:0:
156,113,79818,1,2,0:0:0:0:
331,193,79967,2,0,L|424:174,1,95,8|0,0:0|0:0,0:0:0:0:
468,351,80266,6,0,P|373:340|279:331,1,190,2|8,0:0|0:0,0:0:0:0:
51,193,80713,2,0,B|47:128|89:86|89:86|121:112|156:113,1,190,2|2,0:0|0:0,0:0:0:0:
423,173,81161,2,0,P|425:126|411:81,1,95,8|0,0:0|0:0,0:0:0:0:
265,250,81460,6,0,P|195:238|131:266,1,142.5,2|0,0:0|0:0,0:0:0:0:
69,320,81758,1,8,0:0:0:0:
21,130,81907,2,0,P|90:141|154:113,1,142.5,2|0,0:0|0:0,0:0:0:0:
222,57,82205,1,2,0:0:0:0:
264,250,82355,2,0,L|255:362,1,95,8|0,0:0|0:0,0:0:0:0:
69,320,82654,5,6,0:0:0:0:
363,305,82803,1,0,0:0:0:0:
155,112,82952,1,8,0:0:0:0:
346,12,83101,1,2,0:0:0:0:
264,250,83251,1,8,0:0:0:0:
236,255,83325,1,8,0:0:0:0:
209,266,83400,1,8,0:0:0:0:
186,282,83474,1,8,0:0:0:0:
168,302,83549,1,8,0:0:0:0:
155,278,83624,1,8,0:0:0:0:
138,255,83698,1,8,0:0:0:0:
116,237,83773,1,8,0:0:0:0:
90,226,83848,6,0,P|43:228|2:252,1,95,6|0,0:0|0:0,0:0:0:0:
265,350,84146,1,8,0:0:0:0:
155,112,84295,2,0,L|168:301,1,190,2|2,0:0|0:0,0:0:0:0:
370,348,84743,2,0,P|419:340|465:335,1,95,8|0,0:0|0:0,0:0:0:0:
481,140,85042,6,2,P|389:150|291:158,1,190,2|8,0:0|0:0,0:0:0:0:
71,63,85489,2,0,B|126:54|153:24|153:24|189:64|154:112,1,190,2|2,0:0|0:0,0:0:0:0:
27,326,85937,2,0,P|96:312|167:301,1,142.5,8|0,0:0|0:0,0:0:0:0:
255,314,86236,5,2,0:0:0:0:
154,111,86385,1,0,0:0:0:0:
76,213,86534,1,8,0:0:0:0:
263,186,86683,2,0,P|169:202|75:212,1,190,2|2,0:0|0:0,0:0:0:0:
255,313,87131,2,0,P|302:317|349:324,1,95,8|0,0:0|0:0,0:0:0:0:
478,143,87430,5,2,0:0:0:0:
375,224,87579,1,2,0:0:0:0:
375,224,87654,1,2,0:0:0:0:
375,224,87728,1,8,0:0:0:0:
410,41,87877,1,2,0:0:0:0:
478,268,88027,1,2,0:0:0:0:
261,186,88176,1,2,0:0:0:0:
410,364,88325,1,2,0:0:0:0:
410,364,88400,1,2,0:0:0:0:
410,364,88474,1,2,0:0:0:0:
410,364,88549,1,2,0:0:0:0:
410,364,88624,6,0,B|455:256|455:256|470:204|449:136|365:117|313:168|313:168|313:40|417:40,1,531.999983764649,0|4,0:0|0:0,0:0:0:0:
256,192,96982,12,0,99071,0:0:0:0:
422,151,99370,6,0,P|330:137|255:191,1,190,6|0,0:0|0:0,0:0:0:0:
226,266,99818,1,2,0:0:0:0:
125,157,99967,2,0,B|124:115|151:88|151:88|122:67|128:60,1,114,2|0,0:0|0:0,0:0:0:0:
162,35,100266,2,0,L|11:53,1,152,2|2,0:0|0:0,0:0:0:0:
75,284,100713,6,0,L|225:265,1,152,2|2,0:0|0:0,0:0:0:0:
432,250,101161,2,0,P|439:305|415:356,1,114,2|0,0:0|0:0,0:0:0:0:
333,363,101460,2,0,P|339:324|364:294,1,76,2|0,0:0|0:0,0:0:0:0:
489,32,101758,6,0,P|421:61|347:45,1,152,2|0,0:0|0:0,0:0:0:0:
252,115,102206,2,0,P|183:85|109:101,1,152,2|0,0:0|0:0,0:0:0:0:
4,193,102654,1,2,0:0:0:0:
4,193,102952,5,2,0:0:0:0:
78,329,103101,1,2,0:0:0:0:
78,329,103400,5,2,0:0:0:0:
179,173,103549,1,2,0:0:0:0:
179,173,103848,5,2,0:0:0:0:
295,358,103997,1,2,0:0:0:0:
459,192,104146,6,0,P|421:185|383:188,1,76,6|0,0:0|0:0,0:0:0:0:
259,1,104445,2,0,P|252:38|255:76,1,76,8|0,0:0|0:0,0:0:0:0:
53,192,104743,2,0,P|90:198|128:195,1,76,2|0,0:0|0:0,0:0:0:0:
253,383,105042,2,0,P|259:345|256:307,1,76,8|0,0:0|0:0,0:0:0:0:
212,150,105340,5,2,0:0:0:0:
167,282,105489,1,2,0:0:0:0:
350,191,105639,1,2,0:0:0:0:
179,79,105788,1,2,0:0:0:0:
182,294,105937,1,2,0:0:0:0:
348,176,106087,1,2,0:0:0:0:
162,92,106236,1,2,0:0:0:0:
199,305,106385,1,2,0:0:0:0:
401,275,106534,5,2,0:0:0:0:
414,261,106608,1,2,0:0:0:0:
427,247,106683,1,2,0:0:0:0:
440,233,106757,1,2,0:0:0:0:
453,219,106832,1,2,0:0:0:0:
465,205,106907,1,2,0:0:0:0:
477,190,106981,1,2,0:0:0:0:
472,172,107056,1,2,0:0:0:0:
465,154,107131,1,2,0:0:0:0:
456,138,107205,1,2,0:0:0:0:
444,123,107280,1,2,0:0:0:0:
430,110,107354,1,2,0:0:0:0:
415,99,107430,6,0,L|354:89,1,56.9999982604981,2|0,0:0|0:0,0:0:0:0:
257,71,107579,2,0,L|195:60,1,56.9999982604981,2|0,0:0|0:0,0:0:0:0:
98,50,107728,5,6,0:0:0:0:
199,305,107877,1,6,0:0:0:0:
199,305,108176,1,6,0:0:0:0:
348,176,108325,1,6,0:0:0:0:
102,230,108474,1,6,0:0:0:0:
348,176,108773,6,0,L|149:193,1,190,6|0,0:0|0:0,0:0:0:0:
102,230,109221,6,0,L|223:220,1,114,2|0,0:0|0:0,0:0:0:0:
286,276,109519,2,0,P|288:304|287:332,1,56.9999982604981
183,109,109818,2,0,P|180:80|181:52,1,56.9999982604981
428,96,110116,6,0,B|441:124|481:157|481:157|475:207|420:244,1,190,6|8,0:0|0:0,0:0:0:0:
249,369,110564,2,0,P|217:348|189:294,1,95,2|0,0:0|0:0,0:0:0:0:
348,176,110863,1,2,0:0:0:0:
438,350,111012,6,0,L|248:368,1,190,8|2,0:0|0:0,0:0:0:0:
78,288,111460,2,0,L|105:192,1,95,0|8,0:0|0:0,0:0:0:0:
286,2,111758,2,0,P|300:70|269:133,1,142.5,2|0,0:0|0:0,0:0:0:0:
204,175,112057,1,2,0:0:0:0:
310,273,112206,2,0,L|413:262,1,95,8|0,0:0|0:0,0:0:0:0:
490,53,112504,6,0,L|301:75,1,190,2|8,0:0|0:0,0:0:0:0:
10,79,112952,2,0,P|-3:147|25:211,1,142.5,2|0,0:0|0:0,0:0:0:0:
78,288,113251,2,0,L|181:277,1,95,2|8,0:0|0:0,0:0:0:0:
423,260,113549,1,0,0:0:0:0:
301,75,113698,6,0,B|238:144|238:144|252:197|294:219,1,190,2|8,0:0|0:0,0:0:0:0:
17,356,114146,2,0,B|80:287|80:287|66:234|23:211,1,190,2|2,0:0|0:0,0:0:0:0:
111,41,114594,2,0,P|157:55|204:50,1,95,8|0,0:0|0:0,0:0:0:0:
467,170,114892,6,0,P|396:171|339:211,1,142.5,6|0,0:0|0:0,0:0:0:0:
315,285,115191,1,8,0:0:0:0:
129,231,115340,2,0,L|111:41,1,190,0|2,0:0|0:0,0:0:0:0:
315,285,115788,2,0,L|303:379,1,95,8|0,0:0|0:0,0:0:0:0:
297,124,116086,6,0,L|309:30,1,95,2|0,0:0|0:0,0:0:0:0:
309,30,116385,1,8,0:0:0:0:
111,41,116534,2,0,B|47:24|47:24|-9:59|9:140,1,190,2|2,0:0|0:0,0:0:0:0:
124,327,116982,2,0,P|169:314|206:285,1,95,8|0,0:0|0:0,0:0:0:0:
298,124,117280,5,2,0:0:0:0:
397,300,117430,1,0,0:0:0:0:
129,231,117579,2,0,L|120:133,1,95,8|0,0:0|0:0,0:0:0:0:
394,250,117877,2,0,L|403:348,1,95,2|0,0:0|0:0,0:0:0:0:
256,224,118176,1,8,0:0:0:0:
256,224,118251,1,0,0:0:0:0:
256,224,118325,1,0,0:0:0:0:
461,100,118474,5,2,0:0:0:0:
326,27,118624,1,2,0:0:0:0:
391,213,118773,1,2,0:0:0:0:
461,62,118922,1,2,0:0:0:0:
397,300,119071,1,2,0:0:0:0:
310,149,119221,1,2,0:0:0:0:
310,149,119295,1,2,0:0:0:0:
310,149,119370,1,2,0:0:0:0:
488,305,119519,1,2,0:0:0:0:
488,305,119594,1,2,0:0:0:0:
488,305,119669,6,0,L|287:292,1,190,6|8,0:0|0:0,0:0:0:0:
50,285,120116,2,0,P|33:330|35:377,1,95,2|0,0:0|0:0,0:0:0:0:
194,346,120415,1,2,0:0:0:0:
119,145,120564,2,0,P|74:128|27:130,1,95,8|0,0:0|0:0,0:0:0:0:
211,234,120863,6,0,B|268:259|268:259|330:219|309:148,1,190,2|8,0:0|0:0,0:0:0:0:
202,44,121310,2,0,L|210:233,1,190,2|2,0:0|0:0,0:0:0:0:
339,313,121758,2,0,P|368:276|388:233,1,95,8|0,0:0|0:0,0:0:0:0:
364,45,122057,6,0,P|283:20|201:43,1,170.999994781494,6|0,0:0|0:0,0:0:0:0:
125,93,122355,1,8,0:0:0:0:
51,285,122504,2,0,P|106:294|162:284,1,113.999996520996,2|0,0:0|0:0,0:0:0:0:
425,368,122803,2,0,P|434:312|424:256,1,113.999996520996,2|8,0:0|0:0,0:0:0:0:
372,188,123027,1,8,0:0:0:0:
372,188,123101,1,0,0:0:0:0:
257,316,123251,5,2,0:0:0:0:
365,44,123400,1,2,0:0:0:0:
464,167,123549,2,0,L|369:188,1,95,8|0,0:0|0:0,0:0:0:0:
32,113,123848,2,0,L|124:92,1,95,2|0,0:0|0:0,0:0:0:0:
245,221,124146,1,8,0:0:0:0:
248,245,124220,1,8,0:0:0:0:
251,268,124295,1,8,0:0:0:0:
254,292,124369,1,8,0:0:0:0:
257,316,124445,6,0,B|245:221|245:221|192:269|125:264,1,228,6|2,0:0|0:0,0:1:0:0:
32,113,125042,1,2,0:0:0:0:
32,112,125639,6,0,B|77:46|77:46|150:72|152:161,1,228,6|2,0:0|0:0,0:0:0:0:
52,318,126236,1,2,0:0:0:0:
52,318,126833,6,0,B|85:343|99:375|99:375|135:340|176:368|176:368|191:320|191:320|256:311|256:228,1,332.5,6|2,0:0|0:0,0:0:0:0:
254,32,128325,6,0,P|322:13|386:40,1,142.499995651245,8|0,0:0|0:0,0:0:0:0:
408,127,128773,6,0,P|361:125|320:101,1,95,8|0,0:0|0:0,0:0:0:0:
119,39,129071,1,8,0:0:0:0:
119,39,129146,1,8,0:0:0:0:
119,39,129221,6,0,B|89:73|41:73|41:73|35:137|79:161,1,190,6|8,0:0|0:0,0:0:0:0:
393,345,129669,2,0,B|423:311|471:311|471:311|477:247|432:222,1,190,2|2,0:0|0:0,0:0:0:0:
256,115,130116,2,0,L|257:213,1,95,8|0,0:0|0:0,0:0:0:0:
52,336,130415,6,0,P|143:354|220:302,1,190,2|8,0:0|0:0,0:0:0:0:
349,142,130863,2,0,L|348:47,1,95,2|0,0:0|0:0,0:0:0:0:
161,111,131161,1,2,0:0:0:0:
292,246,131310,2,0,L|432:222,1,142.5,8|0,0:0|0:0,0:0:0:0:
488,168,131609,5,2,0:0:0:0:
393,345,131758,1,0,0:0:0:0:
348,47,131907,1,8,0:0:0:0:
488,168,132057,2,0,L|347:191,1,142.5,2|0,0:0|0:0,0:0:0:0:
292,246,132355,1,2,0:0:0:0:
392,345,132504,2,0,P|419:306|434:261,1,95,8|0,0:0|0:0,0:0:0:0:
257,128,132803,5,2,0:0:0:0:
178,298,132952,1,0,0:0:0:0:
347,191,133101,1,8,0:0:0:0:
168,96,133251,1,2,0:0:0:0:
254,365,133400,1,8,0:0:0:0:
271,326,133474,1,8,0:0:0:0:
272,283,133549,1,8,0:0:0:0:
259,242,133623,1,8,0:0:0:0:
227,212,133698,1,8,0:0:0:0:
185,201,133773,1,8,0:0:0:0:
183,158,133847,1,8,0:0:0:0:
214,129,133922,1,8,0:0:0:0:
256,128,133997,6,0,P|257:80|239:37,1,95,6|0,0:0|0:0,0:0:0:0:
70,114,134295,1,8,0:0:0:0:
1,325,134445,2,0,P|93:339|177:297,1,190,2|2,0:0|0:0,0:0:0:0:
347,191,134892,2,0,P|392:202|431:230,1,95,8|0,0:0|0:0,0:0:0:0:
479,291,135116,1,0,0:0:0:0:
479,291,135191,5,2,0:0:0:0:
272,283,135340,1,0,0:0:0:0:
437,133,135489,1,8,0:0:0:0:
312,364,135639,2,0,B|216:377|216:377|172:340|176:296,1,190,2|2,0:0|0:0,0:0:0:0:
280,0,136086,2,0,P|292:68|257:128,1,142.5,8|0,0:0|0:0,0:0:0:0:
183,158,136385,5,2,0:0:0:0:
96,57,136534,1,0,0:0:0:0:
176,296,136683,1,8,0:0:0:0:
2,72,136833,2,0,B|97:58|97:58|70:104|88:155,1,190,2|2,0:0|0:0,0:0:0:0:
82,309,137280,2,0,P|128:299|175:295,1,95,8|0,0:0|0:0,0:0:0:0:
450,328,137579,5,2,0:0:0:0:
456,335,137654,1,2,0:0:0:0:
462,341,137728,1,2,0:0:0:0:
402,171,137877,1,8,0:0:0:0:
322,290,138027,1,2,0:0:0:0:
322,290,138101,1,2,0:0:0:0:
322,290,138176,1,2,0:0:0:0:
257,115,138325,1,2,0:0:0:0:
474,180,138474,2,0,P|403:169|333:179,1,142.5,2|2,0:0|0:0,0:0:0:0:
256,217,138773,5,6,0:0:0:0:
256,192,138848,12,0,146833,0:0:0:0:
141,231,147131,6,0,P|95:242|56:270,1,95,2|0,0:0|0:0,0:0:0:0:
141,332,147430,1,2,0:0:0:0:
141,332,147504,1,2,0:0:0:0:
141,332,147579,1,2,0:0:0:0:
339,154,147728,2,0,P|300:181|254:193,1,95,2|0,0:0|0:0,0:0:0:0:
254,92,148027,5,2,0:0:0:0:
254,92,148102,1,2,0:0:0:0:
254,92,148176,1,2,0:0:0:0:
283,287,148325,5,6,0:0:0:0:
428,196,148474,2,0,P|431:148|418:103,1,95,0|8,0:0|0:0,0:0:0:0:
265,0,148773,2,0,P|197:19|159:77,1,142.5,2|0,0:0|0:0,0:0:0:0:
191,157,149071,1,2,0:0:0:0:
283,287,149221,2,0,L|188:297,1,95,8|0,0:0|0:0,0:0:0:0:
26,218,149519,5,2,0:0:0:0:
283,287,149669,1,0,0:0:0:0:
102,79,149818,1,8,0:0:0:0:
121,358,149967,2,0,L|107:161,1,190,2|2,0:0|0:0,0:0:0:0:
363,33,150415,2,0,L|369:127,1,95,8|0,0:0|0:0,0:0:0:0:
382,361,150713,5,2,0:0:0:0:
366,243,150863,2,0,P|321:259|282:287,1,95,0|8,0:0|0:0,0:0:0:0:
492,322,151161,2,0,B|521:243|521:243|499:191|438:186,1,190,2|2,0:0|0:0,0:0:0:0:
282,287,151609,2,0,P|237:271|198:243,1,95,8|0,0:0|0:0,0:0:0:0:
257,83,151907,5,2,0:0:0:0:
257,83,152057,1,0,0:0:0:0:
160,333,152206,1,8,0:0:0:0:
62,191,152355,1,2,0:0:0:0:
62,191,153101,5,6,0:0:0:0:
257,83,153251,2,0,L|245:192,1,95,2|8,0:0|0:0,0:0:0:0:
72,336,153549,2,0,B|69:286|16:263|16:263|14:206|64:189,1,190,2|2,0:0|0:0,0:0:0:0:
296,38,153997,2,0,L|285:132,1,95,8|0,0:0|0:0,0:0:0:0:
243,315,154295,6,0,P|290:308|339:304,1,95,2|0,0:0|0:0,0:0:0:0:
506,332,154594,1,8,0:0:0:0:
475,143,154743,2,0,L|380:137|285:131,1,190,2|2,0:0|0:0,0:0:0:0:
85,82,155191,1,8,0:0:0:0:
85,82,155489,5,6,0:0:0:0:
85,82,155788,1,8,0:0:0:0:
41,170,155937,2,0,P|115:168|170:118,1,152,2|2,0:0|0:0,0:0:0:0:
170,118,156385,2,0,L|171:37,1,76,8|0,0:0|0:0,0:0:0:0:
61,262,156683,6,0,L|60:337,1,76,2|0,0:0|0:0,0:0:0:0:
256,230,156982,2,0,L|256:154,1,76,8|0,0:0|0:0,0:0:0:0:
402,29,157280,1,2,0:0:0:0:
424,29,157354,1,2,0:0:0:0:
447,30,157429,1,2,0:0:0:0:
470,31,157503,1,2,0:0:0:0:
479,48,157578,1,2,0:0:0:0:
479,71,157653,1,2,0:0:0:0:
475,94,157727,1,2,0:0:0:0:
466,114,157802,1,2,0:0:0:0:
451,131,157877,5,6,0:0:0:0:
373,269,158027,2,0,L|466:254,1,95,2|8,0:0|0:0,0:0:0:0:
163,331,158325,2,0,L|347:378,1,190,2|2,0:0|0:0,0:0:0:0:
61,262,158773,2,0,L|154:247,1,95,8|0,0:0|0:0,0:0:0:0:
314,192,159071,6,0,P|335:126|304:64,1,142.5,2|0,0:0|0:0,0:0:0:0:
276,47,159370,1,8,0:0:0:0:
79,157,159519,2,0,L|219:136,1,142.5,2|0,0:0|0:0,0:0:0:0:
252,131,159818,1,2,0:0:0:0:
255,355,159967,1,8,0:0:0:0:
255,355,160266,5,6,0:0:0:0:
462,277,160415,2,0,P|414:274|368:285,1,95,2|8,0:0|0:0,0:0:0:0:
141,359,160713,2,0,B|213:379|256:354|256:354|238:284,1,190,2|2,0:0|0:0,0:0:0:0:
184,58,161161,2,0,P|164:101|155:147,1,95,8|0,0:0|0:0,0:0:0:0:
238,284,161460,5,2,0:0:0:0:
323,195,161609,1,0,0:0:0:0:
392,363,161758,1,8,0:0:0:0:
228,197,161907,2,0,P|322:198|417:190,1,190,2|2,0:0|0:0,0:0:0:0:
458,43,162355,2,0,P|410:42|363:50,1,95,8|0,0:0|0:0,0:0:0:0:
184,58,162654,5,2,0:0:0:0:
154,73,162728,1,2,0:0:0:0:
121,78,162803,1,2,0:0:0:0:
89,72,162877,1,2,0:0:0:0:
78,66,162952,1,2,0:0:0:0:
78,66,163027,1,2,0:0:0:0:
78,66,163101,1,2,0:0:0:0:
78,66,163176,1,2,0:0:0:0:
78,66,163251,6,0,L|52:120,1,47.5,2|0,0:0|0:0,0:0:0:0:
93,274,163400,2,0,L|114:231,1,47.5,2|0,0:0|0:0,0:0:0:0:
298,138,163549,6,0,L|272:192,1,47.5,2|0,0:0|0:0,0:0:0:0:
313,346,163698,2,0,L|334:303,1,47.5,2|0,0:0|0:0,0:0:0:0:
477,137,163848,5,2,0:0:0:0:
463,150,163922,1,2,0:0:0:0:
450,163,163997,1,2,0:0:0:0:
436,177,164071,1,2,0:0:0:0:
423,190,164146,1,2,0:0:0:0:
406,197,164221,1,2,0:0:0:0:
387,199,164295,1,2,0:0:0:0:
368,198,164370,1,2,0:0:0:0:
350,192,164445,1,2,0:0:0:0:
334,183,164519,1,2,0:0:0:0:
320,170,164594,1,2,0:0:0:0:
308,155,164668,1,2,0:0:0:0:
298,138,164743,6,0,L|290:71,1,47.5,2|0,0:0|0:0,0:0:0:0:
182,244,164892,2,0,L|187:291,1,47.5,2|0,0:0|0:0,0:0:0:0:
93,274,165042,5,6,0:0:0:0:
313,346,165191,1,2,0:0:0:0:
313,346,165489,1,2,0:0:0:0:
208,70,165639,1,2,0:0:0:0:
93,274,165788,1,2,0:0:0:0:
93,274,166086,6,0,L|270:262,1,152,2|0,0:0|0:0,0:0:0:0:
313,346,166534,1,2,0:0:0:0:
413,214,167430,6,0,P|331:225|256:192,1,166.25
195,136,168027,2,0,P|113:124|38:157,1,166.25
23,240,168624,6,0,L|5:357,1,113.999996520996,4|0,0:0|0:0,0:0:0:0:
186,306,169071,1,8,0:0:0:0:
186,306,169370,1,8,0:0:0:0:
186,306,169669,6,0,B|221:308|256:259|256:259|284:310|321:306,1,170.999994781494,8|0,0:0|0:0,0:0:0:0:
480,47,170415,2,0,P|424:42|376:72,1,113.999996520996,8|0,0:0|0:0,0:0:0:0:
376,72,171012,6,0,L|370:185,1,113.999996520996,8|0,0:0|0:0,0:0:0:0:
256,261,171460,2,0,L|233:203,1,56.9999982604981
135,153,171758,2,0,L|112:211,1,56.9999982604981
158,290,172057,6,0,B|151:229|114:207|114:207|45:233,1,170.999994781494,8|0,0:0|0:0,0:0:0:0:
261,360,172803,2,0,L|390:343,1,113.999996520996
487,209,173400,6,0,P|404:226|328:191,1,170.999994781494,8|0,0:0|0:0,0:0:0:0:
253,86,173997,2,0,P|198:96|154:131,1,113.999996520996
261,360,174594,5,8,0:0:0:0:
341,317,174892,1,0,0:0:0:0:
271,257,175191,2,0,L|252:74,1,170.999994781494
137,27,175788,6,0,B|79:67|20:32|20:32|-31:121|34:176,1,285,8|0,0:0|0:0,0:0:0:0:
33,176,176982,5,8,0:0:0:0:
441,192,177579,2,0,P|385:191|341:226,1,113.999996520996
256,341,178176,6,0,L|124:326,1,113.999996520996,8|0,0:0|0:0,0:0:0:0:
51,318,178624,1,8,0:0:0:0:
134,165,178922,1,8,0:0:0:0:
192,253,179221,1,8,0:0:0:0:
192,253,179967,6,0,L|305:240,1,113.999996520996
478,140,180564,6,0,P|422:142|368:124,1,113.999996520996,8|0,0:0|0:0,0:0:0:0:
368,124,181012,2,0,L|360:67,1,56.9999982604981
165,15,181310,2,0,L|172:71,1,56.9999982604981
283,218,181609,6,0,P|190:225|132:297,1,190,8|0,0:0|0:0,0:0:0:0:
238,318,182355,6,0,P|333:308|384:226,1,199.499993911743
384,226,182952,6,0,L|481:213,1,95,2|0,0:0|0:0,0:0:0:0:
345,57,183251,2,0,L|250:70,1,95,2|0,0:0|0:0,0:0:0:0:
196,129,183474,1,2,0:0:0:0:
196,129,183549,1,2,0:0:0:0:
65,33,183698,1,2,0:0:0:0:
65,33,183773,1,2,0:0:0:0:
65,33,183848,1,2,0:0:0:0:
35,288,183997,1,2,0:0:0:0:
35,288,184071,1,2,0:0:0:0:
35,288,184146,5,2,0:0:0:0:
295,193,184295,1,2,0:0:0:0:
295,193,184370,1,2,0:0:0:0:
295,193,184445,1,2,0:0:0:0:
47,157,184594,1,2,0:0:0:0:
47,157,184669,1,2,0:0:0:0:
47,157,184743,1,2,0:0:0:0:
161,346,184892,1,2,0:0:0:0:
257,40,185042,1,2,0:0:0:0:
141,228,185191,1,2,0:0:0:0:
373,272,185340,6,0,L|397:220,1,56.9999982604981,2|0,0:0|0:0,0:0:0:0:
257,40,185489,2,0,L|232:91,1,56.9999982604981,2|0,0:0|0:0,0:0:0:0:
187,337,185639,6,0,L|211:285,1,56.9999982604981,2|0,0:0|0:0,0:0:0:0:
71,105,185788,2,0,L|46:156,1,56.9999982604981,2|0,0:0|0:0,0:0:0:0:
295,193,185937,5,8,0:0:0:0:
152,37,186086,1,8,0:0:0:0:
187,337,186236,1,8,0:0:0:0:
476,193,186385,1,8,0:0:0:0:
476,192,186833,6,0,P|401:226|321:209,1,166.249994926453
295,193,187280,2,0,P|220:159|140:176,1,166.249994926453,2|0,0:0|0:0,0:0:0:0:
69,229,187728,6,0,L|52:360,1,113.999996520996,6|0,0:0|0:0,0:0:0:0:
295,193,188027,6,0,L|309:79,1,113.999996520996,8|0,0:0|0:0,0:0:0:0:
143,13,188325,2,0,B|87:-11|87:-11|27:5|16:65,1,170.999994781494,2|0,0:0|0:0,0:0:0:0:
95,102,188624,2,0,P|151:95|206:82,1,113.999996520996,8|0,0:0|0:0,0:0:0:0:
428,28,188922,6,0,B|448:58|496:62|496:62|466:80|446:137,1,170.999994781494,2|0,0:0|0:0,0:0:0:0:
406,212,189221,2,0,P|350:198|294:192,1,113.999996520996,8|0,0:0|0:0,0:0:0:0:
69,229,189519,1,2,0:0:0:0:
185,364,189669,1,0,0:0:0:0:
393,325,189818,2,0,L|407:202,1,113.999996520996,8|0,0:0|0:0,0:0:0:0:
270,24,190116,6,0,B|212:95|212:95|217:171|293:191,1,227.999993041992,2|8,0:0|0:0,0:0:0:0:
463,194,190564,1,0,0:0:0:0:
291,306,190713,1,2,0:0:0:0:
379,102,190863,1,0,0:0:0:0:
470,378,191012,1,8,0:0:0:0:
293,191,191161,1,0,0:0:0:0:
463,194,191310,6,0,L|292:190,1,170.999994781494,2|0,0:0|0:0,0:0:0:0:
106,184,191609,2,0,P|68:225|61:281,1,113.999996520996,8|0,0:0|0:0,0:0:0:0:
260,360,191907,1,8,0:0:0:0:
290,344,191981,1,8,0:0:0:0:
313,319,192056,1,8,0:0:0:0:
317,286,192130,1,8,0:0:0:0:
286,271,192205,1,8,0:0:0:0:
252,278,192280,1,8,0:0:0:0:
218,278,192354,1,8,0:0:0:0:
184,273,192429,1,8,0:0:0:0:
152,262,192504,6,0,B|104:185|104:185|145:109|215:123,1,227.999993041992,6|8,0:0|0:0,0:0:0:0:
463,194,192952,1,0,0:0:0:0:
371,0,193101,2,0,L|354:170,1,170.999994781494,2|0,0:0|0:0,0:0:0:0:
378,242,193400,2,0,L|389:128,1,113.999996520996,8|0,0:0|0:0,0:0:0:0:
214,122,193698,6,0,P|130:128|57:84,1,170.999994781494,2|0,0:0|0:0,0:0:0:0:
158,32,193997,2,0,P|213:19|268:30,1,113.999996520996,8|0,0:0|0:0,0:0:0:0:
463,194,194295,2,0,L|446:364,1,170.999994781494,2|0,0:0|0:0,0:0:0:0:
355,354,194594,2,0,P|300:367|245:356,1,113.999996520996,8|0,0:0|0:0,0:0:0:0:
36,275,194892,5,2,0:0:0:0:
214,122,195042,1,2,0:0:0:0:
116,368,195191,1,8,0:0:0:0:
90,164,195340,1,0,0:0:0:0:
279,242,195489,1,2,0:0:0:0:
36,275,195639,1,2,0:0:0:0:
279,242,195788,1,2,0:0:0:0:
279,242,195863,1,2,0:0:0:0:
279,242,195937,1,2,0:0:0:0:
36,275,196086,6,0,L|278:240,1,245.100003739929,6|8,0:0|0:0,0:0:0:0:
455,347,196534,1,0,0:0:0:0:
324,50,196683,1,2,0:0:0:0:
279,83,196757,1,2,0:0:0:0:
253,133,196832,1,2,0:0:0:0:
253,189,196906,1,2,0:0:0:0:
279,242,196982,2,0,L|265:317,1,56.9999982604981,2|0,0:0|0:0,0:0:0:0:
466,248,197131,2,0,L|476:191,1,56.9999982604981,2|0,0:0|0:0,0:0:0:0:
454,66,197280,6,0,B|375:39|375:39|346:84|356:124,1,170.999994781494,6|0,0:0|0:0,0:0:0:0:
377,212,197579,1,8,0:0:0:0:
313,384,197728,2,0,P|229:380|169:322,1,170.999994781494,2|0,0:0|0:0,0:0:0:0:
140,233,198027,2,0,P|124:209|104:189,1,56.9999982604981,2|0,0:0|0:0,0:0:0:0:
24,143,198176,1,8,0:0:0:0:
253,133,198325,1,0,0:0:0:0:
24,143,198474,6,0,B|104:187|104:187|148:126|109:58,1,227.999993041992,2|8,0:0|0:0,0:0:0:0:
488,241,198922,2,0,B|408:197|408:197|364:258|402:325,1,227.999993041992,2|2,0:0|0:0,0:0:0:0:
436,103,199370,2,0,P|379:106|332:142,1,113.999996520996,8|0,0:0|0:0,0:0:0:0:
53,304,199669,6,0,P|160:327|247:259,1,227.999993041992,2|8,0:0|0:0,0:0:0:0:
221,13,200116,6,0,L|235:154,1,142.500005435944,6|0,0:0|0:0,0:0:0:0:
502,382,200415,2,0,L|487:240,1,142.500005435944,2|0,0:0|0:0,0:0:0:0:
456,22,200713,5,2,0:0:0:0:
348,259,200863,1,2,0:0:0:0:
235,154,201012,1,2,0:0:0:0:
473,127,201161,2,0,P|418:116|371:84,1,113.999996520996,8|0,0:0|0:0,0:0:0:0:
55,54,201460,2,0,L|220:12,1,170.999994781494,2|0,0:0|0:0,0:0:0:0:
250,82,201758,1,8,0:0:0:0:
246,100,201833,1,8,0:0:0:0:
242,118,201907,1,8,0:0:0:0:
238,136,201982,1,8,0:0:0:0:
233,159,202057,6,0,B|219:235|219:235|258:309|352:258,1,228,6|2,0:0|0:0,0:0:0:0:
473,127,202654,1,2,0:0:0:0:
473,127,203251,6,0,L|242:99,1,228,6|2,0:0|0:0,0:0:0:0:
26,193,203848,1,2,0:0:0:0:
26,193,204445,6,0,B|53:222|35:266|35:266|73:249|99:298|99:298|129:247|157:273|157:273|201:298|252:266,1,332.5,6|2,0:0|0:0,0:0:0:0:
451,40,205937,6,0,P|405:45|367:73,1,95,8|0,0:0|0:0,0:0:0:0:
352,162,206385,6,0,P|398:158|439:133,1,95,8|0,0:0|0:0,0:0:0:0:
269,78,206683,1,2,0:0:0:0:
269,78,206758,1,2,0:0:0:0:
269,78,206833,6,0,L|251:267,1,190,6|8,0:0|0:0,0:0:0:0:
458,361,207280,2,0,B|484:298|436:250|436:250|374:281,1,190,2|2,0:0|0:0,0:0:0:0:
135,361,207728,2,0,P|88:342|54:311,1,95,8|0,0:0|0:0,0:0:0:0:
60,67,208027,6,0,B|121:35|121:35|169:83|143:146,1,190,2|8,0:0|0:0,0:0:0:0:
233,302,208474,2,0,L|397:277,1,142.5,2|0,0:0|0:0,0:0:0:0:
442,223,208773,1,2,0:0:0:0:
236,131,208922,2,0,L|142:145,1,95,8|0,0:0|0:0,0:0:0:0:
338,32,209221,6,0,P|422:70|511:41,1,190,2|8,0:0|0:0,0:0:0:0:
319,342,209669,2,0,P|234:303|145:332,1,190,2|2,0:0|0:0,0:0:0:0:
35,244,210116,2,0,L|25:149,1,95,8|0,0:0|0:0,0:0:0:0:
226,36,210415,6,0,L|235:130,1,95,2|0,0:0|0:0,0:0:0:0:
126,96,210713,1,8,0:0:0:0:
328,192,210863,1,2,0:0:0:0:
145,332,211012,1,2,0:0:0:0:
132,312,211086,1,2,0:0:0:0:
124,289,211161,1,2,0:0:0:0:
121,266,211235,1,2,0:0:0:0:
123,242,211310,1,2,0:0:0:0:
130,220,211385,1,2,0:0:0:0:
142,199,211459,1,2,0:0:0:0:
158,182,211534,1,2,0:0:0:0:
177,168,211609,6,0,P|270:169|344:110,1,190,6|8,0:0|0:0,0:0:0:0:
124,95,212057,2,0,B|28:60|28:60|-4:92|3:140,1,190,2|2,0:0|0:0,0:0:0:0:
145,332,212504,2,0,L|257:311,1,95,8|0,0:0|0:0,0:0:0:0:
438,338,212803,5,2,0:0:0:0:
438,338,212952,1,0,0:0:0:0:
356,90,213101,1,8,0:0:0:0:
282,223,213251,2,0,L|469:195,1,190,2|2,0:0|0:0,0:0:0:0:
409,27,213698,2,0,P|340:14|286:57,1,142.5,8|0,0:0|0:0,0:0:0:0:
258,134,213997,6,0,L|163:124,1,95,2|0,0:0|0:0,0:0:0:0:
50,264,214295,1,8,0:0:0:0:
250,366,214445,2,0,L|437:338,1,190,2|2,0:0|0:0,0:0:0:0:
173,278,214892,2,0,P|148:318|133:363,1,95,8|0,0:0|0:0,0:0:0:0:
297,219,215191,6,0,P|281:174|257:133,1,95,8|0,0:0|0:0,0:0:0:0:
257,133,215415,1,0,0:0:0:0:
257,133,215489,1,8,0:0:0:0:
112,129,215639,1,8,0:0:0:0:
316,19,215788,1,8,0:0:0:0:
173,278,215937,1,8,0:0:0:0:
210,306,216011,1,8,0:0:0:0:
254,324,216086,1,8,0:0:0:0:
301,328,216160,1,8,0:0:0:0:
348,319,216235,1,8,0:0:0:0:
390,297,216310,1,8,0:0:0:0:
424,264,216384,5,6,0:0:0:0:
257,133,216534,1,2,0:0:0:0:
466,41,216683,2,0,L|452:135,1,95,0|2,0:0|0:0,0:0:0:0:
301,328,216982,2,0,L|287:233,1,95,2|2,0:0|0:0,0:0:0:0:
139,47,217280,2,0,P|91:46|48:64,1,95,10|2,0:0|0:0,0:0:0:0:
26,251,217579,6,0,P|73:251|116:233,1,95,2|2,0:0|0:0,0:0:0:0:
257,133,217877,1,2,0:0:0:0:
139,47,218027,1,2,0:0:0:0:
185,248,218176,1,2,0:0:0:0:
285,133,218325,1,2,0:0:0:0:
61,160,218474,1,2,0:0:0:0:
183,338,218624,1,2,0:0:0:0:
333,234,218773,6,0,L|317:140,1,95,2|2,0:0|0:0,0:0:0:0:
139,47,219071,2,0,L|154:140,1,95,2|2,0:0|0:0,0:0:0:0:
329,330,219370,2,0,B|363:334|363:334|393:322|410:296,1,95,2|2,0:0|0:0,0:0:0:0:
499,48,219669,2,0,B|465:44|465:44|435:56|417:81,1,95,10|2,0:0|0:0,0:0:0:0:
332,234,219967,5,2,0:0:0:0:
221,130,220116,1,2,0:0:0:0:
177,356,220266,1,2,0:0:0:0:
366,232,220415,1,2,0:0:0:0:
129,208,220564,1,2,0:0:0:0:
100,170,220638,1,2,0:0:0:0:
91,124,220713,1,2,0:0:0:0:
105,79,220787,1,2,0:0:0:0:
138,46,220863,6,0,L|203:31,1,56.9999982604981,2|0,0:0|0:0,0:0:0:0:
417,81,221012,2,0,L|361:94,1,56.9999982604981,2|0,0:0|0:0,0:0:0:0:
221,130,221161,5,6,0:0:0:0:
329,330,221310,1,2,0:0:0:0:
475,196,221460,1,2,0:0:0:0:
329,361,221609,1,2,0:0:0:0:
221,162,221758,1,2,0:0:0:0:
430,299,221907,1,2,0:0:0:0:
219,356,222057,2,0,L|219:261,1,95,10|0,0:0|0:0,0:0:0:0:
219,44,222355,5,2,0:0:0:0:
342,195,222504,1,2,0:0:0:0:
56,318,222654,1,10,0:0:0:0:
140,191,222803,1,2,0:0:0:0:
219,356,222952,1,2,0:0:0:0:
56,277,223101,1,2,0:0:0:0:
139,149,223251,1,10,0:0:0:0:
218,384,223400,1,2,0:0:0:0:
430,299,223549,5,2,0:0:0:0:
444,280,223623,1,2,0:0:0:0:
456,259,223698,1,2,0:0:0:0:
464,237,223772,1,2,0:0:0:0:
468,214,223847,1,2,0:0:0:0:
468,190,223922,1,2,0:0:0:0:
465,166,223996,1,2,0:0:0:0:
457,144,224071,1,2,0:0:0:0:
446,123,224146,6,0,L|401:97,1,47.5,2|0,0:0|0:0,0:0:0:0:
260,150,224295,2,0,L|300:173,1,47.5,2|0,0:0|0:0,0:0:0:0:
209,43,224445,2,0,L|163:16,1,47.5,2|0,0:0|0:0,0:0:0:0:
22,69,224594,2,0,L|62:92,1,47.5,2|0,0:0|0:0,0:0:0:0:
189,224,224743,5,2,0:0:0:0:
199,246,224817,1,2,0:0:0:0:
202,270,224892,1,2,0:0:0:0:
200,293,224966,1,2,0:0:0:0:
191,316,225041,1,2,0:0:0:0:
178,335,225116,1,2,0:0:0:0:
160,351,225190,1,2,0:0:0:0:
139,361,225265,1,2,0:0:0:0:
116,366,225340,6,0,L|106:312,1,47.5,2|0,0:0|0:0,0:0:0:0:
260,150,225489,2,0,L|270:204,1,47.5,2|0,0:0|0:0,0:0:0:0:
135,119,225639,2,0,L|124:64,1,47.5,2|0,0:0|0:0,0:0:0:0:
366,67,225788,2,0,L|376:121,1,47.5,2|0,0:0|0:0,0:0:0:0:
403,309,225937,5,6,0:0:0:0:
105,270,226086,1,2,0:0:0:0:
403,309,226385,5,2,0:0:0:0:
255,287,226534,1,2,0:0:0:0:
105,270,226683,1,2,0:0:0:0:
104,268,226982,6,0,B|70:210|70:210|72:135|137:117,1,190,6|2,0:0|0:0,0:0:0:0:
274,97,227430,2,6,L|254:293,1,190,0|0,0:0|0:0,0:0:0:0:
