osu file format v14

[General]
AudioFilename: audio.mp3
AudioLeadIn: 0
PreviewTime: 110491
Countdown: 0
SampleSet: Soft
StackLeniency: 0.3
Mode: 0
LetterboxInBreaks: 0
WidescreenStoryboard: 0

[Editor]
DistanceSpacing: 1.2
BeatDivisor: 4
GridSize: 4
TimelineZoom: 2

[Metadata]
Title:Paradisus-Paradoxum
TitleUnicode:Paradisus-Paradoxum
Artist:MYTH & ROID
ArtistUnicode:MYTH & ROID
Creator:FaiVillager
Version:Restarted Fairyland
Source:Re:ゼロから始める異世界生活
Tags:re: zero kara hajimeru isekai seikatsu life in a different world from zero re:zero op full size opening
BeatmapID:1141737
BeatmapSetID:538899

[Difficulty]
HPDrainRate:4.6
CircleSize:4.2
OverallDifficulty:9.2
ApproachRate:9.7
SliderMultiplier:1.8
SliderTickRate:1

[Events]
//Background and Video events
0,0,"1.jpg",0,0
//Break Periods
2,139945,147594
//Storyboard Layer 0 (Background)
//Storyboard Layer 1 (Fail)
//Storyboard Layer 2 (Pass)
//Storyboard Layer 3 (Foreground)
//Storyboard Sound Samples

[TimingPoints]
6014,298.507462686567,4,2,1,70,1,0
9446,-200,4,2,1,70,0,0
10193,-100,4,2,1,70,0,0
10790,-71.4285714285714,4,2,3,80,0,0
11013,-71.4285714285714,4,2,1,80,0,0
14372,-71.4285714285714,4,2,2,60,0,0
14969,-71.4285714285714,4,2,2,50,0,0
15566,-100,4,2,2,60,0,0
17954,-100,4,2,1,50,0,0
19745,-100,4,2,2,50,0,0
20342,-86.9565217391304,4,2,1,70,0,0
28700,-86.9565217391304,4,2,2,50,0,0
30193,-133.333333333333,4,2,1,30,0,0
31984,-100,4,2,1,50,0,0
32282,-133.333333333333,4,2,3,30,0,0
32431,-133.333333333333,4,2,1,30,0,0
38252,-133.333333333333,4,2,1,30,0,0
38700,-71.4285714285714,4,2,1,50,0,0
39446,-86.9565217391304,4,2,1,60,0,0
43625,-86.9565217391304,4,2,2,40,0,0
44222,-86.9565217391304,4,2,1,70,0,0
46611,-86.9565217391304,4,2,2,40,0,0
47805,-86.9565217391304,4,2,2,50,0,0
48402,-200,4,2,1,60,0,0
48999,-80,4,2,3,60,0,0
49148,-80,4,2,1,60,0,0
50193,-80,4,2,3,60,0,0
50342,-80,4,2,1,60,0,0
51387,-80,4,2,3,60,0,0
51536,-80,4,2,1,60,0,0
52581,-80,4,2,3,60,0,0
52730,-80,4,2,1,60,0,0
53178,-80,4,2,2,50,0,0
53775,-80,4,2,3,60,0,0
53924,-80,4,2,1,60,0,0
54969,-80,4,2,3,60,0,0
55118,-80,4,2,1,60,0,0
56163,-200,4,2,1,60,0,0
56461,-80,4,2,1,60,0,0
57357,-80,4,2,2,40,0,0
58551,-80,4,2,1,70,0,0
59596,-200,4,2,1,70,0,0
60342,-133.333333333333,4,2,1,40,0,0
60640,-83.3333333333333,4,2,1,40,0,0
60939,-60.6060606060606,4,2,3,70,0,1
61163,-60.6060606060606,4,2,1,70,0,1
65118,-60.6060606060606,4,2,2,60,0,1
65715,-60.6060606060606,4,2,1,70,0,1
68103,-60.6060606060606,4,2,1,50,0,1
69297,-60.6060606060606,4,2,2,60,0,1
70491,-60.6060606060606,4,2,1,70,0,1
74073,-60.6060606060606,4,2,2,60,0,1
75267,-86.9565217391304,4,2,2,60,0,0
77655,-86.9565217391304,4,2,1,50,0,0
79446,-71.4285714285714,4,2,1,50,0,0
80043,-71.4285714285714,4,2,1,70,0,1
83625,-71.4285714285714,4,2,1,60,0,0
84222,-71.4285714285714,4,2,2,50,0,0
84819,-71.4285714285714,4,2,1,70,0,1
88103,-71.4285714285714,4,2,1,50,0,1
88402,-71.4285714285714,4,2,2,50,0,1
89596,-71.4285714285714,4,2,1,60,0,0
91088,-200,4,2,1,20,0,0
93178,-200,4,2,3,20,0,0
93999,-200,4,2,1,20,0,0
95566,-200,4,2,3,20,0,0
96312,-200,4,2,1,20,0,0
97655,-200,4,2,1,50,0,0
97954,-80,4,2,1,50,0,0
98700,-80,4,2,2,40,0,0
99148,-80,4,2,2,30,0,0
99745,-80,4,2,2,40,0,0
100342,-86.9565217391304,4,2,1,50,0,0
102431,-86.9565217391304,4,2,1,20,0,0
102730,-86.9565217391304,4,2,1,50,0,0
105118,-71.4285714285714,4,2,1,60,0,0
107506,-71.4285714285714,4,2,2,50,0,0
108700,-71.4285714285714,4,2,1,60,0,0
109745,-200,4,2,1,60,0,0
110193,-71.4285714285714,4,2,1,30,0,0
110491,-133.333333333333,4,2,1,40,0,0
110790,-83.3333333333333,4,2,1,40,0,0
111088,-60.6060606060606,4,2,3,70,0,1
111312,-60.6060606060606,4,2,1,70,0,1
115267,-60.6060606060606,4,2,2,50,0,1
115864,-60.6060606060606,4,2,1,70,0,1
118252,-60.6060606060606,4,2,1,60,0,1
119446,-60.6060606060606,4,2,2,50,0,1
120640,-60.6060606060606,4,2,1,70,0,1
123775,-60.6060606060606,4,2,1,50,0,1
124372,-60.6060606060606,4,2,1,60,0,1
124521,-60.6060606060606,4,2,1,70,0,1
124819,-60.6060606060606,4,2,2,50,0,1
125416,-86.9565217391304,4,2,2,60,0,0
127805,-86.9565217391304,4,2,1,50,0,0
129596,-71.4285714285714,4,2,2,50,0,0
130193,-71.4285714285714,4,2,1,70,0,1
133775,-71.4285714285714,4,2,1,70,0,0
134372,-71.4285714285714,4,2,2,50,0,0
134969,-71.4285714285714,4,2,1,70,0,1
138551,-71.4285714285714,4,2,2,50,0,1
139745,-60.6060606060606,4,2,1,70,0,0
148103,-71.4285714285714,4,2,2,40,0,0
149297,-86.9565217391304,4,2,3,40,0,0
149446,-86.9565217391304,4,2,1,40,0,0
151685,-86.9565217391304,4,2,3,40,0,0
151834,-86.9565217391304,4,2,1,40,0,0
157655,-71.4285714285714,4,2,2,40,0,0
158849,-86.9565217391304,4,2,3,40,0,0
158999,-86.9565217391304,4,2,1,40,0,0
161237,-86.9565217391304,4,2,3,40,0,0
161387,-86.9565217391304,4,2,1,40,0,0
163625,-60.6060606060606,4,2,2,50,0,0
166013,-60.6060606060606,4,2,1,60,0,0
167058,-200,4,2,1,60,0,0
168402,-200,4,2,1,20,0,0
169596,-200,4,2,1,20,0,1
171984,-200,4,2,3,30,0,1
172133,-200,4,2,1,20,0,1
174372,-200,4,2,1,5,0,1
174969,-200,4,2,1,20,0,1
175566,-200,4,2,1,5,0,1
176163,-200,4,2,1,20,0,1
178551,-125,4,2,1,40,0,1
179148,-83.3333333333333,4,2,1,40,0,1
182730,-83.3333333333333,4,2,1,30,0,1
183924,-83.3333333333333,4,2,2,40,0,1
186312,-60.6060606060606,4,2,2,50,0,1
187506,-200,4,2,1,30,0,0
188700,-60.6060606060606,4,2,3,70,0,1
188849,-60.6060606060606,4,2,1,70,0,1
192282,-60.6060606060606,4,2,1,60,0,1
192879,-60.6060606060606,4,2,2,60,0,1
193476,-60.6060606060606,4,2,1,70,0,1
195864,-60.6060606060606,4,2,1,60,0,1
197058,-60.6060606060606,4,2,2,60,0,1
198252,-60.6060606060606,4,2,1,70,0,1
201088,-50,4,2,1,70,0,1
201834,-60.6060606060606,4,2,2,60,0,1
203028,-86.9565217391304,4,2,2,60,0,0
205416,-86.9565217391304,4,2,1,60,0,0
207208,-71.4285714285714,4,2,2,60,0,0
207805,-71.4285714285714,4,2,1,70,0,1
211387,-60.6060606060606,4,2,1,60,0,0
211984,-60.6060606060606,4,2,2,60,0,0
212581,-60.6060606060606,4,2,1,60,0,1
216163,-60.6060606060606,4,2,2,60,0,1
217357,-60.6060606060606,4,2,1,60,0,1
221536,-60.6060606060606,4,2,2,60,0,1
222133,-60.6060606060606,4,2,1,60,0,1
224521,-60.6060606060606,4,2,1,50,0,1
225715,-60.6060606060606,4,2,2,60,0,1
226909,-60.6060606060606,4,2,1,60,0,0
227954,-200,4,2,1,60,0,0

[Colours]
Combo1 : 11,133,255
Combo2 : 254,52,254
Combo3 : 253,113,239
Combo4 : 205,131,254

[HitObjects]
152,101,8402,5,10,0:0:0:0:
426,328,8551,1,8,0:0:0:0:
426,328,8849,5,8,0:0:0:0:
304,21,8999,1,2,0:0:0:0:
249,295,9148,1,8,0:0:0:0:
249,295,9446,6,0,L|307:238,1,67.5,2|0,0:0|0:0,0:0:0:0:
346,200,9745,1,8,0:0:0:0:
41,168,9894,1,2,0:0:0:0:
41,168,10193,6,0,P|29:106|73:40,1,135
122,121,10491,2,0,L|252:82,1,135
360,19,10790,6,0,B|367:53|367:53|356:83|356:83|382:148|356:223,1,188.999994232178,4|0,0:0|0:0,0:0:0:0:
310,282,11088,1,2,0:0:0:0:
120,121,11237,1,8,0:0:0:0:
441,179,11387,2,0,L|381:218,1,62.9999980773926
195,348,11536,1,0,0:0:0:0:
294,119,11685,2,0,P|296:50|267:-7,1,125.999996154785,2|0,0:0|0:0,0:0:0:0:
111,263,11984,6,0,L|251:259,1,125.999996154785,8|0,0:0|0:0,0:0:0:0:
488,353,12282,1,2,0:0:0:0:
172,364,12431,2,0,L|237:315,1,62.9999980773926
431,178,12581,2,0,P|445:112|422:35,2,125.999996154785,8|0|2,0:0|0:0|0:0,0:0:0:0:
431,178,13178,6,0,P|319:138|230:151,1,188.999994232178,8|0,0:0|0:0,0:0:0:0:
164,181,13476,1,2,0:0:0:0:
475,255,13625,2,0,P|519:184|510:139,1,125.999996154785,8|0,0:0|0:0,0:0:0:0:
285,43,13924,1,0,0:0:0:0:
236,323,14073,2,0,P|236:353|252:396,1,62.9999980773926,2|0,0:0|0:0,0:0:0:0:
385,137,14222,2,0,P|389:82|380:58,1,62.9999980773926
166,5,14372,5,0,0:0:0:0:
140,32,14446,1,0,0:0:0:0:
129,68,14521,1,0,0:0:0:0:
133,105,14596,1,0,0:0:0:0:
89,129,14670,5,0,0:0:0:0:
100,158,14745,1,0,0:0:0:0:
104,189,14819,1,0,0:0:0:0:
99,220,14894,1,0,0:0:0:0:
140,228,14969,5,0,0:0:0:0:
132,251,15043,1,0,0:0:0:0:
132,276,15118,1,0,0:0:0:0:
140,300,15193,1,0,0:0:0:0:
102,370,15267,5,0,0:0:0:0:
156,318,15341,1,0,0:0:0:0:
227,292,15416,1,0,0:0:0:0:
302,297,15490,1,0,0:0:0:0:
369,331,15565,1,0,0:0:0:0:
369,331,16013,5,0,0:0:0:0:
454,92,16163,2,0,P|381:27|283:37,1,180
76,208,16760,6,0,L|265:180,1,180
381,344,17208,1,0,0:0:0:0:
200,261,17357,2,0,L|21:287,1,180
381,344,17954,6,0,B|495:167|495:167|461:95|461:95|388:205|388:205|351:138|351:138|407:53,1,585,2|0,0:0|0:0,0:0:0:0:
410,50,18999,1,2,0:0:0:0:
146,285,19446,5,8,0:0:0:0:
36,170,19745,5,0,0:0:0:0:
65,149,19819,1,0,0:0:0:0:
94,128,19894,1,0,0:0:0:0:
123,107,19969,1,0,0:0:0:0:
171,166,20043,5,0,0:0:0:0:
221,184,20118,1,0,0:0:0:0:
275,184,20193,1,0,0:0:0:0:
326,167,20267,1,0,0:0:0:0:
369,108,20342,6,0,P|439:95|498:113,1,103.500001974106,8|0,0:0|0:0,0:0:0:0:
283,339,20640,1,2,0:0:0:0:
199,60,20790,1,8,0:0:0:0:
427,217,20939,1,0,0:0:0:0:
122,171,21088,2,0,L|196:211,1,51.7500009870529
381,311,21237,2,0,P|446:321|493:302,1,103.500001974106,2|0,0:0|0:0,0:0:0:0:
339,62,21536,5,8,0:0:0:0:
62,142,21685,1,0,0:0:0:0:
324,212,21834,1,2,0:0:0:0:
123,206,21984,1,0,0:0:0:0:
247,285,22133,2,0,P|242:346|219:386,1,103.500001974106,0|8,0:0|0:0,0:0:0:0:
62,142,22431,2,0,L|172:115,1,103.500001974106,2|0,0:0|0:0,0:0:0:0:
290,69,22655,5,0,0:0:0:0:
317,37,22730,2,0,P|315:100|347:158,1,103.500001974106,8|0,0:0|0:0,0:0:0:0:
461,347,23028,1,2,0:0:0:0:
359,160,23178,2,0,P|289:128|225:136,1,103.500001974106,8|0,0:0|0:0,0:0:0:0:
11,302,23476,2,0,L|66:263,1,51.7500009870529
231,146,23625,2,0,P|273:102|289:52,1,103.500001974106,2|0,0:0|0:0,0:0:0:0:
32,128,23924,5,8,0:0:0:0:
320,315,24073,1,0,0:0:0:0:
160,24,24222,1,2,0:0:0:0:
74,326,24372,2,0,L|139:273,1,51.7500009870529
318,136,24521,1,0,0:0:0:0:
39,205,24670,1,8,0:0:0:0:
250,322,24819,1,2,0:0:0:0:
118,125,24969,2,8,P|111:102|109:57,1,51.7500009870529
225,127,25118,6,0,P|297:118|352:82,1,103.500001974106,8|0,0:0|0:0,0:0:0:0:
11,40,25416,1,2,0:0:0:0:
92,218,25566,1,0,0:0:0:0:
108,230,25640,1,0,0:0:0:0:
124,242,25715,2,0,L|246:256,1,103.500001974106,0|8,0:0|0:0,0:0:0:0:
506,156,26013,2,0,P|449:140|385:150,1,103.500001974106,2|0,0:0|0:0,0:0:0:0:
373,325,26312,5,8,0:0:0:0:
246,57,26461,2,0,L|296:109,1,51.7500009870529
419,236,26611,1,2,0:0:0:0:
223,167,26760,1,8,0:0:0:0:
392,153,26909,2,0,P|421:103|420:50,1,103.500001974106,0|8,0:0|0:0,0:0:0:0:
119,98,27208,2,0,L|148:217,1,103.500001974106,2|0,0:0|0:0,0:0:0:0:
82,298,27431,5,0,0:0:0:0:
50,324,27506,2,0,P|120:309|172:315,1,103.500001974106,8|0,0:0|0:0,0:0:0:0:
373,360,27805,1,2,0:0:0:0:
290,213,27954,1,0,0:0:0:0:
281,194,28028,1,0,0:0:0:0:
272,174,28103,2,0,L|275:65,1,103.500001974106,0|8,0:0|0:0,0:0:0:0:
449,228,28402,2,0,P|443:288|422:332,1,103.500001974106,2|0,0:0|0:0,0:0:0:0:
183,343,28700,6,0,L|114:364,1,51.7500009870529
215,201,28849,2,0,L|275:230,1,51.7500009870529
78,216,28999,5,2,0:0:0:0:
67,165,29073,1,0,0:0:0:0:
75,114,29148,1,0,0:0:0:0:
100,69,29222,1,0,0:0:0:0:
87,18,29297,5,0,0:0:0:0:
107,33,29372,1,0,0:0:0:0:
131,42,29446,1,0,0:0:0:0:
157,41,29521,1,0,0:0:0:0:
193,75,29596,5,2,0:0:0:0:
232,42,29670,1,0,0:0:0:0:
281,25,29745,1,0,0:0:0:0:
332,26,29819,1,0,0:0:0:0:
380,45,29894,5,0,0:0:0:0:
305,167,30193,6,0,L|335:232,1,67.5000025749208
182,225,30491,2,0,P|129:222|91:245,1,67.5000025749208
152,314,30715,1,0,0:0:0:0:
152,314,30790,2,0,L|236:324,1,67.5000025749208
406,362,31088,5,0,0:0:0:0:
403,338,31163,1,0,0:0:0:0:
401,314,31237,1,0,0:0:0:0:
399,290,31312,1,0,0:0:0:0:
397,266,31387,1,0,0:0:0:0:
284,235,31536,5,0,0:0:0:0:
287,211,31611,1,0,0:0:0:0:
289,187,31685,1,0,0:0:0:0:
291,163,31760,1,0,0:0:0:0:
293,139,31834,1,0,0:0:0:0:
417,67,31984,6,0,P|358:30|295:32,1,135
216,81,32282,6,0,L|134:75,1,67.5000025749208,2|0,0:0|0:0,0:0:0:0:
54,51,32506,1,0,0:0:0:0:
54,51,32581,2,0,P|61:110|54:142,1,67.5000025749208
8,285,32879,6,0,L|94:255,1,67.5000025749208
144,191,33103,1,0,0:0:0:0:
144,191,33178,2,0,P|191:187|226:197,1,67.5000025749208
313,363,33476,5,0,0:0:0:0:
411,263,33625,2,0,L|450:286,2,33.7500012874604
334,146,33924,1,0,0:0:0:0:
307,253,34073,6,0,P|260:270|229:269,1,67.5000025749208
310,68,34372,2,0,L|397:80,1,67.5000025749208
452,147,34596,1,0,0:0:0:0:
452,147,34670,6,0,P|461:195|456:225,1,67.5000025749208
358,215,34894,1,0,0:0:0:0:
358,215,34969,2,0,L|282:239,1,67.5000025749208
86,186,35267,6,0,P|131:177|161:183,1,67.5000025749208
225,251,35491,1,0,0:0:0:0:
225,251,35566,2,0,L|236:170,1,67.5000025749208
424,44,35864,6,0,L|415:117,1,67.5000025749208
467,205,36088,1,0,0:0:0:0:
467,205,36163,2,0,P|470:243|456:276,1,67.5000025749208
276,241,36461,6,0,L|255:291,1,33.7500012874604
164,251,36611,2,0,L|143:301,1,33.7500012874604
87,173,36760,2,0,L|108:123,1,33.7500012874604
199,163,36909,2,0,L|220:113,1,33.7500012874604
328,55,37058,5,0,0:0:0:0:
343,73,37133,1,0,0:0:0:0:
358,91,37208,1,0,0:0:0:0:
373,108,37282,1,0,0:0:0:0:
388,126,37357,2,0,P|381:173|389:211,1,67.5000025749208
484,310,37655,5,0,0:0:0:0:
460,305,37730,1,0,0:0:0:0:
436,300,37805,1,0,0:0:0:0:
413,295,37879,1,0,0:0:0:0:
389,290,37954,2,0,P|345:303|301:297,1,67.5000025749208
186,280,38252,6,0,L|168:291,10,11.2500004291535
88,266,38551,6,0,L|71:269,4,11.2500004291535
76,167,38700,6,0,P|224:49|179:280,1,566.999982696534
193,163,39446,6,0,P|129:158|38:219,1,155.250002961159,8|0,0:0|0:0,0:0:0:0:
19,273,39745,1,10,0:0:0:0:
346,269,39894,2,0,P|368:227|379:167,1,103.500001974106
127,323,40193,1,8,0:0:0:0:
465,200,40342,2,0,P|467:132|443:78,1,103.500001974106,2|0,0:0|0:0,0:0:0:0:
166,112,40640,5,8,0:0:0:0:
299,345,40790,1,0,0:0:0:0:
299,345,40864,1,0,0:0:0:0:
299,345,40939,1,2,0:0:0:0:
285,131,41088,2,0,L|277:5,1,103.500001974106,8|0,0:0|0:0,0:0:0:0:
474,245,41387,1,0,0:0:0:0:
190,189,41536,2,0,L|183:75,1,103.500001974106,2|0,0:0|0:0,0:0:0:0:
49,266,41834,6,0,P|89:313|140:332,1,103.500001974106,8|0,0:0|0:0,0:0:0:0:
441,321,42133,1,2,0:0:0:0:
229,103,42282,1,0,0:0:0:0:
336,368,42431,1,0,0:0:0:0:
331,74,42581,1,8,0:0:0:0:
173,206,42730,2,0,P|111:198|58:162,1,103.500001974106,2|0,0:0|0:0,0:0:0:0:
412,75,43028,6,0,L|417:190,1,103.500001974106,8|0,0:0|0:0,0:0:0:0:
153,332,43327,1,2,0:0:0:0:
422,271,43476,1,8,0:0:0:0:
173,206,43625,5,0,0:0:0:0:
132,206,43700,1,0,0:0:0:0:
96,186,43775,1,0,0:0:0:0:
73,152,43849,1,0,0:0:0:0:
70,111,43924,1,0,0:0:0:0:
87,74,43999,1,0,0:0:0:0:
120,49,44073,1,0,0:0:0:0:
161,43,44148,1,0,0:0:0:0:
228,90,44222,6,0,L|398:70,1,155.250002961159,8|0,0:0|0:0,0:0:0:0:
461,65,44521,1,2,0:0:0:0:
261,235,44670,2,0,P|252:310|265:364,1,103.500001974106
510,242,44969,1,8,0:0:0:0:
266,160,45118,2,0,L|115:177,1,103.500001974106,2|0,0:0|0:0,0:0:0:0:
404,354,45416,6,0,P|428:298|426:227,1,103.500001974106,8|0,0:0|0:0,0:0:0:0:
211,65,45715,1,2,0:0:0:0:
255,305,45864,1,8,0:0:0:0:
396,124,46013,1,0,0:0:0:0:
103,204,46163,1,8,0:0:0:0:
346,221,46312,2,0,L|455:228,1,103.500001974106,2|0,0:0|0:0,0:0:0:0:
462,17,46611,5,0,0:0:0:0:
426,22,46685,1,0,0:0:0:0:
392,33,46760,1,0,0:0:0:0:
360,49,46834,1,0,0:0:0:0:
330,70,46909,1,0,0:0:0:0:
305,96,46984,1,0,0:0:0:0:
284,125,47058,1,0,0:0:0:0:
268,157,47133,1,0,0:0:0:0:
257,191,47208,5,0,0:0:0:0:
244,227,47282,1,0,0:0:0:0:
228,259,47357,1,0,0:0:0:0:
207,288,47431,1,0,0:0:0:0:
182,314,47506,1,0,0:0:0:0:
152,335,47581,1,0,0:0:0:0:
120,351,47655,1,0,0:0:0:0:
86,362,47730,1,0,0:0:0:0:
15,364,47805,5,2,0:0:0:0:
42,297,47879,1,0,0:0:0:0:
88,243,47954,1,0,0:0:0:0:
150,206,48028,1,2,0:0:0:0:
220,190,48103,1,0,0:0:0:0:
291,190,48178,1,0,0:0:0:0:
361,174,48252,1,2,0:0:0:0:
423,137,48327,1,0,0:0:0:0:
468,79,48402,6,0,L|393:67,1,67.5
337,22,48700,6,0,P|298:15|252:26,1,67.5
229,89,48999,6,0,L|98:121,1,112.5,4|0,0:0|0:0,0:0:0:0:
51,218,49222,1,0,0:0:0:0:
51,218,49297,2,0,L|174:237,1,112.5,2|0,0:0|0:0,0:0:0:0:
396,88,49596,1,0,0:0:0:0:
306,328,49745,1,8,0:0:0:0:
306,328,49819,1,0,0:0:0:0:
306,328,49894,2,0,P|255:358|196:364,1,112.5,2|0,0:0|0:0,0:0:0:0:
73,301,50118,1,0,0:0:0:0:
43,267,50193,6,0,L|69:142,1,112.5,2|0,0:0|0:0,0:0:0:0:
166,17,50416,1,0,0:0:0:0:
166,17,50491,2,0,L|174:143,1,112.5,2|0,0:0|0:0,0:0:0:0:
159,263,50790,2,0,P|143:288|107:311,1,56.25,8|0,0:0|0:0,0:0:0:0:
251,333,50939,2,0,P|246:356|221:394,1,56.25,8|0,0:0|0:0,0:0:0:0:
282,214,51088,2,0,P|287:191|310:152,1,56.25,2|0,0:0|0:0,0:0:0:0:
373,284,51237,2,8,P|389:259|422:236,1,56.25
482,53,51387,6,0,L|353:65,1,112.5,2|0,0:0|0:0,0:0:0:0:
226,108,51611,1,0,0:0:0:0:
192,120,51685,2,0,L|115:100,3,56.25,2|0|8|0,0:0|0:0|0:0|0:0,0:0:0:0:
359,149,51984,1,0,0:0:0:0:
372,182,52058,1,0,0:0:0:0:
376,218,52133,1,8,0:0:0:0:
370,253,52208,1,0,0:0:0:0:
354,286,52282,2,0,L|281:312,3,56.25,2|0|0|0,0:0|0:0|0:0|0:0,0:0:0:0:
234,329,52581,5,2,0:0:0:0:
158,11,52730,1,0,0:0:0:0:
469,216,52879,1,2,0:0:0:0:
99,199,53028,1,0,0:0:0:0:
289,30,53178,5,0,0:0:0:0:
338,4,53252,1,0,0:0:0:0:
393,12,53327,1,0,0:0:0:0:
433,49,53402,1,0,0:0:0:0:
445,103,53476,1,0,0:0:0:0:
424,154,53551,1,0,0:0:0:0:
377,184,53625,1,0,0:0:0:0:
322,182,53700,1,0,0:0:0:0:
255,144,53775,6,0,L|127:179,1,112.5,2|0,0:0|0:0,0:0:0:0:
39,300,53999,1,0,0:0:0:0:
39,300,54073,2,0,L|165:312,1,112.5,2|0,0:0|0:0,0:0:0:0:
393,374,54372,1,0,0:0:0:0:
272,220,54521,1,8,0:0:0:0:
233,210,54596,1,0,0:0:0:0:
195,200,54670,1,2,0:0:0:0:
354,90,54819,1,0,0:0:0:0:
394,270,54969,6,0,P|347:316|283:322,1,112.5,2|0,0:0|0:0,0:0:0:0:
164,272,55193,1,0,0:0:0:0:
131,250,55267,2,0,L|0:279,1,112.5,2|0,0:0|0:0,0:0:0:0:
164,92,55566,2,0,L|230:104,3,56.25
348,179,55864,2,0,L|277:203,3,56.25,2|0|0|0,0:0|0:0|0:0|0:0,0:0:0:0:
355,62,56163,6,8,L|407:72,1,45
448,257,56461,5,8,0:0:0:0:
210,64,56611,1,8,0:0:0:0:
364,331,56760,5,8,0:0:0:0:
96,269,56909,1,8,0:0:0:0:
426,62,57058,1,8,0:0:0:0:
158,0,57208,1,8,0:0:0:0:
323,211,57357,5,0,0:0:0:0:
336,264,57431,1,0,0:0:0:0:
313,314,57506,1,0,0:0:0:0:
264,340,57580,1,0,0:0:0:0:
210,329,57655,1,0,0:0:0:0:
174,288,57730,1,0,0:0:0:0:
172,232,57804,1,0,0:0:0:0:
204,188,57879,1,0,0:0:0:0:
251,157,57954,5,0,0:0:0:0:
283,112,58028,1,0,0:0:0:0:
281,57,58103,1,0,0:0:0:0:
244,15,58177,1,0,0:0:0:0:
190,4,58252,1,0,0:0:0:0:
141,30,58327,1,0,0:0:0:0:
119,80,58401,1,0,0:0:0:0:
132,134,58476,1,0,0:0:0:0:
203,87,58551,5,2,0:0:0:0:
472,195,58700,1,8,0:0:0:0:
472,195,58999,5,8,0:0:0:0:
91,313,59148,1,2,0:0:0:0:
369,108,59297,1,8,0:0:0:0:
369,108,59596,6,0,L|337:187,1,67.5,2|0,0:0|0:0,0:0:0:0:
316,233,59894,1,8,0:0:0:0:
47,55,60043,1,2,0:0:0:0:
52,227,60342,6,0,P|98:257|153:253,1,101.250003862381
210,199,60640,6,0,P|278:197|356:265,1,161.999995056153
376,341,60939,6,0,B|407:297|407:297|401:243|401:243|432:179|406:90,1,222.75000212431,4|0,0:0|0:0,0:0:0:0:
383,24,61237,1,2,0:0:0:0:
90,148,61387,2,0,P|84:171|88:235,1,74.2500007081032,8|0,0:0|0:0,0:0:0:0:
376,341,61536,1,8,0:0:0:0:
32,366,61685,1,0,0:0:0:0:
340,197,61834,2,0,P|437:191|494:233,1,148.500001416206,2|0,0:0|0:0,0:0:0:0:
190,368,62133,6,0,L|227:213,1,148.500001416206,8|0,0:0|0:0,0:0:0:0:
148,116,62357,1,0,0:0:0:0:
117,74,62431,2,0,P|107:39|107:-1,1,74.2500007081032,2|0,0:0|0:0,0:0:0:0:
461,127,62581,2,0,L|438:203,1,74.2500007081032
95,260,62730,1,8,0:0:0:0:
323,7,62879,1,8,0:0:0:0:
322,308,63028,2,0,P|396:360|460:360,1,148.500001416206,2|0,0:0|0:0,0:0:0:0:
298,63,63327,6,0,P|216:49|86:115,1,222.75000212431
31,200,63625,1,2,0:0:0:0:
339,241,63775,2,0,L|431:247,1,74.2500007081032,8|0,0:0|0:0,0:0:0:0:
95,384,63924,1,0,0:0:0:0:
265,131,64073,2,0,P|268:46|221:-9,1,148.500001416206,8|2,0:0|0:0,0:0:0:0:
5,158,64372,2,0,L|77:141,1,74.2500007081032,8|0,0:0|0:0,0:0:0:0:
211,301,64521,6,0,L|372:266,1,148.500001416206,8|0,0:0|0:0,0:0:0:0:
456,172,64745,1,8,0:0:0:0:
418,136,64819,2,0,L|273:97,1,148.500001416206,2|0,0:0|0:0,0:0:0:0:
70,60,65118,5,0,0:0:0:0:
105,97,65192,1,0,0:0:0:0:
119,146,65267,1,0,0:0:0:0:
109,197,65341,1,0,0:0:0:0:
37,261,65416,5,0,0:0:0:0:
99,221,65490,1,0,0:0:0:0:
172,211,65565,1,0,0:0:0:0:
242,233,65639,1,0,0:0:0:0:
316,300,65715,6,0,L|343:145,1,148.500001416206,12|0,0:0|0:0,0:0:0:0:
28,283,66013,1,2,0:0:0:0:
362,384,66163,2,0,P|414:307|413:251,1,148.500001416206
168,46,66461,2,0,L|82:68,1,74.2500007081032,8|0,0:0|0:0,0:0:0:0:
172,338,66611,2,0,L|323:298,1,148.500001416206,2|0,0:0|0:0,0:0:0:0:
442,230,66834,1,0,0:0:0:0:
403,195,66909,6,0,P|376:157|367:106,1,74.2500007081032,8|0,0:0|0:0,0:0:0:0:
469,13,67058,1,0,0:0:0:0:
469,13,67133,1,8,0:0:0:0:
469,13,67208,2,0,L|309:24,1,148.500001416206,2|0,0:0|0:0,0:0:0:0:
55,111,67506,6,0,P|99:120|137:146,1,74.2500007081032,8|0,0:0|0:0,0:0:0:0:
169,285,67655,1,8,0:0:0:0:
169,285,67730,1,0,0:0:0:0:
169,285,67805,2,0,L|342:285,1,148.500001416206,2|0,0:0|0:0,0:0:0:0:
238,33,68103,5,8,0:0:0:0:
468,325,68252,1,8,0:0:0:0:
176,77,68402,2,8,P|191:115|228:155,1,74.2500007081032,10|8,0:0|0:0,0:0:0:0:
461,287,68551,1,8,0:0:0:0:
124,133,68700,2,8,P|144:166|190:211,1,74.2500007081032,2|8,0:0|0:0,0:0:0:0:
443,253,68849,2,8,P|423:237|369:214,1,74.2500007081032
92,202,68999,1,10,0:0:0:0:
416,224,69148,2,8,P|378:217|327:225,1,74.2500007081032
184,333,69297,5,0,0:0:0:0:
221,298,69371,1,0,0:0:0:0:
236,249,69446,1,0,0:0:0:0:
223,199,69520,1,0,0:0:0:0:
186,163,69595,1,0,0:0:0:0:
136,151,69670,1,0,0:0:0:0:
87,167,69744,1,0,0:0:0:0:
54,205,69819,1,0,0:0:0:0:
42,256,69894,5,0,0:0:0:0:
44,174,69968,1,0,0:0:0:0:
77,100,70043,1,0,0:0:0:0:
135,43,70117,1,0,0:0:0:0:
209,12,70192,1,0,0:0:0:0:
291,10,70267,1,0,0:0:0:0:
366,39,70341,1,0,0:0:0:0:
426,94,70416,1,0,0:0:0:0:
453,171,70491,6,0,B|392:338|392:338|363:265,1,222.75000212431,8|0,0:0|0:0,0:0:0:0:
336,189,70790,1,2,0:0:0:0:
89,79,70939,2,0,P|38:79|-11:89,1,74.2500007081032
184,340,71088,1,0,0:0:0:0:
281,25,71237,1,8,0:0:0:0:
46,217,71387,2,0,P|39:299|85:382,1,148.500001416206,2|0,0:0|0:0,0:0:0:0:
409,262,71685,5,8,0:0:0:0:
160,91,71834,1,0,0:0:0:0:
160,91,71909,1,0,0:0:0:0:
160,91,71984,1,2,0:0:0:0:
261,371,72133,1,0,0:0:0:0:
96,176,72282,2,0,P|81:142|83:89,1,74.2500007081032,8|0,0:0|0:0,0:0:0:0:
373,224,72431,2,0,P|359:267|336:295,1,74.2500007081032,8|0,0:0|0:0,0:0:0:0:
294,23,72581,2,0,P|208:0|107:37,1,148.500001416206,2|0,0:0|0:0,0:0:0:0:
44,121,72805,1,0,0:0:0:0:
83,164,72879,6,0,B|133:311|133:311|221:342,1,222.75000212431
304,368,73178,1,2,0:0:0:0:
294,23,73327,2,0,P|208:0|107:37,1,148.500001416206
229,164,73625,1,0,0:0:0:0:
229,164,73700,1,0,0:0:0:0:
229,164,73775,2,0,P|231:212|210:269,1,74.2500007081032,2|0,0:0|0:0,0:0:0:0:
0,340,73924,2,0,P|-2:292|19:235,1,74.2500007081032
42,60,74073,5,0,0:0:0:0:
95,10,74147,1,0,0:0:0:0:
168,0,74222,1,0,0:0:0:0:
235,28,74296,1,0,0:0:0:0:
310,9,74372,5,0,0:0:0:0:
351,39,74446,1,0,0:0:0:0:
401,51,74521,1,0,0:0:0:0:
452,41,74595,1,0,0:0:0:0:
495,1,74670,5,0,0:0:0:0:
462,18,74744,1,0,0:0:0:0:
441,48,74819,1,0,0:0:0:0:
437,85,74893,1,0,0:0:0:0:
484,149,74969,5,0,0:0:0:0:
469,228,75043,1,0,0:0:0:0:
414,287,75118,1,0,0:0:0:0:
336,306,75192,1,0,0:0:0:0:
260,280,75267,1,0,0:0:0:0:
260,280,75715,5,0,0:0:0:0:
27,126,75864,2,0,P|87:62|231:73,1,207.000003948212
431,244,76461,6,0,L|216:217,1,207.000003948212
90,337,76909,1,0,0:0:0:0:
387,152,77058,2,0,L|172:125,1,207.000003948212
29,329,77655,6,0,B|166:366|166:366|248:323|248:323|258:226|258:226|150:287|150:287|42:256|42:256|133:201,1,672.750012831688
152,186,78700,1,10,0:0:0:0:
449,98,79148,5,2,0:0:0:0:
449,98,79446,5,0,0:0:0:0:
438,141,79521,1,0,0:0:0:0:
428,184,79596,1,0,0:0:0:0:
418,226,79670,1,0,0:0:0:0:
411,308,79745,5,0,0:0:0:0:
356,277,79819,1,0,0:0:0:0:
293,269,79894,1,0,0:0:0:0:
230,278,79969,1,0,0:0:0:0:
158,315,80043,6,0,P|102:324|16:289,1,125.999996154785,8|0,0:0|0:0,0:0:0:0:
59,38,80342,1,2,0:0:0:0:
252,202,80491,2,0,L|392:187,1,125.999996154785,8|0,0:0|0:0,0:0:0:0:
382,0,80790,1,8,0:0:0:0:
166,151,80939,2,0,P|163:248|220:297,1,125.999996154785,2|0,0:0|0:0,0:0:0:0:
464,329,81237,5,0,0:0:0:0:
261,39,81387,2,0,L|282:125,1,62.9999980773926
322,313,81536,1,2,0:0:0:0:
425,84,81685,1,8,0:0:0:0:
196,197,81834,1,0,0:0:0:0:
406,230,81984,1,8,0:0:0:0:
406,230,82058,1,0,0:0:0:0:
406,230,82133,2,0,P|411:306|371:363,1,125.999996154785,2|0,0:0|0:0,0:0:0:0:
265,307,82357,1,0,0:0:0:0:
228,282,82431,6,0,L|73:300,1,125.999996154785,8|0,0:0|0:0,0:0:0:0:
21,61,82730,1,2,0:0:0:0:
235,199,82879,2,0,P|310:195|368:149,1,125.999996154785,8|0,0:0|0:0,0:0:0:0:
96,11,83178,2,0,L|69:80,1,62.9999980773926,8|0,0:0|0:0,0:0:0:0:
6,253,83327,2,0,L|104:348,1,125.999996154785,2|0,0:0|0:0,0:0:0:0:
292,72,83625,5,8,0:0:0:0:
225,364,83775,1,0,0:0:0:0:
144,134,83924,1,2,0:0:0:0:
346,267,84073,1,0,0:0:0:0:
161,230,84222,6,0,P|122:239|83:260,1,62.9999980773926
380,348,84372,2,0,P|403:352|451:344,1,62.9999980773926
234,107,84521,2,0,P|219:144|213:192,1,62.9999980773926
486,178,84670,2,0,P|460:163|400:157,1,62.9999980773926
272,338,84819,5,8,0:0:0:0:
314,35,84969,1,0,0:0:0:0:
96,257,85118,1,2,0:0:0:0:
407,257,85267,2,0,L|491:256,1,62.9999980773926,8|0,0:0|0:0,0:0:0:0:
212,119,85416,2,0,L|44:120,1,125.999996154785,8|0,0:0|0:0,0:0:0:0:
196,327,85715,1,2,0:0:0:0:
196,327,85790,1,0,0:0:0:0:
196,327,85864,2,0,L|280:326,1,62.9999980773926,8|0,0:0|0:0,0:0:0:0:
374,95,86013,5,8,0:0:0:0:
441,349,86163,1,0,0:0:0:0:
195,215,86312,1,2,0:0:0:0:
467,210,86461,2,0,L|384:211,1,62.9999980773926
258,323,86611,1,0,0:0:0:0:
256,68,86760,1,0,0:0:0:0:
391,281,86909,1,2,0:0:0:0:
391,281,86984,1,0,0:0:0:0:
391,281,87058,2,0,P|393:326|383:364,1,62.9999980773926
113,345,87208,5,8,0:0:0:0:
152,128,87357,2,0,L|175:2,1,125.999996154785,0|2,0:0|0:0,0:0:0:0:
14,187,87655,2,0,P|15:224|31:274,1,62.9999980773926
236,166,87805,2,0,P|316:165|379:197,1,125.999996154785
435,246,88028,1,0,0:0:0:0:
462,280,88103,2,0,P|480:245|481:209,1,62.9999980773926,2|0,0:0|0:0,0:0:0:0:
206,289,88252,2,0,P|199:342|208:372,1,62.9999980773926,8|0,0:0|0:0,0:0:0:0:
352,325,88402,5,0,0:0:0:0:
373,286,88476,1,0,0:0:0:0:
373,243,88551,1,0,0:0:0:0:
352,204,88625,1,0,0:0:0:0:
289,154,88700,5,0,0:0:0:0:
267,115,88774,1,0,0:0:0:0:
267,72,88849,1,0,0:0:0:0:
288,33,88923,1,0,0:0:0:0:
368,56,88999,5,0,0:0:0:0:
339,111,89073,1,0,0:0:0:0:
293,154,89148,1,0,0:0:0:0:
236,179,89222,1,0,0:0:0:0:
173,182,89297,1,0,0:0:0:0:
113,164,89372,1,0,0:0:0:0:
63,126,89446,1,0,0:0:0:0:
29,73,89521,1,0,0:0:0:0:
256,192,89596,12,0,90790,0:0:0:0:
191,249,91088,6,0,L|163:149,1,90
269,180,91536,2,0,P|335:174|368:150,1,90
286,61,91984,2,0,B|213:36|213:36|223:59,1,90
163,135,92431,6,0,P|126:160|71:162,1,90
149,226,92879,2,0,L|190:255,1,45
275,265,93178,6,0,P|272:365|157:325,1,247.5,2|0,0:0|0:0,0:0:0:0:
160,337,94073,2,0,P|121:318|71:322,1,90
142,206,94670,6,0,P|190:187|237:191,1,90
372,274,95118,2,0,L|353:184,1,90
402,79,95566,6,0,B|307:40|307:40|274:67|274:67|235:51|235:51|201:74,1,225,2|0,0:0|0:0,0:0:0:0:
204,73,96461,2,0,P|166:93|74:69,1,135
112,159,97058,6,0,B|114:198|99:230|64:253|64:253|92:248,1,135
203,247,97655,5,0,0:0:0:0:
294,119,97805,1,0,0:0:0:0:
319,236,97954,6,0,L|349:369,1,112.5,2|0,0:0|0:0,0:0:0:0:
431,253,98178,2,0,B|408:138|408:138|371:90,1,168.75,2|0,0:0|0:0,0:0:0:0:
301,156,98476,2,0,P|246:177|179:162,1,112.5
128,77,98700,5,0,0:0:0:0:
128,77,98775,1,0,0:0:0:0:
128,77,98849,2,0,L|117:142,1,56.25
26,272,98999,2,0,L|11:209,1,56.25
148,223,99148,5,0,0:0:0:0:
185,211,99222,1,0,0:0:0:0:
224,209,99297,1,0,0:0:0:0:
263,216,99371,1,0,0:0:0:0:
299,231,99446,1,0,0:0:0:0:
330,255,99521,1,0,0:0:0:0:
356,285,99595,1,0,0:0:0:0:
373,320,99670,1,0,0:0:0:0:
329,381,99745,5,0,0:0:0:0:
309,328,99819,1,0,0:0:0:0:
313,273,99894,1,0,0:0:0:0:
342,225,99968,1,0,0:0:0:0:
373,178,100043,1,0,0:0:0:0:
392,125,100117,1,0,0:0:0:0:
388,70,100192,1,0,0:0:0:0:
359,22,100266,1,0,0:0:0:0:
307,3,100342,5,8,0:0:0:0:
304,105,100640,5,0,0:0:0:0:
50,25,100790,1,8,0:0:0:0:
161,168,100939,1,8,0:0:0:0:
50,25,101237,5,8,0:0:0:0:
161,168,101387,1,8,0:0:0:0:
28,131,101536,1,0,0:0:0:0:
228,95,101685,2,8,L|332:77,1,103.500001974106
440,229,101984,5,0,0:0:0:0:
292,207,102133,2,8,L|184:190,1,103.500001974106
86,310,102431,6,0,L|67:319,6,17.2500003290176
52,114,102730,6,0,L|156:96,1,103.500001974106
346,126,103028,1,0,0:0:0:0:
346,126,103178,1,0,0:0:0:0:
187,207,103327,1,0,0:0:0:0:
361,256,103476,1,0,0:0:0:0:
361,256,103625,2,0,L|483:287,1,103.500001974106
205,331,103924,5,8,0:0:0:0:
346,132,104073,2,0,L|403:44,1,103.500001974106
273,352,104372,5,8,0:0:0:0:
261,103,104521,2,0,L|258:-3,1,103.500001974106
343,352,104819,5,8,0:0:0:0:
172,109,104969,1,0,0:0:0:0:
48,302,105118,5,0,0:0:0:0:
299,255,105267,1,0,0:0:0:0:
150,205,105416,1,0,0:0:0:0:
320,265,105566,1,0,0:0:0:0:
252,108,105715,1,0,0:0:0:0:
333,286,105864,1,0,0:0:0:0:
354,11,106013,1,0,0:0:0:0:
271,323,106163,1,0,0:0:0:0:
271,323,106237,1,0,0:0:0:0:
271,323,106312,6,0,L|133:306,1,125.999996154785
62,48,106611,5,0,0:0:0:0:
386,122,106760,1,0,0:0:0:0:
21,149,106909,5,0,0:0:0:0:
414,38,107058,1,0,0:0:0:0:
1,81,107208,5,0,0:0:0:0:
456,177,107357,1,0,0:0:0:0:
185,0,107506,5,0,0:0:0:0:
157,41,107580,1,0,0:0:0:0:
150,91,107655,1,0,0:0:0:0:
164,139,107729,1,0,0:0:0:0:
194,180,107805,1,0,0:0:0:0:
221,221,107879,1,0,0:0:0:0:
228,271,107954,1,0,0:0:0:0:
214,319,108028,1,0,0:0:0:0:
135,347,108103,5,0,0:0:0:0:
109,290,108177,1,0,0:0:0:0:
119,229,108252,1,0,0:0:0:0:
161,183,108326,1,0,0:0:0:0:
221,169,108401,1,0,0:0:0:0:
280,190,108476,1,0,0:0:0:0:
316,240,108550,1,0,0:0:0:0:
319,302,108625,1,0,0:0:0:0:
287,355,108700,5,2,0:0:0:0:
46,83,108849,1,8,0:0:0:0:
46,83,109148,5,8,0:0:0:0:
391,208,109297,1,2,0:0:0:0:
82,241,109446,1,8,0:0:0:0:
82,241,109745,6,0,L|143:182,1,67.5
182,150,110043,1,8,0:0:0:0:
425,335,110193,6,0,L|447:352,10,20.9999993591309
403,304,110491,6,0,P|366:280|292:276,1,101.250003862381
236,318,110790,6,0,P|169:328|74:265,1,161.999995056153
72,188,111088,6,0,B|17:18|17:18|95:57,1,222.75000212431
166,63,111387,1,2,0:0:0:0:
209,314,111536,2,0,P|218:357|237:397,1,74.2500007081032
481,116,111685,1,0,0:0:0:0:
97,140,111834,1,8,0:0:0:0:
373,270,111984,2,0,L|508:334,1,148.500001416206,2|0,0:0|0:0,0:0:0:0:
165,360,112282,5,8,0:0:0:0:
226,69,112431,1,0,0:0:0:0:
226,69,112506,1,0,0:0:0:0:
226,69,112581,1,2,0:0:0:0:
21,257,112730,1,0,0:0:0:0:
322,121,112879,2,0,P|332:86|331:41,1,74.2500007081032,8|0,0:0|0:0,0:0:0:0:
45,77,113028,2,0,P|35:112|36:157,1,74.2500007081032,8|0,0:0|0:0,0:0:0:0:
259,334,113178,2,0,L|420:290,1,148.500001416206,2|0,0:0|0:0,0:0:0:0:
473,79,113476,6,0,B|442:79|442:79|393:55|393:55|328:93|241:69,1,222.75000212431
148,53,113775,1,2,0:0:0:0:
395,215,113924,2,0,L|468:253,1,74.2500007081032,8|0,0:0|0:0,0:0:0:0:
135,331,114073,1,0,0:0:0:0:
300,33,114222,1,8,0:0:0:0:
382,314,114372,2,0,P|313:365|238:359,1,148.500001416206,2|0,0:0|0:0,0:0:0:0:
29,124,114670,6,0,L|192:140,1,148.500001416206,8|0,0:0|0:0,0:0:0:0:
307,64,114894,1,0,0:0:0:0:
356,47,114969,2,0,P|398:47|444:62,1,74.2500007081032,2|0,0:0|0:0,0:0:0:0:
339,322,115118,2,0,P|291:297|267:271,1,74.2500007081032
241,100,115267,5,0,0:0:0:0:
191,83,115342,1,0,0:0:0:0:
142,66,115416,1,0,0:0:0:0:
92,49,115491,1,0,0:0:0:0:
5,7,115566,5,0,0:0:0:0:
49,65,115640,1,0,0:0:0:0:
69,136,115715,1,0,0:0:0:0:
68,210,115790,1,0,0:0:0:0:
19,292,115864,6,0,L|179:263,1,148.500001416206,12|0,0:0|0:0,0:0:0:0:
445,362,116163,1,2,0:0:0:0:
309,51,116312,1,8,0:0:0:0:
201,361,116461,1,0,0:0:0:0:
446,172,116611,2,0,P|458:134|461:89,1,74.2500007081032,8|0,0:0|0:0,0:0:0:0:
193,137,116760,2,0,P|123:126|59:60,1,148.500001416206,2|0,0:0|0:0,0:0:0:0:
384,29,117058,6,0,L|418:101,1,74.2500007081032,8|0,0:0|0:0,0:0:0:0:
258,215,117208,1,0,0:0:0:0:
258,215,117282,1,8,0:0:0:0:
258,215,117357,2,0,L|219:363,1,148.500001416206,2|0,0:0|0:0,0:0:0:0:
385,177,117655,6,0,L|353:109,1,74.2500007081032,8|0,0:0|0:0,0:0:0:0:
147,130,117805,1,8,0:0:0:0:
147,130,117879,1,0,0:0:0:0:
147,130,117954,2,0,L|-20:108,1,148.500001416206,2|0,0:0|0:0,0:0:0:0:
134,348,118252,5,8,0:0:0:0:
512,171,118402,1,8,0:0:0:0:
163,361,118551,2,0,P|208:333|230:303,1,74.2500007081032,2|0,0:0|0:0,0:0:0:0:
445,81,118700,1,0,0:0:0:0:
195,368,118849,2,8,P|227:328|237:293,1,74.2500007081032,2|8,0:0|0:0,0:0:0:0:
346,23,118999,2,0,P|354:54|348:112,1,74.2500007081032,0|8,0:0|0:0,0:0:0:0:
228,371,119148,1,2,0:0:0:0:
233,11,119297,2,8,P|249:34|262:84,1,74.2500007081032
136,357,119446,5,0,0:0:0:0:
88,376,119520,1,0,0:0:0:0:
38,363,119595,1,0,0:0:0:0:
4,325,119669,1,0,0:0:0:0:
0,274,119744,1,0,0:0:0:0:
23,229,119819,1,0,0:0:0:0:
69,206,119893,1,0,0:0:0:0:
119,213,119968,1,0,0:0:0:0:
159,247,120043,5,0,0:0:0:0:
210,309,120117,1,0,0:0:0:0:
284,343,120192,1,0,0:0:0:0:
365,342,120266,1,0,0:0:0:0:
438,306,120341,1,0,0:0:0:0:
488,243,120416,1,0,0:0:0:0:
507,164,120490,1,0,0:0:0:0:
490,85,120565,1,0,0:0:0:0:
440,21,120640,6,0,B|399:8|399:8|364:25|364:25|291:1|219:24,1,222.75000212431,8|0,0:0|0:0,0:0:0:0:
126,79,120939,1,2,0:0:0:0:
380,218,121088,2,0,L|451:257,1,74.2500007081032,8|0,0:0|0:0,0:0:0:0:
66,289,121237,1,0,0:0:0:0:
271,36,121387,1,8,0:0:0:0:
263,296,121536,2,0,L|405:377,1,148.500001416206,2|0,0:0|0:0,0:0:0:0:
179,82,121834,6,0,P|99:92|38:140,1,148.500001416206,8|0,0:0|0:0,0:0:0:0:
355,170,122133,2,0,P|374:143|385:87,1,74.2500007081032,2|0,0:0|0:0,0:0:0:0:
94,245,122282,1,8,0:0:0:0:
411,282,122431,1,0,0:0:0:0:
154,140,122581,1,8,0:0:0:0:
154,140,122655,1,0,0:0:0:0:
154,140,122730,2,0,P|144:59|173:-1,1,148.500001416206,2|0,0:0|0:0,0:0:0:0:
462,160,123028,6,0,B|495:343|495:343|435:292,1,222.75000212431,8|0,0:0|0:0,0:0:0:0:
376,251,123327,1,2,0:0:0:0:
150,293,123476,2,0,L|-5:321,1,148.500001416206,8|0,0:0|0:0,0:0:0:0:
84,80,123775,1,8,0:0:0:0:
129,104,123849,1,8,0:0:0:0:
180,111,123924,1,10,0:0:0:0:
231,101,123998,1,8,0:0:0:0:
275,73,124073,1,8,0:0:0:0:
275,73,124372,5,0,0:0:0:0:
181,351,124521,1,0,0:0:0:0:
181,351,124819,5,0,0:0:0:0:
209,307,124893,1,0,0:0:0:0:
250,276,124968,1,0,0:0:0:0:
299,259,125042,1,0,0:0:0:0:
397,273,125118,5,0,0:0:0:0:
366,206,125192,1,0,0:0:0:0:
376,133,125267,1,0,0:0:0:0:
422,76,125341,1,0,0:0:0:0:
494,55,125416,1,0,0:0:0:0:
494,55,125864,5,0,0:0:0:0:
466,267,126013,2,0,P|397:298|274:241,1,207.000003948212
173,98,126611,6,0,P|118:87|7:184,1,207.000003948212
211,279,127058,1,0,0:0:0:0:
269,110,127208,2,0,P|230:26|84:18,1,207.000003948212
100,255,127805,6,0,B|227:196|227:196|208:276|208:276|168:294|168:294|159:367|159:367|279:315|279:315|302:212|302:212|402:157,1,672.750012831688,10|0,0:0|0:0,0:0:0:0:
409,153,128849,1,2,0:0:0:0:
73,37,129297,5,2,0:0:0:0:
82,150,129596,5,0,0:0:0:0:
86,193,129670,1,0,0:0:0:0:
90,237,129745,1,0,0:0:0:0:
95,280,129819,1,0,0:0:0:0:
71,358,129894,5,0,0:0:0:0:
118,317,129968,1,0,0:0:0:0:
177,294,130043,1,0,0:0:0:0:
239,291,130117,1,0,0:0:0:0:
317,324,130193,6,0,P|394:329|459:294,1,125.999996154785,8|0,0:0|0:0,0:0:0:0:
324,39,130491,1,2,0:0:0:0:
170,228,130640,2,0,L|25:228,1,125.999996154785,8|0,0:0|0:0,0:0:0:0:
184,46,130939,1,8,0:0:0:0:
364,232,131088,1,2,0:0:0:0:
63,117,131237,1,0,0:0:0:0:
309,47,131387,5,8,0:0:0:0:
249,311,131536,1,0,0:0:0:0:
249,311,131611,1,0,0:0:0:0:
249,311,131685,1,2,0:0:0:0:
146,85,131834,1,0,0:0:0:0:
350,193,131984,2,0,L|409:225,1,62.9999980773926
360,238,132133,2,0,L|419:270,1,62.9999980773926
150,285,132282,1,2,0:0:0:0:
314,123,132431,1,0,0:0:0:0:
314,123,132506,1,0,0:0:0:0:
314,123,132581,6,0,P|303:49|266:2,1,125.999996154785,8|0,0:0|0:0,0:0:0:0:
20,157,132879,1,2,0:0:0:0:
226,289,133028,2,0,L|373:257,1,125.999996154785,8|0,0:0|0:0,0:0:0:0:
441,178,133252,1,0,0:0:0:0:
460,138,133327,2,0,P|460:108|441:51,1,62.9999980773926
243,124,133476,2,0,P|173:116|118:82,1,125.999996154785,2|0,0:0|0:0,0:0:0:0:
356,22,133775,5,8,0:0:0:0:
299,269,133924,1,0,0:0:0:0:
244,36,134073,1,2,0:0:0:0:
461,163,134222,1,0,0:0:0:0:
236,154,134372,6,0,P|187:167|163:187,1,62.9999980773926
428,300,134521,2,0,P|434:272|429:234,1,62.9999980773926
201,288,134670,2,0,P|174:289|133:275,1,62.9999980773926
316,71,134819,2,0,P|349:52|384:46,1,62.9999980773926
346,275,134969,5,8,0:0:0:0:
108,129,135118,1,0,0:0:0:0:
391,161,135267,1,2,0:0:0:0:
161,260,135416,2,0,L|89:288,1,62.9999980773926,8|0,0:0|0:0,0:0:0:0:
22,74,135566,2,0,P|86:30|155:39,1,125.999996154785
303,162,135864,1,2,0:0:0:0:
303,162,135939,1,0,0:0:0:0:
303,162,136013,2,0,L|361:139,1,62.9999980773926
202,11,136163,5,8,0:0:0:0:
28,244,136312,1,0,0:0:0:0:
108,35,136461,1,2,0:0:0:0:
193,266,136611,2,0,L|214:327,1,62.9999980773926
10,149,136760,1,0,0:0:0:0:
276,96,136909,1,8,0:0:0:0:
112,239,137058,1,2,0:0:0:0:
112,239,137133,1,0,0:0:0:0:
112,239,137208,2,0,P|111:288|125:319,1,62.9999980773926
361,252,137357,5,8,0:0:0:0:
131,87,137506,1,0,0:0:0:0:
429,88,137655,1,2,0:0:0:0:
204,208,137805,2,0,P|161:206|126:192,1,62.9999980773926
318,20,137954,2,0,P|350:101|336:158,1,125.999996154785,0|8,0:0|0:0,0:0:0:0:
294,226,138178,1,0,0:0:0:0:
284,268,138252,2,0,P|291:302|316:341,1,62.9999980773926,2|0,0:0|0:0,0:0:0:0:
429,88,138402,2,0,P|423:45|401:10,1,62.9999980773926
221,87,138551,5,0,0:0:0:0:
179,102,138625,1,0,0:0:0:0:
135,103,138700,1,0,0:0:0:0:
94,90,138774,1,0,0:0:0:0:
56,17,138849,5,0,0:0:0:0:
109,49,138923,1,0,0:0:0:0:
137,104,138998,1,0,0:0:0:0:
131,166,139072,1,0,0:0:0:0:
105,225,139148,1,0,0:0:0:0:
99,287,139222,1,0,0:0:0:0:
127,342,139297,1,0,0:0:0:0:
181,374,139371,1,0,0:0:0:0:
244,321,139446,5,0,0:0:0:0:
274,311,139521,1,0,0:0:0:0:
304,301,139596,1,0,0:0:0:0:
333,292,139670,1,0,0:0:0:0:
368,281,139745,5,4,0:0:0:0:
415,25,148103,5,0,0:0:0:0:
411,56,148178,1,0,0:0:0:0:
407,87,148252,1,0,0:0:0:0:
403,118,148327,1,0,0:0:0:0:
348,170,148402,5,0,0:0:0:0:
352,201,148477,1,0,0:0:0:0:
356,232,148551,1,0,0:0:0:0:
360,263,148626,1,0,0:0:0:0:
412,316,148700,5,0,0:0:0:0:
372,296,148774,1,0,0:0:0:0:
329,292,148849,1,0,0:0:0:0:
287,307,148923,1,0,0:0:0:0:
211,301,148999,5,0,0:0:0:0:
169,316,149073,1,0,0:0:0:0:
126,312,149148,1,0,0:0:0:0:
87,293,149222,1,0,0:0:0:0:
34,239,149297,5,2,0:0:0:0:
226,101,149446,2,0,P|261:53|261:-15,1,103.500001974106,0|2,0:0|0:0,0:0:0:0:
1,76,149745,2,0,L|66:176,1,103.500001974106,8|0,0:0|0:0,0:0:0:0:
99,345,150043,2,0,P|151:321|229:336,1,103.500001974106,0|2,0:0|0:0,0:0:0:0:
396,370,150342,1,0,0:0:0:0:
261,121,150491,5,8,0:0:0:0:
439,275,150640,1,0,0:0:0:0:
144,209,150790,2,0,L|37:182,1,103.500001974106,2|0,0:0|0:0,0:0:0:0:
246,348,151088,5,8,0:0:0:0:
203,48,151237,1,8,0:0:0:0:
88,276,151387,2,0,L|35:373,1,103.500001974106,2|0,0:0|0:0,0:0:0:0:
44,83,151685,5,2,0:0:0:0:
236,238,151834,2,0,P|292:245|347:226,1,103.500001974106,8|2,0:0|0:0,0:0:0:0:
172,16,152133,2,0,L|125:126,1,103.500001974106,8|0,0:0|0:0,0:0:0:0:
153,279,152431,2,0,P|129:343|86:371,1,103.500001974106,8|2,0:0|0:0,0:0:0:0:
0,138,152730,1,0,0:0:0:0:
225,48,152879,5,8,0:0:0:0:
402,331,153028,1,0,0:0:0:0:
357,102,153178,2,0,L|338:-7,1,103.500001974106,2|0,0:0|0:0,0:0:0:0:
206,203,153476,6,0,P|140:217|96:201,2,103.500001974106
206,203,154073,5,0,0:0:0:0:
417,300,154222,2,0,L|516:342,1,103.500001974106,8|2,0:0|0:0,0:0:0:0:
349,117,154521,2,0,P|341:47|365:-6,1,103.500001974106,8|0,0:0|0:0,0:0:0:0:
431,218,154819,2,0,L|300:257,1,103.500001974106,8|2,0:0|0:0,0:0:0:0:
110,130,155118,1,0,0:0:0:0:
113,358,155267,5,0,0:0:0:0:
14,48,155416,1,0,0:0:0:0:
185,255,155566,2,0,L|256:337,1,103.500001974106,2|0,0:0|0:0,0:0:0:0:
383,141,155864,5,8,0:0:0:0:
52,213,156013,1,0,0:0:0:0:
265,71,156163,2,0,L|355:10,1,103.500001974106,2|0,0:0|0:0,0:0:0:0:
325,290,156461,5,8,0:0:0:0:
325,290,156760,5,2,0:0:0:0:
117,110,156909,2,0,L|29:24,1,103.500001974106,8|0,0:0|0:0,0:0:0:0:
63,325,157208,1,8,0:0:0:0:
240,121,157357,2,0,P|304:107|364:115,1,103.500001974106,2|0,0:0|0:0,0:0:0:0:
419,282,157655,6,0,L|400:345,1,62.9999980773926
226,281,157805,2,0,L|204:205,1,62.9999980773926
404,134,157954,6,0,P|395:170|374:205,1,62.9999980773926,2|0,0:0|0:0,0:0:0:0:
145,178,158103,2,0,P|131:149|124:119,1,62.9999980773926
273,14,158252,5,0,0:0:0:0:
304,52,158326,1,0,0:0:0:0:
313,101,158401,1,0,0:0:0:0:
295,148,158475,1,0,0:0:0:0:
255,179,158551,1,2,0:0:0:0:
223,217,158625,1,0,0:0:0:0:
214,266,158700,1,0,0:0:0:0:
232,313,158774,1,0,0:0:0:0:
277,338,158849,5,2,0:0:0:0:
163,149,158999,2,0,P|110:126|44:136,1,103.500001974106,8|2,0:0|0:0,0:0:0:0:
5,379,159297,2,0,L|131:331,1,103.500001974106,8|0,0:0|0:0,0:0:0:0:
297,220,159596,2,0,P|364:231|423:218,1,103.500001974106,8|2,0:0|0:0,0:0:0:0:
455,22,159894,1,0,0:0:0:0:
154,166,160043,5,8,0:0:0:0:
452,146,160193,1,0,0:0:0:0:
102,53,160342,2,0,L|-9:24,1,103.500001974106,2|0,0:0|0:0,0:0:0:0:
203,293,160640,5,8,0:0:0:0:
154,0,160790,1,0,0:0:0:0:
350,295,160939,2,0,L|413:383,1,103.500001974106,2|0,0:0|0:0,0:0:0:0:
80,340,161237,5,2,0:0:0:0:
142,112,161387,2,0,P|191:66|248:50,1,103.500001974106,8|2,0:0|0:0,0:0:0:0:
410,249,161685,2,0,L|402:366,1,103.500001974106,8|0,0:0|0:0,0:0:0:0:
182,218,161984,2,0,P|112:203|42:222,1,103.500001974106,8|2,0:0|0:0,0:0:0:0:
242,368,162282,1,0,0:0:0:0:
121,85,162431,5,8,0:0:0:0:
445,149,162581,1,0,0:0:0:0:
102,203,162730,2,0,L|-4:220,1,103.500001974106,2|0,0:0|0:0,0:0:0:0:
344,218,163028,5,8,0:0:0:0:
177,13,163178,1,0,0:0:0:0:
238,281,163327,2,0,L|264:383,1,103.500001974106,2|0,0:0|0:0,0:0:0:0:
485,213,163625,5,0,0:0:0:0:
501,156,163699,1,0,0:0:0:0:
487,99,163774,1,0,0:0:0:0:
446,57,163848,1,0,0:0:0:0:
389,41,163923,1,0,0:0:0:0:
332,55,163998,1,0,0:0:0:0:
290,96,164072,1,0,0:0:0:0:
274,152,164147,1,0,0:0:0:0:
332,205,164222,5,0,0:0:0:0:
315,246,164297,1,0,0:0:0:0:
298,287,164372,1,0,0:0:0:0:
282,328,164446,1,0,0:0:0:0:
214,287,164521,5,0,0:0:0:0:
185,279,164596,1,0,0:0:0:0:
155,283,164670,1,0,0:0:0:0:
130,300,164745,1,0,0:0:0:0:
93,368,164819,5,0,0:0:0:0:
45,333,164893,1,0,0:0:0:0:
27,278,164968,1,0,0:0:0:0:
44,222,165042,1,0,0:0:0:0:
79,173,165118,1,0,0:0:0:0:
95,117,165192,1,0,0:0:0:0:
77,61,165267,1,0,0:0:0:0:
30,27,165341,1,0,0:0:0:0:
0,102,165416,5,0,0:0:0:0:
24,179,165490,1,0,0:0:0:0:
74,243,165565,1,0,0:0:0:0:
144,285,165639,1,0,0:0:0:0:
223,299,165714,1,0,0:0:0:0:
303,283,165789,1,0,0:0:0:0:
372,241,165863,1,0,0:0:0:0:
421,176,165938,1,0,0:0:0:0:
444,98,166013,5,2,0:0:0:0:
100,172,166163,1,8,0:0:0:0:
100,172,166461,5,8,0:0:0:0:
439,353,166611,1,2,0:0:0:0:
199,28,166760,1,8,0:0:0:0:
199,28,167058,6,0,L|207:112,1,67.5,2|0,0:0|0:0,0:0:0:0:
216,164,167357,1,8,0:0:0:0:
9,365,167506,1,2,0:0:0:0:
53,190,168402,6,0,P|56:155|157:99,1,157.5
215,146,168999,6,0,B|293:152|293:152|371:125,1,157.5
413,61,169596,6,0,B|442:88|455:123|448:160|422:186|395:197|395:197|374:292|374:292|359:269|326:259|299:274,1,337.5
307,270,170790,6,0,B|283:297|252:296|252:296|209:281|209:281|177:296|142:288,1,157.5
161,290,171387,6,0,B|208:250|131:253|75:298|34:262|99:227,1,180
99,226,171984,6,0,B|137:207|168:173|173:118|147:69|147:69|173:22|173:22|199:41|241:45|269:35,1,337.5,2|0,0:0|0:0,0:0:0:0:
267,35,173178,6,0,B|298:16|332:22|358:46|358:46|391:29|391:29|429:42,1,157.5
411,35,173775,6,0,P|377:81|407:177,1,157.5
419,185,174372,6,0,L|428:191,21,7.5
444,200,174969,6,0,P|455:243|377:335,1,157.5
372,327,175566,6,0,L|360:324,21,7.5
342,321,176163,6,0,B|299:310|299:310|262:321|229:321|188:307,1,157.5
187,306,176760,6,0,B|205:260|213:211|187:143|187:143|157:190|134:208|109:213|84:206|69:188|66:169|73:149,1,337.5
70,157,177954,6,0,B|89:164|104:205|87:277|49:310,1,157.5
7,352,178551,6,0,L|110:341,1,72
227,243,178849,2,0,P|273:227|326:236,1,72
459,350,179148,5,0,0:0:0:0:
423,170,179297,1,0,0:0:0:0:
433,126,179372,1,0,0:0:0:0:
443,83,179446,1,0,0:0:0:0:
278,82,179596,1,0,0:0:0:0:
321,185,179746,1,0,0:0:0:0:
303,224,179820,1,0,0:0:0:0:
267,249,179895,1,0,0:0:0:0:
223,252,179969,1,0,0:0:0:0:
185,232,180043,2,0,P|112:247|62:284,1,107.999996704102
374,353,180342,6,0,L|390:227,1,107.999996704102
344,115,180566,1,0,0:0:0:0:
306,137,180640,2,0,P|228:138|179:110,1,107.999996704102
47,23,180939,2,0,L|28:94,1,53.9999983520508
95,236,181088,2,0,P|101:213|99:170,1,53.9999983520508
166,34,181237,1,0,0:0:0:0:
210,37,181312,1,0,0:0:0:0:
254,40,181387,1,0,0:0:0:0:
297,43,181461,1,0,0:0:0:0:
341,47,181536,6,0,L|471:55,1,107.999996704102
378,136,181760,1,0,0:0:0:0:
358,175,181834,2,0,P|361:258|378:292,1,107.999996704102
463,127,182133,1,0,0:0:0:0:
274,180,182282,1,0,0:0:0:0:
274,180,182357,1,0,0:0:0:0:
274,180,182431,2,0,L|147:169,1,107.999996704102
5,117,182730,5,0,0:0:0:0:
46,305,182879,2,0,L|111:293,2,53.9999983520508
166,170,183178,1,0,0:0:0:0:
263,260,183327,6,0,L|274:326,3,53.9999983520508
335,167,183625,6,0,L|326:113,3,53.9999983520508
222,42,183924,5,0,0:0:0:0:
198,56,183999,1,0,0:0:0:0:
175,70,184073,1,0,0:0:0:0:
152,84,184148,1,0,0:0:0:0:
82,75,184222,5,0,0:0:0:0:
87,102,184297,1,0,0:0:0:0:
94,128,184371,1,0,0:0:0:0:
100,154,184446,1,0,0:0:0:0:
79,221,184521,5,0,0:0:0:0:
106,223,184596,1,0,0:0:0:0:
133,225,184670,1,0,0:0:0:0:
160,228,184745,1,0,0:0:0:0:
211,276,184819,5,0,0:0:0:0:
223,251,184894,1,0,0:0:0:0:
233,226,184968,1,0,0:0:0:0:
243,202,185043,1,0,0:0:0:0:
313,205,185118,5,0,0:0:0:0:
352,221,185192,1,0,0:0:0:0:
395,222,185267,1,0,0:0:0:0:
435,207,185341,1,0,0:0:0:0:
468,179,185416,2,0,L|495:113,3,53.9999983520508
376,98,185715,5,0,0:0:0:0:
322,89,185790,1,0,0:0:0:0:
269,81,185864,1,0,0:0:0:0:
215,72,185939,1,0,0:0:0:0:
161,64,186013,2,0,L|103:54,3,53.9999983520508
162,149,186312,5,0,0:0:0:0:
170,229,186386,1,0,0:0:0:0:
141,305,186461,1,0,0:0:0:0:
82,360,186535,1,0,0:0:0:0:
5,384,186611,1,0,0:0:0:0:
44,312,186686,1,0,0:0:0:0:
109,266,186760,1,0,0:0:0:0:
190,254,186835,1,0,0:0:0:0:
266,277,186909,5,0,0:0:0:0:
340,308,186983,1,0,0:0:0:0:
420,299,187058,1,0,0:0:0:0:
484,250,187132,1,0,0:0:0:0:
512,175,187207,1,0,0:0:0:0:
504,95,187282,1,0,0:0:0:0:
454,32,187356,1,0,0:0:0:0:
378,2,187431,1,0,0:0:0:0:
287,29,187805,6,0,P|238:54|193:55,1,90
44,95,188252,6,0,P|83:116|135:116,1,90
243,129,188700,6,0,L|299:276,1,148.500001416206,4|0,0:0|0:0,0:0:0:0:
88,230,188924,1,0,0:0:0:0:
53,191,188999,2,0,P|39:111|78:41,1,148.500001416206,2|8,0:0|0:0,0:0:0:0:
451,28,189297,2,0,L|425:105,1,74.2500007081032
331,382,189446,1,8,0:0:0:0:
169,33,189596,1,2,0:0:0:0:
442,256,189745,1,0,0:0:0:0:
442,256,189819,1,0,0:0:0:0:
442,256,189894,6,0,P|367:288|300:286,1,148.500001416206,8|8,0:0|0:0,0:0:0:0:
29,35,190193,2,0,P|71:19|108:19,1,74.2500007081032,2|0,0:0|0:0,0:0:0:0:
232,336,190342,2,0,P|200:360|155:365,1,74.2500007081032
85,99,190491,1,0,0:0:0:0:
385,198,190640,2,0,L|308:244,1,74.2500007081032,8|0,0:0|0:0,0:0:0:0:
180,25,190790,1,2,0:0:0:0:
231,31,190864,1,0,0:0:0:0:
282,37,190939,1,0,0:0:0:0:
333,44,191013,1,0,0:0:0:0:
384,52,191088,6,0,P|314:117|348:266,1,222.75000212431
389,327,191387,1,2,0:0:0:0:
72,129,191536,2,0,P|65:88|71:50,1,74.2500007081032
446,110,191685,1,0,0:0:0:0:
149,276,191834,1,8,0:0:0:0:
149,276,191909,1,0,0:0:0:0:
149,276,191984,2,0,L|-6:369,1,148.500001416206,2|0,0:0|0:0,0:0:0:0:
393,239,192282,6,0,P|417:209|434:165,1,74.2500007081032,8|0,0:0|0:0,0:0:0:0:
127,17,192431,2,0,P|125:62|146:109,1,74.2500007081032
418,326,192581,2,0,P|448:301|471:264,1,74.2500007081032
42,101,192730,2,0,P|54:144|91:182,1,74.2500007081032
483,15,192879,5,0,0:0:0:0:
397,10,192953,1,0,0:0:0:0:
325,56,193028,1,0,0:0:0:0:
292,134,193102,1,0,0:0:0:0:
266,218,193178,1,0,0:0:0:0:
233,297,193252,1,0,0:0:0:0:
161,341,193327,1,0,0:0:0:0:
75,337,193401,1,0,0:0:0:0:
0,291,193476,6,0,B|6:250|6:250|39:219|39:219|6:131|73:58,1,222.75000212431,12|0,0:0|0:0,0:0:0:0:
144,169,193775,2,0,P|171:182|219:184,1,74.2500007081032,2|0,0:0|0:0,0:0:0:0:
458,3,193924,1,8,0:0:0:0:
403,352,194073,1,0,0:0:0:0:
209,72,194222,2,0,P|201:48|204:-2,1,74.2500007081032,8|0,0:0|0:0,0:0:0:0:
466,223,194372,2,0,L|313:272,1,148.500001416206,2|0,0:0|0:0,0:0:0:0:
171,224,194596,1,0,0:0:0:0:
119,218,194670,6,0,P|80:224|38:244,1,74.2500007081032,8|0,0:0|0:0,0:0:0:0:
327,350,194819,1,0,0:0:0:0:
327,350,194894,1,8,0:0:0:0:
327,350,194969,2,0,P|371:274|361:201,1,148.500001416206,2|8,0:0|0:0,0:0:0:0:
106,75,195267,6,0,P|96:49|97:-6,1,74.2500007081032
434,105,195416,1,8,0:0:0:0:
434,105,195491,1,0,0:0:0:0:
434,105,195566,2,0,L|368:258,1,148.500001416206,2|8,0:0|0:0,0:0:0:0:
54,213,195864,5,8,0:0:0:0:
477,196,196013,1,0,0:0:0:0:
95,292,196163,2,0,P|94:329|109:371,1,74.2500007081032,2|0,0:0|0:0,0:0:0:0:
479,150,196312,1,0,0:0:0:0:
174,333,196461,2,0,P|206:358|241:367,1,74.2500007081032,2|0,0:0|0:0,0:0:0:0:
462,106,196611,2,0,P|480:82|491:35,1,74.2500007081032,8|0,0:0|0:0,0:0:0:0:
264,324,196760,1,2,0:0:0:0:
428,74,196909,2,8,P|433:33|426:-4,1,74.2500007081032
143,48,197058,5,0,0:0:0:0:
133,113,197132,1,0,0:0:0:0:
154,176,197207,1,0,0:0:0:0:
201,223,197281,1,0,0:0:0:0:
264,244,197356,1,0,0:0:0:0:
329,236,197431,1,0,0:0:0:0:
384,199,197505,1,0,0:0:0:0:
417,141,197580,1,0,0:0:0:0:
428,74,197655,5,0,0:0:0:0:
447,160,197729,1,0,0:0:0:0:
431,247,197804,1,0,0:0:0:0:
381,320,197878,1,0,0:0:0:0:
307,368,197953,1,0,0:0:0:0:
219,381,198028,1,0,0:0:0:0:
134,358,198102,1,0,0:0:0:0:
64,304,198177,1,0,0:0:0:0:
30,220,198252,6,0,B|69:200|69:200|105:225|105:225|174:190|265:242,1,222.75000212431
312,290,198551,2,0,P|361:294|402:280,1,74.2500007081032,2|0,0:0|0:0,0:0:0:0:
93,18,198700,2,0,L|112:178,1,148.500001416206,8|0,0:0|0:0,0:0:0:0:
489,308,198999,2,0,L|478:213,1,74.2500007081032,8|0,0:0|0:0,0:0:0:0:
217,351,199148,2,0,P|160:369|58:343,1,148.500001416206,2|0,0:0|0:0,0:0:0:0:
126,216,199372,1,0,0:0:0:0:
137,165,199446,6,0,L|120:13,1,148.500001416206,8|0,0:0|0:0,0:0:0:0:
16,297,199745,1,2,0:0:0:0:
228,61,199894,2,0,P|258:37|306:24,1,74.2500007081032
421,378,200043,1,0,0:0:0:0:
129,115,200193,2,0,P|119:68|124:25,1,74.2500007081032,8|0,0:0|0:0,0:0:0:0:
477,112,200342,2,0,P|475:191|443:266,1,148.500001416206,2|0,0:0|0:0,0:0:0:0:
46,249,200640,6,0,B|80:224|80:224|120:229|120:229|183:183|283:214,1,222.75000212431,8|0,0:0|0:0,0:0:0:0:
363,252,200939,1,2,0:0:0:0:
151,23,201088,6,0,B|122:230|122:230|151:298,1,270,2|0,0:0|0:0,0:0:0:0:
483,241,201387,6,0,P|436:136|279:170,1,270,2|0,0:0|0:0,0:0:0:0:
338,333,201685,5,8,0:0:0:0:
163,125,201834,5,0,0:0:0:0:
203,82,201908,1,0,0:0:0:0:
261,72,201983,1,0,0:0:0:0:
314,97,202057,1,0,0:0:0:0:
389,167,202133,5,0,0:0:0:0:
344,193,202207,1,0,0:0:0:0:
293,191,202282,1,0,0:0:0:0:
252,161,202356,1,0,0:0:0:0:
163,125,202431,5,0,0:0:0:0:
192,122,202506,1,0,0:0:0:0:
222,120,202581,1,0,0:0:0:0:
251,117,202655,1,0,0:0:0:0:
252,202,202730,5,0,0:0:0:0:
259,282,202804,1,0,0:0:0:0:
306,348,202879,1,0,0:0:0:0:
380,381,202953,1,0,0:0:0:0:
460,374,203028,1,0,0:0:0:0:
460,374,203476,5,0,0:0:0:0:
468,145,203625,2,0,P|401:106|284:164,1,207.000003948212
97,372,204222,6,0,L|68:160,1,207.000003948212
333,108,204670,1,0,0:0:0:0:
170,315,204819,2,0,P|269:357|363:294,1,207.000003948212
422,33,205416,6,0,B|294:86|294:86|273:162|273:162|381:117|381:117|481:170|481:170|485:279|485:279|381:219,1,672.750012831688
361,209,206461,1,2,0:0:0:0:
66,187,206909,5,2,0:0:0:0:
399,344,207208,5,0,0:0:0:0:
411,295,207282,1,0,0:0:0:0:
424,246,207357,1,0,0:0:0:0:
437,197,207431,1,0,0:0:0:0:
457,118,207506,5,0,0:0:0:0:
389,151,207580,1,0,0:0:0:0:
314,158,207655,1,0,0:0:0:0:
242,139,207729,1,0,0:0:0:0:
170,96,207805,6,0,P|100:96|41:123,1,125.999996154785,8|0,0:0|0:0,0:0:0:0:
292,282,208103,2,0,P|305:253|309:217,1,62.9999980773926,2|0,0:0|0:0,0:0:0:0:
67,322,208252,1,8,0:0:0:0:
67,322,208327,1,0,0:0:0:0:
67,322,208402,2,0,L|213:342,1,125.999996154785,0|8,0:0|0:0,0:0:0:0:
432,112,208700,2,0,P|336:116|289:151,1,125.999996154785,2|0,0:0|0:0,0:0:0:0:
352,350,208999,5,8,0:0:0:0:
93,105,209148,2,0,L|176:131,1,62.9999980773926
407,211,209297,1,2,0:0:0:0:
138,250,209446,1,0,0:0:0:0:
312,144,209596,2,0,P|315:70|284:17,1,125.999996154785,0|8,0:0|0:0,0:0:0:0:
19,198,209894,1,2,0:0:0:0:
59,215,209969,1,0,0:0:0:0:
98,232,210043,1,0,0:0:0:0:
138,250,210118,1,0,0:0:0:0:
178,268,210193,6,0,L|319:268,1,125.999996154785,8|0,0:0|0:0,0:0:0:0:
391,137,210416,1,0,0:0:0:0:
350,154,210491,2,0,P|277:147|221:89,1,125.999996154785,2|0,0:0|0:0,0:0:0:0:
435,23,210790,1,0,0:0:0:0:
464,273,210939,1,8,0:0:0:0:
224,206,211088,2,0,L|75:163,1,125.999996154785,2|0,0:0|0:0,0:0:0:0:
306,29,211387,5,8,0:0:0:0:
357,365,211536,2,0,P|314:318|295:276,1,74.2500007081032
206,96,211685,1,2,0:0:0:0:
171,332,211834,1,0,0:0:0:0:
342,145,211984,6,0,P|359:98|356:54,1,74.2500007081032
144,201,212133,2,0,P|165:240|190:265,1,74.2500007081032
435,118,212282,2,0,P|442:76|437:36,1,74.2500007081032
64,178,212431,2,0,P|65:214|80:258,1,74.2500007081032
379,264,212581,5,8,0:0:0:0:
215,35,212730,1,0,0:0:0:0:
244,348,212879,1,2,0:0:0:0:
341,102,213028,2,0,L|367:28,1,74.2500007081032
153,121,213178,2,0,P|74:104|14:48,1,148.500001416206,0|8,0:0|0:0,0:0:0:0:
157,281,213476,1,2,0:0:0:0:
157,281,213551,1,0,0:0:0:0:
157,281,213625,2,0,P|147:324|119:363,1,74.2500007081032,8|0,0:0|0:0,0:0:0:0:
16,155,213775,5,8,0:0:0:0:
358,182,213924,1,0,0:0:0:0:
70,52,214073,1,2,0:0:0:0:
362,263,214222,2,0,L|431:312,1,74.2500007081032,8|0,0:0|0:0,0:0:0:0:
66,313,214372,1,0,0:0:0:0:
231,21,214521,1,8,0:0:0:0:
252,298,214670,1,2,0:0:0:0:
252,298,214745,1,0,0:0:0:0:
252,298,214819,2,0,P|246:338|231:373,1,74.2500007081032
53,146,214969,5,8,0:0:0:0:
347,167,215118,2,0,L|527:181,1,148.500001416206,8|2,0:0|0:0,0:0:0:0:
252,298,215416,2,0,L|174:292,1,74.2500007081032
156,5,215566,2,0,P|218:85|219:164,1,148.500001416206,0|8,0:0|0:0,0:0:0:0:
101,205,215790,1,0,0:0:0:0:
76,250,215864,2,0,P|76:281|91:338,1,74.2500007081032,2|0,0:0|0:0,0:0:0:0:
427,257,216013,2,0,P|427:226|412:169,1,74.2500007081032
239,17,216163,5,0,0:0:0:0:
211,60,216237,1,0,0:0:0:0:
205,111,216312,1,0,0:0:0:0:
224,159,216386,1,0,0:0:0:0:
262,193,216461,1,0,0:0:0:0:
300,227,216536,1,0,0:0:0:0:
318,275,216610,1,0,0:0:0:0:
313,326,216685,1,0,0:0:0:0:
239,363,216760,5,0,0:0:0:0:
206,345,216834,1,0,0:0:0:0:
173,327,216909,1,0,0:0:0:0:
140,309,216984,1,0,0:0:0:0:
49,300,217058,5,0,0:0:0:0:
102,239,217132,1,0,0:0:0:0:
117,160,217207,1,0,0:0:0:0:
90,84,217281,1,0,0:0:0:0:
22,36,217357,6,0,L|188:11,1,148.500001416206,8|0,0:0|0:0,0:0:0:0:
338,283,217655,1,2,0:0:0:0:
18,102,217805,2,0,P|51:90|99:83,1,74.2500007081032
253,384,217954,2,0,P|187:340|151:275,1,148.500001416206,0|8,0:0|0:0,0:0:0:0:
423,133,218252,1,2,0:0:0:0:
423,133,218327,1,0,0:0:0:0:
423,133,218402,2,0,P|441:80|441:49,1,74.2500007081032
172,124,218551,5,8,0:0:0:0:
464,256,218700,1,0,0:0:0:0:
88,244,218849,1,2,0:0:0:0:
423,133,218999,2,0,P|432:97|429:54,1,74.2500007081032,8|0,0:0|0:0,0:0:0:0:
202,335,219148,1,0,0:0:0:0:
340,83,219297,2,0,P|330:37|312:4,1,74.2500007081032,8|0,0:0|0:0,0:0:0:0:
76,129,219446,1,2,0:0:0:0:
76,129,219521,1,0,0:0:0:0:
76,129,219596,2,0,L|47:222,1,74.2500007081032,8|0,0:0|0:0,0:0:0:0:
314,316,219745,5,0,0:0:0:0:
317,12,219894,1,0,0:0:0:0:
103,238,220043,2,0,L|40:299,2,74.2500007081032,2|0|0,0:0|0:0|0:0,0:0:0:0:
330,131,220342,2,0,P|411:143|472:176,1,148.500001416206
333,267,220566,1,0,0:0:0:0:
309,312,220640,2,0,P|301:348|309:390,1,74.2500007081032,2|0,0:0|0:0,0:0:0:0:
460,114,220790,2,0,P|468:78|460:36,1,74.2500007081032
251,91,220939,6,0,L|89:68,1,148.500001416206,8|0,0:0|0:0,0:0:0:0:
73,356,221237,1,2,0:0:0:0:
343,195,221387,1,0,0:0:0:0:
107,251,221536,5,0,0:0:0:0:
134,175,221610,1,0,0:0:0:0:
117,96,221685,1,0,0:0:0:0:
60,39,221759,1,0,0:0:0:0:
143,89,221834,5,0,0:0:0:0:
218,120,221908,1,0,0:0:0:0:
298,118,221983,1,0,0:0:0:0:
371,82,222057,1,0,0:0:0:0:
432,5,222133,6,0,L|450:172,1,148.500001416206,8|0,0:0|0:0,0:0:0:0:
228,383,222431,2,0,L|220:292,1,74.2500007081032,2|0,0:0|0:0,0:0:0:0:
371,82,222581,2,0,P|378:134|370:161,1,74.2500007081032,8|0,0:0|0:0,0:0:0:0:
131,289,222730,2,0,P|44:279|-5:235,1,148.500001416206,0|8,0:0|0:0,0:0:0:0:
272,32,223028,1,2,0:0:0:0:
272,32,223103,1,0,0:0:0:0:
272,32,223178,2,0,P|289:68|291:111,1,74.2500007081032
261,361,223327,6,0,L|419:301,1,148.500001416206,8|0,0:0|0:0,0:0:0:0:
398,11,223625,1,2,0:0:0:0:
276,265,223775,2,0,P|241:270|191:264,1,74.2500007081032,8|0,0:0|0:0,0:0:0:0:
56,5,223924,1,0,0:0:0:0:
406,94,224073,1,8,0:0:0:0:
65,191,224222,1,2,0:0:0:0:
65,191,224297,1,0,0:0:0:0:
65,191,224372,2,0,L|34:270,1,74.2500007081032
306,349,224521,6,8,P|348:349|402:332,1,74.2500007081032
151,78,224670,2,8,P|112:73|69:80,1,74.2500007081032
435,233,224819,2,0,P|459:213|486:162,1,74.2500007081032,2|0,0:0|0:0,0:0:0:0:
153,182,224969,2,0,L|123:254,1,74.2500007081032
359,197,225118,5,8,0:0:0:0:
360,174,225193,1,8,0:0:0:0:
361,151,225267,1,8,0:0:0:0:
362,128,225342,1,8,0:0:0:0:
444,176,225416,5,8,0:0:0:0:
431,233,225490,1,8,0:0:0:0:
395,280,225565,1,8,0:0:0:0:
343,306,225639,1,8,0:0:0:0:
261,253,225715,5,0,0:0:0:0:
184,227,225789,1,0,0:0:0:0:
104,241,225864,1,0,0:0:0:0:
40,290,225938,1,0,0:0:0:0:
8,366,226013,1,0,0:0:0:0:
79,330,226087,1,0,0:0:0:0:
128,265,226162,1,0,0:0:0:0:
139,185,226236,1,0,0:0:0:0:
166,106,226312,5,0,0:0:0:0:
220,46,226386,1,0,0:0:0:0:
295,15,226461,1,0,0:0:0:0:
376,20,226535,1,0,0:0:0:0:
447,59,226610,1,0,0:0:0:0:
495,124,226685,1,0,0:0:0:0:
510,204,226759,1,0,0:0:0:0:
489,282,226834,1,0,0:0:0:0:
437,344,226909,5,2,0:0:0:0:
166,106,227058,1,8,0:0:0:0:
166,106,227357,5,8,0:0:0:0:
504,243,227506,1,2,0:0:0:0:
66,212,227655,1,8,0:0:0:0:
66,212,227954,6,0,L|147:243,1,67.5,2|0,0:0|0:0,0:0:0:0:
192,263,228252,1,8,0:0:0:0:
478,58,228402,1,2,0:0:0:0:
