osu file format v14

[General]
AudioFilename: audio.mp3
AudioLeadIn: 0
PreviewTime: 60388
Countdown: 0
SampleSet: Normal
StackLeniency: 0.7
Mode: 1
LetterboxInBreaks: 0
WidescreenStoryboard: 1

[Editor]
DistanceSpacing: 1.4
BeatDivisor: 1
GridSize: 8
TimelineZoom: 2.4

[Metadata]
Title:Paradisus-Paradoxum
TitleUnicode:Paradisus-Paradoxum
Artist:MYTH & ROID
ArtistUnicode:MYTH & ROID
Creator:Eriha
Version:Futsuu
Source:Re:ゼロから始める異世界生活
Tags:Chromoxx anime japanese re : zero kara hajimeru isekai seikatsu life in a different world from zero re:zero jpop j-pop pop opening full ver. version eYe's eyes Paradoxical Paradise Paradisus Paradoxum op2 season 1 S1 1期第2クール MYTH&ROID and
BeatmapID:3899704
BeatmapSetID:1879586

[Difficulty]
HPDrainRate:7
CircleSize:5
OverallDifficulty:4
ApproachRate:5
SliderMultiplier:1.4
SliderTickRate:1

[Events]
//Background and Video events
0,0,"BG.jpg",0,50
//Break Periods
2,139989,148141
2,169840,177992
//Storyboard Layer 0 (Background)
//Storyboard Layer 1 (Fail)
//Storyboard Layer 2 (Pass)
//Storyboard Layer 3 (Foreground)
//Storyboard Layer 4 (Overlay)
//Storyboard Sound Samples

[TimingPoints]
1284,298.507462686567,4,1,0,20,1,0
8410,-100,4,1,0,80,0,0
10798,-100,4,1,0,90,0,0
10836,-100,4,1,0,90,0,1
29903,-100,4,1,0,80,0,1
29940,-100,4,1,0,80,0,0
60947,-100,4,1,0,90,0,0
60985,298.507462686567,4,1,0,90,1,0
60985,-100,4,1,0,90,0,1
90797,-100,4,1,0,80,0,1
90835,298.507462686567,4,1,0,70,1,0
90835,-100,4,1,0,70,0,0
100237,-100,4,1,0,80,0,0
111095,-100,4,1,0,90,0,0
111133,298.507462686567,4,1,0,90,1,0
111133,-100,4,1,0,90,0,1
139752,-100,4,1,0,80,0,1
139789,-100,4,1,0,80,0,0
169602,-100,4,1,0,70,0,0
169640,298.507462686567,4,1,0,70,1,0
183931,-100,4,1,0,80,0,0
188707,-100,4,1,0,90,0,0
188744,-100,4,1,0,90,0,1
226916,-100,4,1,0,80,0,1
226953,-100,4,1,0,80,0,0

[HitObjects]
256,192,1284,12,0,8149,0:0:0:0:
256,192,8448,5,4,0:0:0:0:
256,192,10239,1,0,0:0:0:0:
256,192,10537,1,8,0:0:0:0:
256,192,10836,5,4,0:0:0:0:
256,192,11134,1,8,0:0:0:0:
256,192,11283,1,0,0:0:0:0:
256,192,11582,1,0,0:0:0:0:
256,192,11881,1,8,0:0:0:0:
256,192,12328,1,8,0:0:0:0:
256,192,12627,1,0,0:0:0:0:
256,192,12776,1,0,0:0:0:0:
256,192,12925,1,8,0:0:0:0:
256,192,13224,1,8,0:0:0:0:
256,192,13522,1,8,0:0:0:0:
256,192,13672,1,0,0:0:0:0:
256,192,13970,1,0,0:0:0:0:
256,192,14269,1,8,0:0:0:0:
256,192,15612,1,4,0:0:0:0:
256,192,16209,1,8,0:0:0:0:
256,192,16806,1,4,0:0:0:0:
256,192,17403,1,8,0:0:0:0:
256,192,18000,1,4,0:0:0:0:
256,192,19045,1,8,0:0:0:0:
256,192,19492,1,0,0:0:0:0:
256,192,19940,1,8,0:0:0:0:
256,192,20388,1,4,0:0:0:0:
256,192,20686,1,8,0:0:0:0:
256,192,20836,1,0,0:0:0:0:
256,192,21134,1,0,0:0:0:0:
256,192,21283,1,8,0:0:0:0:
256,192,21582,1,8,0:0:0:0:
256,192,21731,1,0,0:0:0:0:
256,192,21881,1,8,0:0:0:0:
256,192,22030,1,0,0:0:0:0:
256,192,22328,1,8,0:0:0:0:
256,192,22627,1,0,0:0:0:0:
256,192,22925,1,0,0:0:0:0:
256,192,23075,1,8,0:0:0:0:
256,192,23373,1,0,0:0:0:0:
256,192,23672,1,8,0:0:0:0:
256,192,23970,1,8,0:0:0:0:
256,192,24119,1,8,0:0:0:0:
256,192,24269,1,8,0:0:0:0:
256,192,24418,1,0,0:0:0:0:
256,192,25164,1,0,0:0:0:0:
256,192,25463,1,8,0:0:0:0:
256,192,25612,1,0,0:0:0:0:
256,192,25761,1,0,0:0:0:0:
256,192,26060,1,8,0:0:0:0:
256,192,26358,1,0,0:0:0:0:
256,192,26507,1,0,0:0:0:0:
256,192,26657,1,8,0:0:0:0:
256,192,26806,1,0,0:0:0:0:
256,192,27104,1,8,0:0:0:0:
256,192,27403,1,0,0:0:0:0:
256,192,27701,1,0,0:0:0:0:
256,192,27851,1,8,0:0:0:0:
256,192,28149,1,0,0:0:0:0:
256,192,28448,1,8,0:0:0:0:
256,192,28746,1,8,0:0:0:0:
256,192,28895,1,8,0:0:0:0:
256,192,29045,1,0,0:0:0:0:
256,192,29194,1,8,0:0:0:0:
256,192,29343,1,0,0:0:0:0:
256,192,29642,1,8,0:0:0:0:
256,192,29940,1,4,0:0:0:0:
256,192,31134,1,8,0:0:0:0:
256,192,32030,1,8,0:0:0:0:
256,192,32328,1,0,0:0:0:0:
256,192,33522,1,8,0:0:0:0:
256,192,34119,1,0,0:0:0:0:
256,192,34716,1,8,0:0:0:0:
256,192,35612,1,8,0:0:0:0:
256,192,36209,1,0,0:0:0:0:
256,192,36806,1,8,0:0:0:0:
256,192,37104,12,0,38895,0:0:0:0:
256,192,39492,5,4,0:0:0:0:
256,192,39791,1,8,0:0:0:0:
256,192,40239,1,0,0:0:0:0:
256,192,40388,1,8,0:0:0:0:
256,192,40686,1,0,0:0:0:0:
256,192,40836,1,0,0:0:0:0:
256,192,40985,1,8,0:0:0:0:
256,192,41134,1,0,0:0:0:0:
256,192,41433,1,0,0:0:0:0:
256,192,41582,1,8,0:0:0:0:
256,192,41881,1,0,0:0:0:0:
256,192,42179,1,8,0:0:0:0:
256,192,42627,1,0,0:0:0:0:
256,192,42776,1,8,0:0:0:0:
256,192,43075,1,0,0:0:0:0:
256,192,43224,1,0,0:0:0:0:
256,192,43373,1,8,0:0:0:0:
256,192,43522,1,0,0:0:0:0:
256,192,43672,1,0,0:0:0:0:
256,192,44269,1,0,0:0:0:0:
256,192,44567,1,8,0:0:0:0:
256,192,45015,1,0,0:0:0:0:
256,192,45164,1,8,0:0:0:0:
256,192,45463,1,8,0:0:0:0:
256,192,45761,1,0,0:0:0:0:
256,192,45910,1,0,0:0:0:0:
256,192,46060,1,8,0:0:0:0:
256,192,46358,1,0,0:0:0:0:
256,192,46657,1,8,0:0:0:0:
256,192,46955,1,8,0:0:0:0:
256,192,47104,1,0,0:0:0:0:
256,192,47254,1,8,0:0:0:0:
256,192,47552,1,8,0:0:0:0:
256,192,47851,12,0,48448,0:0:0:0:
256,192,49045,5,4,0:0:0:0:
256,192,49642,1,0,0:0:0:0:
256,192,49940,1,8,0:0:0:0:
256,192,50239,1,0,0:0:0:0:
256,192,50537,1,8,0:0:0:0:
256,192,50686,1,8,0:0:0:0:
256,192,50836,1,0,0:0:0:0:
256,192,51134,1,8,0:0:0:0:
256,192,51433,1,0,0:0:0:0:
256,192,52030,1,8,0:0:0:0:
256,192,52328,1,0,0:0:0:0:
256,192,52627,1,8,0:0:0:0:
256,192,52776,1,8,0:0:0:0:
256,192,52925,1,0,0:0:0:0:
256,192,53075,1,8,0:0:0:0:
256,192,53224,1,0,0:0:0:0:
256,192,53821,1,4,0:0:0:0:
256,192,54418,1,0,0:0:0:0:
256,192,54716,1,8,0:0:0:0:
256,192,55015,1,0,0:0:0:0:
256,192,55313,1,0,0:0:0:0:
256,192,55463,1,0,0:0:0:0:
256,192,55612,1,8,0:0:0:0:
256,192,55910,1,0,0:0:0:0:
256,192,56209,1,8,0:0:0:0:
256,192,56507,1,8,0:0:0:0:
256,192,56806,1,8,0:0:0:0:
256,192,57104,1,8,0:0:0:0:
256,192,57403,1,8,0:0:0:0:
256,192,57552,1,0,0:0:0:0:
256,192,57701,1,8,0:0:0:0:
256,192,57851,1,0,0:0:0:0:
256,192,58000,1,8,0:0:0:0:
256,192,58298,1,8,0:0:0:0:
256,192,58597,1,4,0:0:0:0:
256,192,60388,1,0,0:0:0:0:
256,192,60686,1,8,0:0:0:0:
256,192,60985,5,4,0:0:0:0:
256,192,61283,1,8,0:0:0:0:
256,192,61432,1,0,0:0:0:0:
256,192,61731,1,0,0:0:0:0:
256,192,62030,1,8,0:0:0:0:
256,192,62477,1,8,0:0:0:0:
256,192,62776,1,0,0:0:0:0:
256,192,62925,1,0,0:0:0:0:
256,192,63074,1,8,0:0:0:0:
256,192,63373,1,8,0:0:0:0:
256,192,63671,1,8,0:0:0:0:
256,192,63821,1,0,0:0:0:0:
256,192,64119,1,0,0:0:0:0:
256,192,64418,1,8,0:0:0:0:
256,192,65164,1,0,0:0:0:0:
256,192,65463,1,8,0:0:0:0:
256,192,65761,1,0,0:0:0:0:
256,192,66059,1,8,0:0:0:0:
256,192,66358,1,0,0:0:0:0:
256,192,66507,1,0,0:0:0:0:
256,192,66657,1,8,0:0:0:0:
256,192,66955,1,0,0:0:0:0:
256,192,67254,1,8,0:0:0:0:
256,192,67403,1,8,0:0:0:0:
256,192,67552,1,0,0:0:0:0:
256,192,67851,1,0,0:0:0:0:
256,192,68149,1,8,0:0:0:0:
256,192,68447,1,8,0:0:0:0:
256,192,68746,1,8,0:0:0:0:
256,192,69044,1,8,0:0:0:0:
256,192,69343,1,0,0:0:0:0:
256,192,69940,1,0,0:0:0:0:
256,192,70238,1,8,0:0:0:0:
256,192,70537,5,4,0:0:0:0:
256,192,70835,1,8,0:0:0:0:
256,192,70984,1,0,0:0:0:0:
256,192,71283,1,0,0:0:0:0:
256,192,71582,1,8,0:0:0:0:
256,192,72029,1,8,0:0:0:0:
256,192,72328,1,0,0:0:0:0:
256,192,72626,1,8,0:0:0:0:
256,192,72925,1,8,0:0:0:0:
256,192,73223,1,8,0:0:0:0:
256,192,73373,1,0,0:0:0:0:
256,192,73671,1,0,0:0:0:0:
256,192,73970,1,8,0:0:0:0:
256,192,75313,1,4,0:0:0:0:
256,192,75910,1,8,0:0:0:0:
256,192,76507,1,4,0:0:0:0:
256,192,77104,1,8,0:0:0:0:
256,192,77701,1,4,0:0:0:0:
256,192,78746,1,8,0:0:0:0:
256,192,79193,1,0,0:0:0:0:
256,192,79641,1,8,0:0:0:0:
256,192,80089,1,4,0:0:0:0:
256,192,80387,1,8,0:0:0:0:
256,192,80537,1,0,0:0:0:0:
256,192,80835,1,0,0:0:0:0:
256,192,80984,1,8,0:0:0:0:
256,192,81283,1,8,0:0:0:0:
256,192,81432,1,0,0:0:0:0:
256,192,81582,1,8,0:0:0:0:
256,192,81731,1,0,0:0:0:0:
256,192,82029,1,8,0:0:0:0:
256,192,82328,1,0,0:0:0:0:
256,192,82626,1,0,0:0:0:0:
256,192,82776,1,8,0:0:0:0:
256,192,83074,1,0,0:0:0:0:
256,192,83373,1,8,0:0:0:0:
256,192,83671,1,8,0:0:0:0:
256,192,83820,1,8,0:0:0:0:
256,192,83970,1,8,0:0:0:0:
256,192,84119,1,0,0:0:0:0:
256,192,84268,1,0,0:0:0:0:
256,192,84865,1,0,0:0:0:0:
256,192,85164,1,8,0:0:0:0:
256,192,85313,1,0,0:0:0:0:
256,192,85462,1,0,0:0:0:0:
256,192,85761,1,8,0:0:0:0:
256,192,86059,1,0,0:0:0:0:
256,192,86208,1,0,0:0:0:0:
256,192,86358,1,8,0:0:0:0:
256,192,86507,1,0,0:0:0:0:
256,192,86805,1,8,0:0:0:0:
256,192,87104,1,0,0:0:0:0:
256,192,87402,1,0,0:0:0:0:
256,192,87552,1,8,0:0:0:0:
256,192,87850,1,0,0:0:0:0:
256,192,88149,1,8,0:0:0:0:
256,192,88447,1,8,0:0:0:0:
256,192,88596,1,8,0:0:0:0:
256,192,88746,1,0,0:0:0:0:
256,192,88895,1,8,0:0:0:0:
256,192,89044,1,0,0:0:0:0:
256,192,89343,1,8,0:0:0:0:
256,192,89641,5,0,0:0:0:0:
256,192,90835,5,4,0:0:0:0:
256,192,91282,1,8,0:0:0:0:
256,192,93223,1,8,0:0:0:0:
256,192,94417,1,0,0:0:0:0:
256,192,95611,1,0,0:0:0:0:
256,192,96058,1,8,0:0:0:0:
256,192,97402,1,8,0:0:0:0:
256,192,97999,12,0,99790,0:0:0:0:
256,192,100387,5,4,0:0:0:0:
256,192,100835,1,0,0:0:0:0:
256,192,101283,1,0,0:0:0:0:
256,192,101730,1,0,0:0:0:0:
256,192,102178,1,0,0:0:0:0:
256,192,102775,1,0,0:0:0:0:
256,192,103223,1,0,0:0:0:0:
256,192,103670,1,8,0:0:0:0:
256,192,104118,1,8,0:0:0:0:
256,192,104566,1,0,0:0:0:0:
256,192,105163,1,4,0:0:0:0:
256,192,105461,1,8,0:0:0:0:
256,192,105611,1,0,0:0:0:0:
256,192,105760,1,8,0:0:0:0:
256,192,106058,1,0,0:0:0:0:
256,192,106357,1,8,0:0:0:0:
256,192,106506,1,8,0:0:0:0:
256,192,106655,1,0,0:0:0:0:
256,192,106954,1,8,0:0:0:0:
256,192,107252,1,0,0:0:0:0:
256,192,107551,1,0,0:0:0:0:
256,192,107700,1,0,0:0:0:0:
256,192,107849,1,8,0:0:0:0:
256,192,107999,1,8,0:0:0:0:
256,192,108148,1,0,0:0:0:0:
256,192,108446,1,8,0:0:0:0:
256,192,108745,1,4,0:0:0:0:
256,192,110536,1,8,0:0:0:0:
256,192,110834,1,8,0:0:0:0:
256,192,111133,5,4,0:0:0:0:
256,192,111431,1,8,0:0:0:0:
256,192,111580,1,0,0:0:0:0:
256,192,111879,1,8,0:0:0:0:
256,192,112178,1,8,0:0:0:0:
256,192,112625,1,8,0:0:0:0:
256,192,112924,1,0,0:0:0:0:
256,192,113073,1,8,0:0:0:0:
256,192,113222,1,8,0:0:0:0:
256,192,113521,1,8,0:0:0:0:
256,192,113819,1,8,0:0:0:0:
256,192,113969,1,0,0:0:0:0:
256,192,114267,1,0,0:0:0:0:
256,192,114566,1,8,0:0:0:0:
256,192,115312,1,0,0:0:0:0:
256,192,115611,1,8,0:0:0:0:
256,192,115909,1,0,0:0:0:0:
256,192,116207,1,8,0:0:0:0:
256,192,116506,1,0,0:0:0:0:
256,192,116655,1,0,0:0:0:0:
256,192,116805,1,8,0:0:0:0:
256,192,117103,1,0,0:0:0:0:
256,192,117402,1,8,0:0:0:0:
256,192,117551,1,8,0:0:0:0:
256,192,117700,1,0,0:0:0:0:
256,192,117999,1,0,0:0:0:0:
256,192,118297,1,8,0:0:0:0:
256,192,118595,1,8,0:0:0:0:
256,192,118894,1,8,0:0:0:0:
256,192,119192,1,8,0:0:0:0:
256,192,119491,1,0,0:0:0:0:
256,192,120088,1,8,0:0:0:0:
256,192,120386,1,8,0:0:0:0:
256,192,120685,5,4,0:0:0:0:
256,192,120983,1,8,0:0:0:0:
256,192,121132,1,0,0:0:0:0:
256,192,121431,1,0,0:0:0:0:
256,192,121730,1,8,0:0:0:0:
256,192,122177,1,8,0:0:0:0:
256,192,122476,1,8,0:0:0:0:
256,192,122625,1,0,0:0:0:0:
256,192,122774,1,0,0:0:0:0:
256,192,123073,1,8,0:0:0:0:
256,192,123371,1,8,0:0:0:0:
256,192,123521,1,0,0:0:0:0:
256,192,123819,1,0,0:0:0:0:
256,192,124118,1,8,0:0:0:0:
256,192,125461,1,4,0:0:0:0:
256,192,126058,1,8,0:0:0:0:
256,192,126655,1,4,0:0:0:0:
256,192,127252,1,8,0:0:0:0:
256,192,127849,1,4,0:0:0:0:
256,192,128894,1,8,0:0:0:0:
256,192,129341,1,0,0:0:0:0:
256,192,129789,1,8,0:0:0:0:
256,192,130237,1,4,0:0:0:0:
256,192,130535,1,8,0:0:0:0:
256,192,130685,1,0,0:0:0:0:
256,192,130983,1,0,0:0:0:0:
256,192,131132,1,8,0:0:0:0:
256,192,131431,1,8,0:0:0:0:
256,192,131580,1,0,0:0:0:0:
256,192,131730,1,8,0:0:0:0:
256,192,131879,1,0,0:0:0:0:
256,192,132177,1,8,0:0:0:0:
256,192,132476,1,0,0:0:0:0:
256,192,132774,1,0,0:0:0:0:
256,192,132924,1,8,0:0:0:0:
256,192,133222,1,0,0:0:0:0:
256,192,133521,1,8,0:0:0:0:
256,192,133819,1,8,0:0:0:0:
256,192,133968,1,8,0:0:0:0:
256,192,134118,1,8,0:0:0:0:
256,192,134267,1,0,0:0:0:0:
256,192,134416,1,0,0:0:0:0:
256,192,135013,1,0,0:0:0:0:
256,192,135312,1,8,0:0:0:0:
256,192,135461,1,8,0:0:0:0:
256,192,135610,1,0,0:0:0:0:
256,192,135909,1,8,0:0:0:0:
256,192,136207,1,0,0:0:0:0:
256,192,136356,1,0,0:0:0:0:
256,192,136506,1,8,0:0:0:0:
256,192,136655,1,0,0:0:0:0:
256,192,136953,1,8,0:0:0:0:
256,192,137252,1,0,0:0:0:0:
256,192,137550,1,0,0:0:0:0:
256,192,137700,1,8,0:0:0:0:
256,192,137998,1,0,0:0:0:0:
256,192,138297,1,8,0:0:0:0:
256,192,138595,5,8,0:0:0:0:
256,192,138744,1,0,0:0:0:0:
256,192,138894,1,0,0:0:0:0:
256,192,139043,1,8,0:0:0:0:
256,192,139192,1,0,0:0:0:0:
256,192,139491,1,8,0:0:0:0:
256,192,139789,5,4,0:0:0:0:
256,192,149341,5,0,0:0:0:0:
256,192,149491,1,8,0:0:0:0:
256,192,149789,1,8,0:0:0:0:
256,192,150088,1,8,0:0:0:0:
256,192,150386,1,8,0:0:0:0:
256,192,150535,1,0,0:0:0:0:
256,192,150685,1,8,0:0:0:0:
256,192,150834,1,0,0:0:0:0:
256,192,151132,1,0,0:0:0:0:
256,192,151282,1,8,0:0:0:0:
256,192,151431,1,0,0:0:0:0:
256,192,151730,1,0,0:0:0:0:
256,192,151879,1,8,0:0:0:0:
256,192,152177,1,8,0:0:0:0:
256,192,152476,1,8,0:0:0:0:
256,192,152774,1,8,0:0:0:0:
256,192,152924,1,8,0:0:0:0:
256,192,153073,1,8,0:0:0:0:
256,192,153222,1,0,0:0:0:0:
256,192,154118,1,0,0:0:0:0:
256,192,154267,1,8,0:0:0:0:
256,192,154565,1,8,0:0:0:0:
256,192,154864,1,8,0:0:0:0:
256,192,155162,1,8,0:0:0:0:
256,192,155312,1,0,0:0:0:0:
256,192,155461,1,8,0:0:0:0:
256,192,155610,1,0,0:0:0:0:
256,192,155909,1,0,0:0:0:0:
256,192,156058,1,8,0:0:0:0:
256,192,156207,1,0,0:0:0:0:
256,192,156804,1,8,0:0:0:0:
256,192,157252,1,8,0:0:0:0:
256,192,157700,1,0,0:0:0:0:
256,192,157998,1,8,0:0:0:0:
256,192,158297,1,0,0:0:0:0:
256,192,158894,1,0,0:0:0:0:
256,192,159043,1,8,0:0:0:0:
256,192,159341,1,8,0:0:0:0:
256,192,159640,1,8,0:0:0:0:
256,192,159938,1,8,0:0:0:0:
256,192,160088,1,0,0:0:0:0:
256,192,160237,1,8,0:0:0:0:
256,192,160386,1,0,0:0:0:0:
256,192,160685,1,0,0:0:0:0:
256,192,160834,1,8,0:0:0:0:
256,192,160983,1,0,0:0:0:0:
256,192,161282,1,0,0:0:0:0:
256,192,161431,1,8,0:0:0:0:
256,192,161730,1,8,0:0:0:0:
256,192,162028,1,8,0:0:0:0:
256,192,162327,1,8,0:0:0:0:
256,192,162476,1,8,0:0:0:0:
256,192,162625,1,8,0:0:0:0:
256,192,162774,1,0,0:0:0:0:
256,192,163073,1,8,0:0:0:0:
256,192,163222,1,8,0:0:0:0:
256,192,163371,1,0,0:0:0:0:
256,192,163968,1,8,0:0:0:0:
256,192,164416,1,0,0:0:0:0:
256,192,164864,1,0,0:0:0:0:
256,192,165162,1,8,0:0:0:0:
256,192,165312,1,8,0:0:0:0:
256,192,165461,1,0,0:0:0:0:
256,192,165610,1,0,0:0:0:0:
256,192,165759,1,8,0:0:0:0:
256,192,166058,5,4,0:0:0:0:
256,192,168446,1,0,0:0:0:0:
256,192,169043,1,8,0:0:0:0:
256,192,169640,1,4,0:0:0:0:
256,192,179192,5,0,0:0:0:0:
256,192,180237,1,8,0:0:0:0:
256,192,181580,1,0,0:0:0:0:
256,192,182625,1,8,0:0:0:0:
256,192,183968,1,4,0:0:0:0:
256,192,184266,1,0,0:0:0:0:
256,192,184565,1,8,0:0:0:0:
256,192,184863,1,8,0:0:0:0:
256,192,185162,1,0,0:0:0:0:
256,192,185460,1,8,0:0:0:0:
256,192,185759,1,0,0:0:0:0:
256,192,186057,1,0,0:0:0:0:
256,192,186356,1,8,0:0:0:0:
256,192,188744,5,4,0:0:0:0:
256,192,189042,1,8,0:0:0:0:
256,192,189191,1,0,0:0:0:0:
256,192,189490,1,0,0:0:0:0:
256,192,189789,1,8,0:0:0:0:
256,192,190087,1,0,0:0:0:0:
256,192,190236,1,8,0:0:0:0:
256,192,190535,1,0,0:0:0:0:
256,192,190684,1,0,0:0:0:0:
256,192,190833,1,8,0:0:0:0:
256,192,191132,1,8,0:0:0:0:
256,192,191430,1,8,0:0:0:0:
256,192,191580,1,0,0:0:0:0:
256,192,191878,1,0,0:0:0:0:
256,192,192177,1,8,0:0:0:0:
256,192,192923,1,0,0:0:0:0:
256,192,193222,1,8,0:0:0:0:
256,192,193520,1,0,0:0:0:0:
256,192,193818,1,8,0:0:0:0:
256,192,194117,1,0,0:0:0:0:
256,192,194266,1,0,0:0:0:0:
256,192,194416,1,8,0:0:0:0:
256,192,194714,1,0,0:0:0:0:
256,192,195013,1,8,0:0:0:0:
256,192,195162,1,8,0:0:0:0:
256,192,195311,1,0,0:0:0:0:
256,192,195610,1,0,0:0:0:0:
256,192,195908,1,8,0:0:0:0:
256,192,196206,1,8,0:0:0:0:
256,192,196505,1,8,0:0:0:0:
256,192,196803,1,8,0:0:0:0:
256,192,197102,1,0,0:0:0:0:
256,192,197699,1,8,0:0:0:0:
256,192,197998,1,8,0:0:0:0:
256,192,198296,5,4,0:0:0:0:
256,192,198594,1,8,0:0:0:0:
256,192,198743,1,0,0:0:0:0:
256,192,199042,1,0,0:0:0:0:
256,192,199341,1,8,0:0:0:0:
256,192,199639,1,0,0:0:0:0:
256,192,199788,1,8,0:0:0:0:
256,192,200087,1,8,0:0:0:0:
256,192,200236,1,0,0:0:0:0:
256,192,200385,1,8,0:0:0:0:
256,192,200684,1,8,0:0:0:0:
256,192,200982,1,8,0:0:0:0:
256,192,201132,1,0,0:0:0:0:
256,192,201430,1,0,0:0:0:0:
256,192,201729,1,8,0:0:0:0:
256,192,203072,1,4,0:0:0:0:
256,192,203669,1,8,0:0:0:0:
256,192,204266,1,4,0:0:0:0:
256,192,204863,1,8,0:0:0:0:
256,192,205460,1,4,0:0:0:0:
256,192,206505,1,8,0:0:0:0:
256,192,206952,1,0,0:0:0:0:
256,192,207400,1,8,0:0:0:0:
256,192,207848,1,4,0:0:0:0:
256,192,208146,1,8,0:0:0:0:
256,192,208296,1,0,0:0:0:0:
256,192,208594,1,0,0:0:0:0:
256,192,208743,1,8,0:0:0:0:
256,192,209042,1,8,0:0:0:0:
256,192,209191,1,0,0:0:0:0:
256,192,209341,1,8,0:0:0:0:
256,192,209490,1,0,0:0:0:0:
256,192,209788,1,8,0:0:0:0:
256,192,210087,1,0,0:0:0:0:
256,192,210385,1,0,0:0:0:0:
256,192,210535,1,8,0:0:0:0:
256,192,210833,1,0,0:0:0:0:
256,192,211132,1,8,0:0:0:0:
256,192,211430,1,8,0:0:0:0:
256,192,211579,1,8,0:0:0:0:
256,192,211729,1,8,0:0:0:0:
256,192,211878,1,0,0:0:0:0:
256,192,212027,1,0,0:0:0:0:
256,192,212624,1,0,0:0:0:0:
256,192,212923,1,8,0:0:0:0:
256,192,213072,1,0,0:0:0:0:
256,192,213221,1,0,0:0:0:0:
256,192,213520,1,8,0:0:0:0:
256,192,213818,1,0,0:0:0:0:
256,192,213967,1,0,0:0:0:0:
256,192,214117,1,8,0:0:0:0:
256,192,214266,1,0,0:0:0:0:
256,192,214564,1,8,0:0:0:0:
256,192,214863,1,0,0:0:0:0:
256,192,215161,1,0,0:0:0:0:
256,192,215311,1,8,0:0:0:0:
256,192,215609,1,0,0:0:0:0:
256,192,215908,1,8,0:0:0:0:
256,192,216206,1,8,0:0:0:0:
256,192,216355,1,8,0:0:0:0:
256,192,216505,1,0,0:0:0:0:
256,192,216654,1,8,0:0:0:0:
256,192,216803,1,0,0:0:0:0:
256,192,217401,1,0,0:0:0:0:
256,192,217700,1,8,0:0:0:0:
256,192,217849,1,8,0:0:0:0:
256,192,217998,1,0,0:0:0:0:
256,192,218297,1,8,0:0:0:0:
256,192,218595,1,0,0:0:0:0:
256,192,218744,1,0,0:0:0:0:
256,192,218894,1,8,0:0:0:0:
256,192,219043,1,0,0:0:0:0:
256,192,219341,1,8,0:0:0:0:
256,192,219640,1,0,0:0:0:0:
256,192,219938,1,0,0:0:0:0:
256,192,220088,1,8,0:0:0:0:
256,192,220386,1,0,0:0:0:0:
256,192,220685,1,8,0:0:0:0:
256,192,220983,1,8,0:0:0:0:
256,192,221132,1,0,0:0:0:0:
256,192,221282,1,0,0:0:0:0:
256,192,221431,1,8,0:0:0:0:
256,192,221580,1,0,0:0:0:0:
256,192,222177,1,0,0:0:0:0:
256,192,222476,1,0,0:0:0:0:
256,192,222625,1,8,0:0:0:0:
256,192,222774,1,0,0:0:0:0:
256,192,223073,1,8,0:0:0:0:
256,192,223371,1,0,0:0:0:0:
256,192,223520,1,0,0:0:0:0:
256,192,223670,1,8,0:0:0:0:
256,192,223819,1,0,0:0:0:0:
256,192,224117,1,8,0:0:0:0:
256,192,224416,1,0,0:0:0:0:
256,192,224714,1,0,0:0:0:0:
256,192,224864,1,8,0:0:0:0:
256,192,225162,1,0,0:0:0:0:
256,192,225461,1,8,0:0:0:0:
256,192,225759,5,8,0:0:0:0:
256,192,226058,1,0,0:0:0:0:
256,192,226207,1,8,0:0:0:0:
256,192,226356,1,0,0:0:0:0:
256,192,226505,1,0,0:0:0:0:
256,192,226655,1,8,0:0:0:0:
256,192,226953,5,4,0:0:0:0:
