osu file format v14

[General]
AudioFilename: audio.mp3
AudioLeadIn: 0
PreviewTime: 60388
Countdown: 0
SampleSet: Normal
StackLeniency: 0.7
Mode: 1
LetterboxInBreaks: 0
WidescreenStoryboard: 1

[Editor]
DistanceSpacing: 1.4
BeatDivisor: 1
GridSize: 8
TimelineZoom: 1.4

[Metadata]
Title:Paradisus-Paradoxum
TitleUnicode:Paradisus-Paradoxum
Artist:MYTH & ROID
ArtistUnicode:MYTH & ROID
Creator:Eriha
Version:Chromoxx' Muzukashii
Source:Re:ゼロから始める異世界生活
Tags:Chromoxx anime japanese re : zero kara hajimeru isekai seikatsu life in a different world from zero re:zero jpop j-pop pop opening full ver. version eYe's eyes Paradoxical Paradise Paradisus Paradoxum op2 season 1 S1 1期第2クール MYTH&ROID and
BeatmapID:3869480
BeatmapSetID:1879586

[Difficulty]
HPDrainRate:6
CircleSize:5
OverallDifficulty:5
ApproachRate:5
SliderMultiplier:1.4
SliderTickRate:1

[Events]
//Background and Video events
0,0,"BG.jpg",0,50
//Break Periods
2,139989,148141
//Storyboard Layer 0 (Background)
//Storyboard Layer 1 (Fail)
//Storyboard Layer 2 (Pass)
//Storyboard Layer 3 (Foreground)
//Storyboard Layer 4 (Overlay)
//Storyboard Sound Samples

[TimingPoints]
1284,298.507462686567,4,1,0,20,1,0
8410,-100,4,1,0,80,0,0
10798,-100,4,1,0,90,0,0
10836,-100,4,1,0,90,0,1
29903,-100,4,1,0,80,0,1
29940,-100,4,1,0,80,0,0
60947,-100,4,1,0,90,0,0
60985,298.507462686567,4,1,0,90,1,0
60985,-100,4,1,0,90,0,1
90797,-100,4,1,0,80,0,1
90835,298.507462686567,4,1,0,70,1,0
90835,-100,4,1,0,70,0,0
100237,-100,4,1,0,80,0,0
111095,-100,4,1,0,90,0,0
111133,298.507462686567,4,1,0,90,1,0
111133,-100,4,1,0,90,0,1
139752,-100,4,1,0,80,0,1
139789,-100,4,1,0,80,0,0
169602,-100,4,1,0,70,0,0
169640,298.507462686567,4,1,0,70,1,0
183931,-100,4,1,0,80,0,0
188707,-100,4,1,0,90,0,0
188744,-100,4,1,0,90,0,1
226916,-100,4,1,0,80,0,1
226953,-100,4,1,0,80,0,0

[HitObjects]
256,192,1284,12,0,8149,0:0:0:0:
242,165,8448,5,0,0:0:0:0:
242,165,8597,1,0,0:0:0:0:
242,165,8895,1,8,0:0:0:0:
242,165,9045,1,0,0:0:0:0:
242,165,9194,1,0,0:0:0:0:
242,165,9492,1,8,0:0:0:0:
242,165,9791,1,0,0:0:0:0:
242,165,9940,1,0,0:0:0:0:
217,227,10836,1,4,0:0:0:0:
217,227,11134,1,8,0:0:0:0:
217,227,11283,1,0,0:0:0:0:
322,205,11582,1,0,0:0:0:0:
322,205,11731,1,8,0:0:0:0:
322,205,12030,1,0,0:0:0:0:
322,205,12179,1,0,0:0:0:0:
322,205,12328,1,8,0:0:0:0:
308,177,12478,1,0,0:0:0:0:
308,177,12776,1,0,0:0:0:0:
308,177,12925,1,8,0:0:0:0:
275,233,13224,1,0,0:0:0:0:
275,233,13522,1,8,0:0:0:0:
275,233,13672,1,8,0:0:0:0:
245,243,13970,1,0,0:0:0:0:
245,243,14119,1,8,0:0:0:0:
245,243,14418,1,0,0:0:0:0:
217,168,14492,1,0,0:0:0:0:
303,207,14567,1,0,0:0:0:0:
226,146,14716,1,8,0:0:0:0:
226,146,14866,1,8,0:0:0:0:
217,168,15015,1,0,0:0:0:0:
217,168,15164,1,0,0:0:0:0:
217,168,15313,1,8,0:0:0:0:
217,168,15388,1,8,0:0:0:0:
217,168,15463,1,8,0:0:0:0:
214,164,15612,1,4,0:0:0:0:
302,196,16060,1,0,0:0:0:0:
302,196,16209,1,8,0:0:0:0:
256,258,16806,1,4,0:0:0:0:
236,201,17254,1,8,0:0:0:0:
236,201,17403,1,8,0:0:0:0:
252,178,18000,1,4,0:0:0:0:
252,178,19045,1,8,0:0:0:0:
285,175,19492,1,0,0:0:0:0:
285,175,19940,1,8,0:0:0:0:
315,223,20388,1,4,0:0:0:0:
308,227,20686,1,8,0:0:0:0:
308,227,20836,1,0,0:0:0:0:
308,227,21134,1,0,0:0:0:0:
308,227,21283,1,8,0:0:0:0:
204,87,21582,1,0,0:0:0:0:
219,95,21881,1,8,0:0:0:0:
219,95,22179,1,0,0:0:0:0:
219,95,22328,1,0,0:0:0:0:
219,95,22478,1,8,0:0:0:0:
282,206,22776,1,0,0:0:0:0:
282,206,23075,1,8,0:0:0:0:
282,206,23224,1,8,0:0:0:0:
211,227,23522,1,0,0:0:0:0:
211,227,23672,1,8,0:0:0:0:
356,212,23970,1,0,0:0:0:0:
356,212,24269,1,8,0:0:0:0:
356,212,24418,1,8,0:0:0:0:
356,212,24567,1,0,0:0:0:0:
356,212,24716,1,0,0:0:0:0:
356,212,24866,1,8,0:0:0:0:
279,209,25164,1,0,0:0:0:0:
279,209,25463,1,8,0:0:0:0:
279,209,25612,1,0,0:0:0:0:
279,209,25910,1,0,0:0:0:0:
279,209,26060,1,8,0:0:0:0:
279,209,26358,1,0,0:0:0:0:
279,209,26657,1,8,0:0:0:0:
279,209,26955,1,0,0:0:0:0:
121,138,27104,1,0,0:0:0:0:
121,138,27254,1,8,0:0:0:0:
253,191,27552,1,0,0:0:0:0:
253,191,27851,1,8,0:0:0:0:
253,191,28000,1,8,0:0:0:0:
261,156,28298,1,0,0:0:0:0:
261,156,28448,1,8,0:0:0:0:
261,156,28746,1,0,0:0:0:0:
293,209,29045,1,8,0:0:0:0:
293,209,29194,1,8,0:0:0:0:
199,114,29343,1,0,0:0:0:0:
243,151,29418,1,0,0:0:0:0:
244,151,29492,1,0,0:0:0:0:
245,147,29642,1,8,0:0:0:0:
245,147,29791,1,8,0:0:0:0:
303,138,29940,1,4,0:0:0:0:
312,244,32328,1,8,0:0:0:0:
312,244,34716,1,0,0:0:0:0:
312,244,35612,1,8,0:0:0:0:
312,244,36209,1,8,0:0:0:0:
312,244,37104,1,0,0:0:0:0:
316,238,39492,1,0,0:0:0:0:
249,173,39791,1,8,0:0:0:0:
255,173,40239,1,0,0:0:0:0:
255,173,40388,1,8,0:0:0:0:
255,173,40686,1,0,0:0:0:0:
255,173,40985,1,8,0:0:0:0:
255,173,41433,1,0,0:0:0:0:
255,173,41582,1,8,0:0:0:0:
255,173,41881,1,0,0:0:0:0:
293,195,42179,1,8,0:0:0:0:
293,195,42627,1,0,0:0:0:0:
293,195,42776,1,8,0:0:0:0:
293,195,43075,1,0,0:0:0:0:
293,195,43373,1,8,0:0:0:0:
278,171,43672,1,0,0:0:0:0:
278,171,43746,1,0,0:0:0:0:
238,200,43821,1,0,0:0:0:0:
342,182,43970,1,8,0:0:0:0:
254,223,44045,1,8,0:0:0:0:
342,182,44119,1,8,0:0:0:0:
171,107,44269,1,0,0:0:0:0:
193,137,44567,1,8,0:0:0:0:
193,137,45015,1,0,0:0:0:0:
193,137,45164,1,8,0:0:0:0:
271,215,45463,1,0,0:0:0:0:
271,215,45761,1,8,0:0:0:0:
271,215,46209,1,0,0:0:0:0:
271,215,46358,1,8,0:0:0:0:
293,135,46657,1,0,0:0:0:0:
293,135,46955,1,8,0:0:0:0:
293,135,47254,1,0,0:0:0:0:
293,135,47552,1,8,0:0:0:0:
282,279,47851,1,0,0:0:0:0:
282,279,48000,1,0,0:0:0:0:
232,215,48149,1,8,0:0:0:0:
232,215,48298,1,8,0:0:0:0:
232,215,48448,1,0,0:0:0:0:
245,153,49045,1,12,0:0:0:0:
359,170,49642,1,0,0:0:0:0:
359,170,49940,1,8,0:0:0:0:
226,178,50239,1,4,0:0:0:0:
250,159,50836,1,8,0:0:0:0:
245,198,51134,1,0,0:0:0:0:
308,172,51433,1,12,0:0:0:0:
216,154,52030,1,0,0:0:0:0:
343,172,52328,1,0,0:0:0:0:
329,137,52627,1,8,0:0:0:0:
329,137,52776,1,8,0:0:0:0:
279,185,52925,1,0,0:0:0:0:
279,185,53075,1,0,0:0:0:0:
205,200,53224,1,8,0:0:0:0:
213,71,53298,1,8,0:0:0:0:
205,200,53373,1,8,0:0:0:0:
213,71,53522,1,0,0:0:0:0:
309,117,53821,1,12,0:0:0:0:
298,118,54418,1,0,0:0:0:0:
298,118,54716,1,8,0:0:0:0:
289,95,55015,1,4,0:0:0:0:
301,162,55612,1,8,0:0:0:0:
301,162,55910,1,0,0:0:0:0:
260,88,56209,1,12,0:0:0:0:
306,173,56806,1,0,0:0:0:0:
306,173,56955,1,0,0:0:0:0:
306,173,57104,1,8,0:0:0:0:
276,152,57403,1,0,0:0:0:0:
276,152,57552,1,0,0:0:0:0:
276,152,57701,1,8,0:0:0:0:
276,152,57851,1,8,0:0:0:0:
80,156,58000,1,0,0:0:0:0:
290,187,58149,1,0,0:0:0:0:
290,187,58298,1,8,0:0:0:0:
290,187,58597,1,0,0:0:0:0:
290,187,58746,1,0,0:0:0:0:
290,187,59045,1,8,0:0:0:0:
290,187,59194,1,0,0:0:0:0:
290,187,59343,1,0,0:0:0:0:
290,187,59642,1,8,0:0:0:0:
290,187,59940,1,0,0:0:0:0:
290,187,60089,1,0,0:0:0:0:
217,227,60985,1,4,0:0:0:0:
217,227,61283,1,8,0:0:0:0:
217,227,61432,1,0,0:0:0:0:
322,205,61731,1,0,0:0:0:0:
322,205,61880,1,8,0:0:0:0:
322,205,62179,1,0,0:0:0:0:
322,205,62328,1,0,0:0:0:0:
322,205,62477,1,8,0:0:0:0:
308,177,62626,1,0,0:0:0:0:
308,177,62925,1,0,0:0:0:0:
308,177,63074,1,8,0:0:0:0:
275,233,63373,1,0,0:0:0:0:
275,233,63671,1,8,0:0:0:0:
275,233,63820,1,8,0:0:0:0:
245,243,64119,1,0,0:0:0:0:
245,243,64268,1,8,0:0:0:0:
245,243,64567,1,0,0:0:0:0:
217,168,64641,1,0,0:0:0:0:
303,207,64716,1,0,0:0:0:0:
226,146,64865,1,8,0:0:0:0:
226,146,65014,1,8,0:0:0:0:
217,168,65164,1,0,0:0:0:0:
217,168,65313,1,0,0:0:0:0:
217,168,65462,1,8,0:0:0:0:
217,168,65537,1,8,0:0:0:0:
217,168,65611,1,8,0:0:0:0:
214,164,65761,1,0,0:0:0:0:
384,90,66059,1,8,0:0:0:0:
384,90,66208,1,0,0:0:0:0:
384,90,66507,1,0,0:0:0:0:
384,90,66656,1,8,0:0:0:0:
359,121,66955,1,0,0:0:0:0:
359,121,67253,1,8,0:0:0:0:
359,121,67402,1,8,0:0:0:0:
359,121,67552,1,0,0:0:0:0:
359,121,67701,1,0,0:0:0:0:
203,106,67850,1,8,0:0:0:0:
203,106,68149,1,0,0:0:0:0:
203,106,68447,1,0,0:0:0:0:
203,106,68746,1,8,0:0:0:0:
203,106,69044,1,8,0:0:0:0:
305,169,69343,1,0,0:0:0:0:
305,169,69492,1,0,0:0:0:0:
305,169,69641,1,8,0:0:0:0:
221,273,69790,1,0,0:0:0:0:
304,199,69940,1,8,0:0:0:0:
224,141,70014,1,8,0:0:0:0:
305,169,70089,1,8,0:0:0:0:
178,154,70238,1,0,0:0:0:0:
217,227,70537,1,12,0:0:0:0:
217,227,70835,1,0,0:0:0:0:
217,227,70985,1,8,0:0:0:0:
322,205,71283,1,8,0:0:0:0:
322,205,71432,1,0,0:0:0:0:
322,205,71731,1,8,0:0:0:0:
322,205,71880,1,8,0:0:0:0:
322,205,72029,1,0,0:0:0:0:
308,177,72179,1,8,0:0:0:0:
308,177,72477,1,8,0:0:0:0:
308,177,72626,1,0,0:0:0:0:
275,233,72925,1,8,0:0:0:0:
275,233,73223,1,0,0:0:0:0:
275,233,73373,1,0,0:0:0:0:
245,243,73671,1,8,0:0:0:0:
245,243,73820,1,0,0:0:0:0:
245,243,74119,1,8,0:0:0:0:
217,168,74193,1,8,0:0:0:0:
303,207,74268,1,8,0:0:0:0:
226,146,74417,1,0,0:0:0:0:
226,146,74567,1,0,0:0:0:0:
217,168,74716,1,8,0:0:0:0:
217,168,74865,1,8,0:0:0:0:
217,168,75014,1,0,0:0:0:0:
217,168,75089,1,0,0:0:0:0:
217,168,75164,1,0,0:0:0:0:
214,164,75313,1,12,0:0:0:0:
382,228,75761,1,0,0:0:0:0:
382,228,75910,1,8,0:0:0:0:
327,261,76507,1,4,0:0:0:0:
298,88,76955,1,8,0:0:0:0:
298,88,77104,1,8,0:0:0:0:
316,135,77701,1,4,0:0:0:0:
316,135,78746,1,8,0:0:0:0:
316,135,79193,1,0,0:0:0:0:
316,135,79641,1,8,0:0:0:0:
315,223,80089,1,4,0:0:0:0:
308,227,80387,1,8,0:0:0:0:
308,227,80537,1,0,0:0:0:0:
308,227,80835,1,0,0:0:0:0:
308,227,80984,1,8,0:0:0:0:
204,87,81283,1,0,0:0:0:0:
219,95,81582,1,8,0:0:0:0:
219,95,81880,1,0,0:0:0:0:
219,95,82029,1,0,0:0:0:0:
219,95,82179,1,8,0:0:0:0:
282,206,82477,1,0,0:0:0:0:
282,206,82776,1,8,0:0:0:0:
282,206,82925,1,8,0:0:0:0:
211,227,83223,1,0,0:0:0:0:
211,227,83373,1,8,0:0:0:0:
356,212,83671,1,0,0:0:0:0:
356,212,83970,1,8,0:0:0:0:
356,212,84119,1,8,0:0:0:0:
356,212,84268,1,0,0:0:0:0:
356,212,84417,1,0,0:0:0:0:
356,212,84567,1,8,0:0:0:0:
279,209,84865,1,0,0:0:0:0:
279,209,85164,1,8,0:0:0:0:
279,209,85313,1,0,0:0:0:0:
279,209,85611,1,0,0:0:0:0:
279,209,85761,1,8,0:0:0:0:
279,209,86059,1,0,0:0:0:0:
279,209,86358,1,8,0:0:0:0:
279,209,86656,1,0,0:0:0:0:
121,138,86805,1,0,0:0:0:0:
121,138,86955,1,8,0:0:0:0:
253,191,87253,1,0,0:0:0:0:
253,191,87552,1,8,0:0:0:0:
253,191,87701,1,8,0:0:0:0:
261,156,87999,1,0,0:0:0:0:
261,156,88149,1,8,0:0:0:0:
261,156,88447,1,0,0:0:0:0:
293,209,88746,1,8,0:0:0:0:
293,209,88895,1,8,0:0:0:0:
199,114,89044,1,0,0:0:0:0:
243,151,89119,1,0,0:0:0:0:
244,151,89193,1,0,0:0:0:0:
245,147,89343,1,8,0:0:0:0:
245,147,89492,1,8,0:0:0:0:
303,138,89641,1,4,0:0:0:0:
363,221,90835,1,12,0:0:0:0:
363,221,93223,1,0,0:0:0:0:
363,221,95611,1,8,0:0:0:0:
256,192,97999,12,0,100088,0:0:0:0:
317,162,100387,5,0,0:0:0:0:
334,149,100835,1,8,0:0:0:0:
334,149,101282,1,0,0:0:0:0:
257,187,101730,1,8,0:0:0:0:
257,187,102178,1,0,0:0:0:0:
257,187,102476,1,0,0:0:0:0:
240,156,102775,1,8,0:0:0:0:
240,156,103223,1,0,0:0:0:0:
240,156,103670,1,8,0:0:0:0:
252,179,104118,1,0,0:0:0:0:
252,179,104566,1,8,0:0:0:0:
252,179,104864,1,8,0:0:0:0:
277,217,105163,1,0,0:0:0:0:
277,217,105461,1,8,0:0:0:0:
277,217,105760,1,0,0:0:0:0:
269,89,106058,1,8,0:0:0:0:
269,89,106357,1,0,0:0:0:0:
414,180,106506,1,0,0:0:0:0:
414,180,106655,1,8,0:0:0:0:
338,242,106805,1,8,0:0:0:0:
338,242,106954,1,0,0:0:0:0:
338,242,107103,1,0,0:0:0:0:
202,146,107252,1,8,0:0:0:0:
184,195,107551,1,0,0:0:0:0:
182,188,107626,1,0,0:0:0:0:
182,185,107700,1,0,0:0:0:0:
277,217,107849,1,8,0:0:0:0:
272,135,107999,1,8,0:0:0:0:
312,197,108148,1,0,0:0:0:0:
369,168,108223,1,0,0:0:0:0:
300,163,108297,1,0,0:0:0:0:
300,163,108446,1,8,0:0:0:0:
300,163,108596,1,8,0:0:0:0:
354,140,108745,1,0,0:0:0:0:
354,140,108894,1,0,0:0:0:0:
354,140,109193,1,8,0:0:0:0:
354,140,109342,1,0,0:0:0:0:
354,140,109491,1,0,0:0:0:0:
354,140,109790,1,8,0:0:0:0:
354,140,110088,1,0,0:0:0:0:
354,140,110237,1,0,0:0:0:0:
217,227,111133,1,4,0:0:0:0:
217,227,111431,1,8,0:0:0:0:
217,227,111580,1,0,0:0:0:0:
322,205,111879,1,0,0:0:0:0:
322,205,112028,1,8,0:0:0:0:
322,205,112327,1,0,0:0:0:0:
322,205,112476,1,0,0:0:0:0:
322,205,112625,1,8,0:0:0:0:
308,177,112774,1,0,0:0:0:0:
308,177,113073,1,0,0:0:0:0:
308,177,113222,1,8,0:0:0:0:
275,233,113521,1,0,0:0:0:0:
275,233,113819,1,8,0:0:0:0:
275,233,113968,1,8,0:0:0:0:
245,243,114267,1,0,0:0:0:0:
245,243,114416,1,8,0:0:0:0:
245,243,114715,1,0,0:0:0:0:
217,168,114789,1,0,0:0:0:0:
303,207,114864,1,0,0:0:0:0:
226,146,115013,1,8,0:0:0:0:
226,146,115162,1,8,0:0:0:0:
217,168,115312,1,0,0:0:0:0:
217,168,115461,1,0,0:0:0:0:
217,168,115610,1,8,0:0:0:0:
217,168,115685,1,8,0:0:0:0:
217,168,115759,1,8,0:0:0:0:
214,164,115909,1,0,0:0:0:0:
384,90,116207,1,8,0:0:0:0:
384,90,116356,1,0,0:0:0:0:
384,90,116655,1,0,0:0:0:0:
384,90,116804,1,8,0:0:0:0:
359,121,117103,1,0,0:0:0:0:
359,121,117401,1,8,0:0:0:0:
359,121,117550,1,8,0:0:0:0:
359,121,117700,1,0,0:0:0:0:
359,121,117849,1,0,0:0:0:0:
203,106,117998,1,8,0:0:0:0:
203,106,118297,1,0,0:0:0:0:
203,106,118595,1,0,0:0:0:0:
203,106,118894,1,8,0:0:0:0:
203,106,119192,1,8,0:0:0:0:
305,169,119491,1,0,0:0:0:0:
305,169,119640,1,0,0:0:0:0:
305,169,119789,1,8,0:0:0:0:
221,273,119938,1,0,0:0:0:0:
304,199,120088,1,8,0:0:0:0:
224,141,120162,1,8,0:0:0:0:
305,169,120237,1,8,0:0:0:0:
178,154,120386,1,0,0:0:0:0:
217,227,120685,1,12,0:0:0:0:
217,227,120983,1,0,0:0:0:0:
217,227,121133,1,8,0:0:0:0:
322,205,121431,1,8,0:0:0:0:
322,205,121580,1,0,0:0:0:0:
322,205,121879,1,8,0:0:0:0:
322,205,122028,1,8,0:0:0:0:
322,205,122177,1,0,0:0:0:0:
308,177,122327,1,8,0:0:0:0:
308,177,122625,1,8,0:0:0:0:
308,177,122774,1,0,0:0:0:0:
275,233,123073,1,8,0:0:0:0:
275,233,123371,1,0,0:0:0:0:
275,233,123521,1,0,0:0:0:0:
245,243,123819,1,8,0:0:0:0:
245,243,123968,1,0,0:0:0:0:
245,243,124267,1,8,0:0:0:0:
217,168,124341,1,8,0:0:0:0:
303,207,124416,1,8,0:0:0:0:
226,146,124565,1,0,0:0:0:0:
226,146,124715,1,0,0:0:0:0:
217,168,124864,1,8,0:0:0:0:
217,168,125013,1,8,0:0:0:0:
217,168,125162,1,0,0:0:0:0:
217,168,125237,1,0,0:0:0:0:
217,168,125312,1,0,0:0:0:0:
214,164,125461,1,12,0:0:0:0:
382,228,125909,1,0,0:0:0:0:
382,228,126058,1,8,0:0:0:0:
327,261,126655,1,4,0:0:0:0:
298,88,127103,1,8,0:0:0:0:
298,88,127252,1,8,0:0:0:0:
316,135,127849,1,4,0:0:0:0:
316,135,128894,1,8,0:0:0:0:
316,135,129341,1,0,0:0:0:0:
316,135,129789,1,8,0:0:0:0:
315,223,130237,1,4,0:0:0:0:
308,227,130535,1,8,0:0:0:0:
308,227,130685,1,0,0:0:0:0:
308,227,130983,1,0,0:0:0:0:
308,227,131133,1,8,0:0:0:0:
204,87,131431,1,0,0:0:0:0:
219,95,131730,1,8,0:0:0:0:
219,95,132028,1,0,0:0:0:0:
219,95,132177,1,0,0:0:0:0:
219,95,132327,1,8,0:0:0:0:
282,206,132625,1,0,0:0:0:0:
282,206,132924,1,8,0:0:0:0:
282,206,133073,1,8,0:0:0:0:
211,227,133371,1,0,0:0:0:0:
211,227,133521,1,8,0:0:0:0:
356,212,133819,1,0,0:0:0:0:
356,212,134118,1,8,0:0:0:0:
356,212,134267,1,8,0:0:0:0:
356,212,134416,1,0,0:0:0:0:
356,212,134565,1,0,0:0:0:0:
356,212,134715,1,8,0:0:0:0:
279,209,135013,1,0,0:0:0:0:
279,209,135312,1,8,0:0:0:0:
279,209,135461,1,0,0:0:0:0:
279,209,135759,1,0,0:0:0:0:
279,209,135909,1,8,0:0:0:0:
279,209,136207,1,0,0:0:0:0:
279,209,136506,1,8,0:0:0:0:
279,209,136804,1,0,0:0:0:0:
121,138,136953,1,0,0:0:0:0:
121,138,137103,1,8,0:0:0:0:
253,191,137401,1,0,0:0:0:0:
253,191,137700,1,8,0:0:0:0:
253,191,137849,1,8,0:0:0:0:
261,156,138147,1,0,0:0:0:0:
261,156,138297,1,8,0:0:0:0:
261,156,138595,1,0,0:0:0:0:
293,209,138894,1,8,0:0:0:0:
293,209,139043,1,8,0:0:0:0:
199,114,139192,1,0,0:0:0:0:
243,151,139267,1,0,0:0:0:0:
244,151,139341,1,0,0:0:0:0:
245,147,139491,1,8,0:0:0:0:
245,147,139640,1,8,0:0:0:0:
303,138,139789,1,4,0:0:0:0:
292,157,149341,5,4,0:0:0:0:
292,157,149789,1,8,0:0:0:0:
292,157,150088,1,8,0:0:0:0:
292,157,150535,1,0,0:0:0:0:
292,157,150685,1,8,0:0:0:0:
292,157,150834,1,0,0:0:0:0:
277,208,151132,1,0,0:0:0:0:
277,208,151282,1,8,0:0:0:0:
277,208,151431,1,0,0:0:0:0:
277,208,151730,1,0,0:0:0:0:
248,205,152177,1,8,0:0:0:0:
248,205,152476,1,8,0:0:0:0:
248,205,152924,1,0,0:0:0:0:
248,205,153073,1,0,0:0:0:0:
248,205,153222,1,8,0:0:0:0:
248,205,153521,1,0,0:0:0:0:
248,205,153670,1,0,0:0:0:0:
248,205,153819,1,8,0:0:0:0:
211,176,154118,1,0,0:0:0:0:
211,176,154565,1,8,0:0:0:0:
211,176,154864,1,8,0:0:0:0:
211,176,155312,1,0,0:0:0:0:
211,176,155461,1,8,0:0:0:0:
211,176,155610,1,0,0:0:0:0:
358,232,155909,1,0,0:0:0:0:
358,232,156058,1,8,0:0:0:0:
295,184,156207,1,0,0:0:0:0:
295,184,156506,1,8,0:0:0:0:
297,193,156804,1,0,0:0:0:0:
297,193,156953,1,8,0:0:0:0:
297,193,157252,1,8,0:0:0:0:
297,193,157401,1,0,0:0:0:0:
297,193,157700,1,8,0:0:0:0:
296,201,157998,1,8,0:0:0:0:
296,201,158297,1,0,0:0:0:0:
232,241,158595,1,8,0:0:0:0:
187,58,158894,1,4,0:0:0:0:
317,155,159341,1,8,0:0:0:0:
317,155,159640,1,8,0:0:0:0:
317,155,160088,1,0,0:0:0:0:
317,155,160237,1,8,0:0:0:0:
234,158,160386,1,0,0:0:0:0:
317,155,160685,1,0,0:0:0:0:
234,158,160834,1,8,0:0:0:0:
233,117,160983,1,0,0:0:0:0:
233,117,161282,1,0,0:0:0:0:
233,117,161730,1,8,0:0:0:0:
233,117,162028,1,8,0:0:0:0:
233,117,162476,1,0,0:0:0:0:
186,128,162625,1,0,0:0:0:0:
233,117,162774,1,8,0:0:0:0:
241,226,163073,1,0,0:0:0:0:
241,226,163222,1,0,0:0:0:0:
241,226,163371,1,8,0:0:0:0:
241,226,163670,1,0,0:0:0:0:
305,162,163819,1,0,0:0:0:0:
305,162,163968,1,8,0:0:0:0:
209,168,164043,1,8,0:0:0:0:
209,168,164118,1,8,0:0:0:0:
279,162,164267,1,0,0:0:0:0:
184,118,164416,1,8,0:0:0:0:
184,118,164565,1,0,0:0:0:0:
184,118,164640,1,0,0:0:0:0:
184,118,164715,1,0,0:0:0:0:
381,311,164864,1,8,0:0:0:0:
335,178,165162,1,0,0:0:0:0:
193,152,165461,1,8,0:0:0:0:
219,154,165535,1,8,0:0:0:0:
229,161,165610,1,8,0:0:0:0:
268,166,165759,1,0,0:0:0:0:
268,166,165909,1,8,0:0:0:0:
320,197,166058,1,0,0:0:0:0:
320,197,166207,1,0,0:0:0:0:
320,197,166506,1,8,0:0:0:0:
320,197,166655,1,0,0:0:0:0:
320,197,166804,1,0,0:0:0:0:
320,197,167103,1,8,0:0:0:0:
320,197,167401,1,0,0:0:0:0:
320,197,167550,1,0,0:0:0:0:
322,158,168446,1,8,0:0:0:0:
322,158,169043,1,8,0:0:0:0:
322,158,169640,1,0,0:0:0:0:
365,180,170087,1,8,0:0:0:0:
365,180,170386,1,0,0:0:0:0:
365,180,170684,1,8,0:0:0:0:
365,180,172028,1,0,0:0:0:0:
365,180,172475,1,8,0:0:0:0:
365,180,172774,1,8,0:0:0:0:
365,180,173072,1,0,0:0:0:0:
365,180,173819,1,8,0:0:0:0:
365,180,174117,1,8,0:0:0:0:
365,180,174416,1,0,0:0:0:0:
365,180,175013,1,8,0:0:0:0:
365,180,175311,1,8,0:0:0:0:
365,180,175610,1,0,0:0:0:0:
365,180,175908,1,0,0:0:0:0:
365,180,176207,1,8,0:0:0:0:
221,270,176804,1,0,0:0:0:0:
258,254,177998,1,8,0:0:0:0:
258,254,179192,1,0,0:0:0:0:
258,254,179640,1,8,0:0:0:0:
258,254,179938,1,0,0:0:0:0:
258,254,180237,1,8,0:0:0:0:
358,260,180983,1,0,0:0:0:0:
358,260,181281,1,0,0:0:0:0:
358,260,181580,1,8,0:0:0:0:
358,260,182028,1,0,0:0:0:0:
358,260,182326,1,8,0:0:0:0:
358,260,182625,1,0,0:0:0:0:
281,182,183968,1,8,0:0:0:0:
281,182,184266,1,8,0:0:0:0:
281,182,184565,1,0,0:0:0:0:
281,182,184863,1,0,0:0:0:0:
118,215,185162,1,8,0:0:0:0:
118,215,185460,1,8,0:0:0:0:
118,215,185759,1,0,0:0:0:0:
118,215,186057,1,0,0:0:0:0:
118,215,186356,1,8,0:0:0:0:
281,218,186654,1,0,0:0:0:0:
281,218,186804,1,0,0:0:0:0:
281,218,186953,1,8,0:0:0:0:
281,218,187102,1,8,0:0:0:0:
281,218,187251,1,0,0:0:0:0:
281,218,187401,1,0,0:0:0:0:
281,218,187550,1,8,0:0:0:0:
304,207,188744,1,4,0:0:0:0:
269,228,189042,1,8,0:0:0:0:
269,228,189192,1,0,0:0:0:0:
269,228,189490,1,0,0:0:0:0:
269,228,189640,1,8,0:0:0:0:
269,228,189938,1,0,0:0:0:0:
269,228,190087,1,0,0:0:0:0:
269,228,190237,1,8,0:0:0:0:
269,228,190386,1,8,0:0:0:0:
255,205,190535,1,0,0:0:0:0:
255,205,190834,1,8,0:0:0:0:
162,167,191132,1,0,0:0:0:0:
269,227,191431,1,8,0:0:0:0:
269,227,191580,1,8,0:0:0:0:
269,227,191878,1,0,0:0:0:0:
269,227,192028,1,8,0:0:0:0:
313,251,192326,1,0,0:0:0:0:
313,251,192625,1,8,0:0:0:0:
313,251,192774,1,8,0:0:0:0:
232,166,192923,1,0,0:0:0:0:
213,157,192998,1,0,0:0:0:0:
232,166,193072,1,0,0:0:0:0:
217,158,193222,1,8,0:0:0:0:
217,158,193520,1,0,0:0:0:0:
250,175,193819,1,8,0:0:0:0:
260,205,193968,1,0,0:0:0:0:
159,205,194266,1,0,0:0:0:0:
159,205,194416,1,8,0:0:0:0:
331,304,194714,1,0,0:0:0:0:
331,304,195013,1,8,0:0:0:0:
331,304,195162,1,8,0:0:0:0:
366,177,195311,1,0,0:0:0:0:
366,177,195460,1,0,0:0:0:0:
366,177,195610,1,8,0:0:0:0:
366,177,195908,1,0,0:0:0:0:
366,177,196207,1,8,0:0:0:0:
366,177,196505,1,0,0:0:0:0:
243,57,196804,1,8,0:0:0:0:
261,186,197102,1,0,0:0:0:0:
261,186,197251,1,0,0:0:0:0:
261,186,197401,1,8,0:0:0:0:
304,215,197550,1,8,0:0:0:0:
310,211,197699,1,0,0:0:0:0:
287,267,197774,1,0,0:0:0:0:
310,210,197848,1,0,0:0:0:0:
293,253,197998,1,8,0:0:0:0:
290,247,198072,1,8,0:0:0:0:
294,253,198147,1,8,0:0:0:0:
217,227,198296,1,4,0:0:0:0:
217,227,198595,1,8,0:0:0:0:
217,227,198744,1,0,0:0:0:0:
322,205,199042,1,0,0:0:0:0:
322,205,199192,1,8,0:0:0:0:
322,205,199490,1,0,0:0:0:0:
322,205,199640,1,0,0:0:0:0:
322,205,199789,1,8,0:0:0:0:
308,177,199938,1,0,0:0:0:0:
308,177,200237,1,0,0:0:0:0:
308,177,200386,1,8,0:0:0:0:
275,233,200684,1,0,0:0:0:0:
275,233,201132,1,12,0:0:0:0:
245,243,201431,1,4,0:0:0:0:
245,243,201729,1,12,0:0:0:0:
223,234,202028,1,0,0:0:0:0:
226,146,202177,1,8,0:0:0:0:
226,146,202326,1,8,0:0:0:0:
217,168,202475,1,0,0:0:0:0:
217,168,202625,1,0,0:0:0:0:
217,168,202774,1,8,0:0:0:0:
217,168,202848,1,8,0:0:0:0:
217,168,202923,1,8,0:0:0:0:
214,164,203072,1,4,0:0:0:0:
302,196,203520,1,0,0:0:0:0:
302,196,203669,1,8,0:0:0:0:
256,258,204266,1,4,0:0:0:0:
236,201,204714,1,8,0:0:0:0:
236,201,204863,1,8,0:0:0:0:
252,178,205460,1,4,0:0:0:0:
252,178,206505,1,8,0:0:0:0:
285,175,206953,1,0,0:0:0:0:
285,175,207401,1,8,0:0:0:0:
315,223,207848,1,4,0:0:0:0:
308,227,208147,1,8,0:0:0:0:
308,227,208296,1,0,0:0:0:0:
308,227,208595,1,0,0:0:0:0:
308,227,208744,1,8,0:0:0:0:
204,87,209042,1,0,0:0:0:0:
219,95,209341,1,8,0:0:0:0:
219,95,209639,1,0,0:0:0:0:
219,95,209789,1,0,0:0:0:0:
219,95,209938,1,8,0:0:0:0:
282,206,210237,1,0,0:0:0:0:
282,206,210535,1,8,0:0:0:0:
282,206,210684,1,8,0:0:0:0:
211,227,210983,1,0,0:0:0:0:
211,227,211132,1,8,0:0:0:0:
356,212,211431,1,0,0:0:0:0:
356,212,211729,1,8,0:0:0:0:
356,212,211878,1,8,0:0:0:0:
356,212,212028,1,0,0:0:0:0:
356,212,212177,1,0,0:0:0:0:
356,212,212326,1,8,0:0:0:0:
279,209,212625,1,0,0:0:0:0:
279,209,212923,1,8,0:0:0:0:
279,209,213072,1,0,0:0:0:0:
279,209,213371,1,0,0:0:0:0:
279,209,213520,1,8,0:0:0:0:
279,209,213819,1,0,0:0:0:0:
279,209,214117,1,8,0:0:0:0:
279,209,214416,1,0,0:0:0:0:
121,138,214565,1,0,0:0:0:0:
121,138,214714,1,8,0:0:0:0:
253,191,215013,1,0,0:0:0:0:
253,191,215311,1,8,0:0:0:0:
253,191,215460,1,8,0:0:0:0:
261,156,215759,1,0,0:0:0:0:
261,156,215908,1,8,0:0:0:0:
261,156,216207,1,0,0:0:0:0:
293,209,216505,1,8,0:0:0:0:
293,209,216654,1,8,0:0:0:0:
199,114,216804,1,0,0:0:0:0:
243,151,216878,1,0,0:0:0:0:
244,151,216953,1,0,0:0:0:0:
245,147,217102,1,8,0:0:0:0:
245,147,217251,1,0,0:0:0:0:
303,138,217401,1,12,0:0:0:0:
279,209,217699,1,0,0:0:0:0:
279,209,217848,1,8,0:0:0:0:
279,209,218147,1,8,0:0:0:0:
279,209,218296,1,0,0:0:0:0:
279,209,218595,1,8,0:0:0:0:
279,209,218893,1,0,0:0:0:0:
279,209,219192,1,8,0:0:0:0:
121,138,219341,1,8,0:0:0:0:
121,138,219490,1,0,0:0:0:0:
253,191,219789,1,8,0:0:0:0:
253,191,220087,1,0,0:0:0:0:
253,191,220237,1,0,0:0:0:0:
261,156,220535,1,8,0:0:0:0:
261,156,220684,1,0,0:0:0:0:
261,156,220983,1,8,0:0:0:0:
293,209,221281,1,0,0:0:0:0:
293,209,221431,1,0,0:0:0:0:
199,114,221580,1,8,0:0:0:0:
243,151,221654,1,8,0:0:0:0:
244,151,221729,1,8,0:0:0:0:
245,147,221878,1,0,0:0:0:0:
245,147,222028,1,8,0:0:0:0:
303,138,222177,1,4,0:0:0:0:
279,209,222475,1,8,0:0:0:0:
279,209,222625,1,0,0:0:0:0:
279,209,222923,1,0,0:0:0:0:
279,209,223072,1,8,0:0:0:0:
279,209,223371,1,0,0:0:0:0:
279,209,223669,1,8,0:0:0:0:
279,209,223968,1,0,0:0:0:0:
121,138,224117,1,0,0:0:0:0:
121,138,224266,1,8,0:0:0:0:
253,191,224565,1,0,0:0:0:0:
253,191,224863,1,8,0:0:0:0:
253,191,225013,1,8,0:0:0:0:
423,196,225162,1,0,0:0:0:0:
261,156,225311,1,0,0:0:0:0:
261,156,225460,1,8,0:0:0:0:
261,156,225759,1,0,0:0:0:0:
423,196,225908,1,0,0:0:0:0:
293,209,226057,1,8,0:0:0:0:
350,273,226132,1,8,0:0:0:0:
293,209,226207,1,8,0:0:0:0:
199,114,226356,1,0,0:0:0:0:
243,151,226431,1,0,0:0:0:0:
244,151,226505,1,0,0:0:0:0:
245,147,226654,1,8,0:0:0:0:
375,216,226804,1,8,0:0:0:0:
339,231,226953,1,0,0:0:0:0:
339,231,227102,1,0,0:0:0:0:
339,231,227401,1,8,0:0:0:0:
339,231,227550,1,0,0:0:0:0:
339,231,227699,1,0,0:0:0:0:
339,231,227998,1,8,0:0:0:0:
339,231,228296,1,0,0:0:0:0:
339,231,228445,1,0,0:0:0:0:
