osu file format v14

[General]
AudioFilename: audio.mp3
AudioLeadIn: 0
PreviewTime: 59184
Countdown: 0
SampleSet: Soft
StackLeniency: 0.7
Mode: 0
LetterboxInBreaks: 0
WidescreenStoryboard: 1

[Editor]
Bookmarks: 47916,59856
DistanceSpacing: 1
BeatDivisor: 2
GridSize: 4
TimelineZoom: 2.5

[Metadata]
Title:Paradisus-Paradoxum
TitleUnicode:Paradisus-Paradoxum
Artist:MYTH & ROID
ArtistUnicode:MYTH & ROID
Creator:Enjoy
Version:Normal
Source:Re:ゼロから始める異世界生活
Tags:
BeatmapID:1032362
BeatmapSetID:477536

[Difficulty]
HPDrainRate:4
CircleSize:2.7
OverallDifficulty:4
ApproachRate:5
SliderMultiplier:1.1
SliderTickRate:1

[Events]
//Background and Video events
0,0,"bbg.jpg",0,0
Video,0,"VideoOP.flv"
//Break Periods
//Storyboard Layer 0 (Background)
//Storyboard Layer 1 (Fail)
//Storyboard Layer 2 (Pass)
//Storyboard Layer 3 (Foreground)
//Storyboard Sound Samples

[TimingPoints]
155,298.507462686567,4,2,1,50,1,0
9707,-100,4,2,3,70,0,1
9856,-100,4,2,3,70,0,0
18363,-100,4,2,1,70,0,0
28811,-100,4,2,1,50,0,0
38363,-100,4,2,1,55,0,0
47916,-100,4,2,1,65,0,1
48065,-100,4,2,1,65,0,0
59856,-100,4,1,3,70,0,1
74184,-100,4,2,3,70,0,0
78065,-100,4,2,1,70,0,0
78960,-100,4,2,1,70,0,1
79110,-100,4,2,1,70,0,0
83737,-100,4,1,3,70,0,0

[Colours]
Combo1 : 233,186,213
Combo2 : 180,145,238
Combo3 : 131,98,157
Combo4 : 192,192,192

[HitObjects]
62,225,7319,6,0,L|67:169,1,55
176,179,7766,2,0,L|172:233,2,55
225,80,8363,2,0,B|275:61|275:61|334:85,1,110
377,104,8811,1,0,0:0:0:0:
361,213,9110,2,0,L|356:340,1,110
252,358,9707,6,0,B|216:324|216:324|129:337,1,110
102,342,10154,2,0,L|106:232,1,110
109,176,10602,1,0,0:0:0:0:
190,102,10901,2,0,P|239:119|313:89,1,110
339,73,11349,1,0,0:0:0:0:
339,73,11498,2,0,L|343:14,2,55
340,183,12095,6,0,L|486:170,1,110
492,208,12543,2,0,B|501:269|501:269|465:325,1,110
439,351,12990,1,0,0:0:0:0:
439,351,13140,2,0,B|396:331|396:331|302:345,1,110
280,350,13587,2,0,L|272:283,1,55
239,251,13886,2,0,P|195:216|130:240,1,110
37,202,14483,6,0,B|17:168|17:168|25:70,2,110
245,130,15677,2,0,B|298:111|298:111|366:128,2,110
256,192,16871,12,0,17916,0:0:0:0:
123,42,18363,5,0,0:0:0:0:
241,156,18811,1,0,0:0:0:0:
78,182,19259,2,0,B|56:237|56:237|86:305,1,110
105,330,19707,1,0,0:0:0:0:
105,330,19856,2,0,L|178:333,2,55
171,241,20453,6,0,L|293:243,1,110
336,243,20901,2,0,L|333:309,2,55
340,187,21349,1,0,0:0:0:0:
360,79,21647,6,0,B|313:49|313:49|243:75,1,110
209,83,22095,1,0,0:0:0:0:
209,83,22244,2,0,L|154:80,2,55
248,185,22841,6,0,L|112:176,1,110
92,208,23289,1,0,0:0:0:0:
92,208,23438,2,0,L|98:290,1,55
93,318,23737,2,0,L|131:376,1,55
171,338,24035,6,0,B|203:303|203:303|282:310,1,110
320,313,24483,1,0,0:0:0:0:
320,313,24632,2,0,L|334:367,2,55
264,217,25229,6,0,B|250:183|250:183|270:71,1,110
277,57,25677,2,0,L|347:44,2,55
222,67,26125,1,0,0:0:0:0:
114,89,26423,6,0,B|75:132|75:132|91:202,1,110
96,237,26871,1,0,0:0:0:0:
96,237,27020,2,0,L|25:232,2,55
206,241,27617,6,0,L|215:359,1,110
268,341,28065,1,0,0:0:0:0:
268,341,28214,2,0,B|321:357|321:357|379:337,1,110
423,317,28662,1,0,0:0:0:0:
475,301,28811,6,0,L|483:133,2,165
389,231,30005,2,0,L|397:63,2,165
286,270,31199,6,0,B|237:219|237:219|125:242,2,165
196,334,32393,2,0,B|103:352|103:352|54:301,2,165
144,237,33587,6,0,B|152:189|152:189|126:149|126:149|136:79,2,165
36,212,34781,2,0,B|28:260|28:260|54:300|54:300|44:370,2,165
256,192,35975,12,0,37766,0:0:0:0:
121,148,38363,5,0,0:0:0:0:
183,238,38662,1,0,0:0:0:0:
183,238,38811,2,0,B|219:222|219:222|310:246,1,110
340,256,39259,1,0,0:0:0:0:
317,148,39557,6,0,P|303:77|345:40,1,110
377,39,40005,2,0,P|421:68|429:120,1,110
407,171,40453,1,0,0:0:0:0:
340,256,40752,6,0,B|311:293|311:293|328:366,1,110
271,347,41199,2,0,L|148:338,1,110
106,334,41647,1,0,0:0:0:0:
190,263,41946,6,0,B|216:227|216:227|209:132,1,110
204,107,42393,1,0,0:0:0:0:
308,71,42692,2,0,L|315:6,2,55
339,116,43140,6,0,B|383:97|383:97|465:108,1,110
498,115,43587,2,0,P|464:170|489:226,1,110
508,254,44035,1,0,0:0:0:0:
398,242,44334,6,0,L|281:231,1,110
306,283,44781,2,0,B|326:340|326:340|254:371,1,110
226,372,45229,1,0,0:0:0:0:
122,334,45528,6,0,P|94:266|128:230,1,110
196,172,46125,2,0,L|206:103,1,55
255,137,46423,2,0,L|265:68,1,55
312,106,46722,2,0,L|324:22,2,73.3333333333333
362,159,47319,2,0,L|480:153,1,110
352,141,47916,2,0,L|470:135,1,110
