osu file format v14

[General]
AudioFilename: audio.mp3
AudioLeadIn: 0
PreviewTime: 168598
Countdown: 0
SampleSet: Soft
StackLeniency: 0.3
Mode: 0
LetterboxInBreaks: 0
WidescreenStoryboard: 1

[Editor]
Bookmarks: 8598,89791,139941,169791,179343
DistanceSpacing: 0.7
BeatDivisor: 4
GridSize: 4
TimelineZoom: 2.100005

[Metadata]
Title:Paradisus-Paradoxum
TitleUnicode:Paradisus-Paradoxum
Artist:MYTH & ROID
ArtistUnicode:MYTH & ROID
Creator:Cellina
Version:toybot's Another
Source:Re:ゼロから始める異世界生活
Tags:akitoshi kalibe nasya n_a_s_y_a shirakai toybot curi [c_u_r_i] reana dailycare habiholic re : zero kara hajimeru isekai seikatsu life in a different world from zero re:zero
BeatmapID:1106480
BeatmapSetID:510183

[Difficulty]
HPDrainRate:6
CircleSize:4.5
OverallDifficulty:8
ApproachRate:9.1
SliderMultiplier:1.6
SliderTickRate:1

[Events]
//Background and Video events
0,0,"710129.png",0,0
//Break Periods
2,90986,97550
2,140141,147699
2,169792,178744
//Storyboard Layer 0 (Background)
//Storyboard Layer 1 (Fail)
//Storyboard Layer 2 (Pass)
//Storyboard Layer 3 (Foreground)
//Storyboard Sound Samples

[TimingPoints]
1434,298.507462686567,4,2,1,20,1,0
8598,-100,4,2,1,60,0,0
10389,-166.666666666667,4,2,0,60,0,0
10986,-100,4,2,1,70,0,0
15463,-83.3333333333333,4,2,1,70,0,0
15762,-100,4,2,1,70,0,0
18150,-200,4,2,1,70,0,0
19642,-133.333333333333,4,2,1,70,0,0
20090,-100,4,2,1,70,0,0
20538,-100,4,2,1,70,0,0
29792,-80,4,2,1,70,0,0
30090,-133.333333333333,4,2,2,40,0,0
38374,-133.333333333333,4,2,2,40,0,0
38448,-133.333333333333,4,2,2,40,0,0
39642,-100,4,2,1,60,0,0
48001,-90.9090909090909,4,2,1,60,0,0
48598,-90.9090909090909,4,2,0,20,0,0
48896,-90.9090909090909,4,2,0,40,0,0
49195,-100,4,2,1,60,0,0
58747,-83.3333333333333,4,2,1,60,0,0
60538,-111.111111111111,4,2,0,60,0,0
61135,-90.9090909090909,4,2,1,75,0,1
65016,-80,4,2,1,75,0,1
65314,-90.9090909090909,4,2,1,75,0,1
75463,-90.9090909090909,4,2,1,75,0,0
76060,-133.333333333333,4,2,1,75,0,0
76657,-90.9090909090909,4,2,1,75,0,0
77254,-133.333333333333,4,2,1,75,0,0
77851,-200,4,2,1,75,0,0
79344,-133.333333333333,4,2,1,75,0,0
79792,-100,4,2,1,75,0,0
98150,-111.111111111111,4,2,1,75,0,0
99344,-166.666666666667,4,2,1,50,0,0
99941,-111.111111111111,4,2,1,50,0,0
100538,-111.111111111111,4,2,3,60,0,0
107702,-111.111111111111,4,2,1,65,0,0
108896,-90.9090909090909,4,2,1,65,0,0
110687,-111.111111111111,4,2,0,60,0,0
111284,-90.9090909090909,4,2,1,75,0,1
125613,-90.9090909090909,4,2,1,75,0,0
126210,-133.333333333333,4,2,1,75,0,0
126807,-90.9090909090909,4,2,1,75,0,0
127404,-133.333333333333,4,2,1,75,0,0
128001,-153.846153846154,4,2,1,75,0,0
129493,-133.333333333333,4,2,1,75,0,0
129941,-100,4,2,1,75,0,0
148299,-133.333333333333,4,2,1,60,0,0
149493,-111.111111111111,4,2,1,60,0,0
153672,-111.111111111111,4,2,0,50,0,0
154269,-111.111111111111,4,2,1,60,0,0
157851,-80,4,2,1,60,0,0
159045,-111.111111111111,4,2,1,60,0,0
166210,-90.9090909090909,4,2,1,60,0,0
179343,-90.9090909090909,4,2,2,40,0,0
179344,-133.333333333333,4,2,2,40,0,0
184119,-133.333333333333,4,2,1,65,0,0
184120,-100,4,2,1,65,0,0
187404,-83.3333333333333,4,2,1,65,0,0
188001,-200,4,2,2,65,0,0
188448,-133.333333333333,4,2,2,65,0,0
188896,-90.9090909090909,4,2,1,80,0,1
201284,-80,4,2,1,80,0,1
203225,-90.9090909090909,4,2,1,80,0,0
205613,-166.666666666667,4,2,1,80,0,0
207105,-133.333333333333,4,2,1,80,0,0
207553,-100,4,2,1,80,0,0
222329,-90.9090909090909,4,2,1,80,0,0
227105,-90.9090909090909,4,2,1,60,0,0
228150,-83.3333333333333,4,2,1,60,0,0

[Colours]
Combo1 : 255,128,255
Combo2 : 128,255,255
Combo3 : 192,192,192
Combo4 : 255,128,64

[HitObjects]
144,107,8598,5,10,0:0:0:0:
199,163,8747,2,0,P|215:198|210:251,1,80,10|0,0:0|0:0,0:0:0:0:
193,314,9045,1,2,0:0:0:0:
193,314,9195,5,10,0:0:0:0:
214,238,9344,2,0,P|236:205|284:183,1,80,10|0,0:0|0:0,0:0:0:0:
423,214,9642,6,0,B|335:226|359:170|270:185,1,160,2|10,0:0|0:0,0:0:0:0:
136,216,10090,1,10,0:0:0:0:
136,216,10389,6,0,P|142:267|148:324,1,95.9999970703126,2|2,0:0|0:0,0:0:0:0:
146,311,10986,6,0,P|190:263|286:295,1,160,6|8,0:1|0:0,0:0:0:0:
364,256,11433,2,0,P|365:290|372:352,1,80,2|0,0:0|0:0,0:0:0:0:
456,300,11732,1,2,0:0:0:0:
275,281,11881,2,0,P|276:246|283:185,1,80,8|0,0:0|0:0,0:0:0:0:
343,128,12180,6,0,P|393:186|364:256,1,160,2|8,0:0|0:0,0:0:0:0:
275,281,12628,1,2,0:0:0:0:
200,205,12777,2,0,L|279:201,1,80,0|2,0:0|0:0,0:0:0:0:
212,336,13075,2,0,L|132:332,1,80,8|0,0:0|0:0,0:0:0:0:
61,196,13374,6,0,B|89:196|109:168|109:168|157:224|229:196,1,160,2|8,0:0|0:0,0:0:0:0:
212,48,13822,2,0,P|184:88|192:144,1,80,2|0,0:0|0:0,0:0:0:0:
275,281,14120,2,0,P|303:241|295:185,1,80,2|8,0:0|0:0,0:0:0:0:
264,112,14419,6,0,B|316:120|316:120|368:100|368:100|428:108,1,160,0|0,0:0|3:0,0:0:0:0:
419,106,14792,1,0,3:0:0:0:
419,106,14866,1,0,3:0:0:0:
304,211,15016,1,0,3:0:0:0:
394,292,15165,6,0,L|386:244,1,40,2|2,3:3|3:3,0:0:0:0:
304,211,15314,2,0,L|296:259,1,40,2|2,3:3|3:3,0:0:0:0:
242,344,15463,6,0,L|184:348,1,47.9999985351563,2|2,3:3|3:3,0:0:0:0:
192,224,15613,2,0,L|144:220,1,47.9999985351563,2|2,3:3|3:3,0:0:0:0:
84,300,15762,6,0,B|44:308|16:280|16:280|0:232|44:172,1,160,6|0,0:0|0:0,0:0:0:0:
100,124,16210,1,2,0:0:0:0:
192,224,16359,5,8,0:0:0:0:
327,140,16657,1,0,0:0:0:0:
176,104,16956,6,0,B|268:96|232:148|328:140,1,160,2|0,0:0|0:0,0:0:0:0:
412,124,17404,1,2,0:0:0:0:
320,224,17553,5,8,0:0:0:0:
176,104,17851,1,0,0:0:0:0:
256,24,18150,6,0,B|260:76|260:76|252:120|252:120|260:152|260:152|252:184|252:184|260:208|260:208|256:232|256:232|256:268,1,240,2|0,0:0|0:0,0:0:0:0:
256,340,19195,1,8,0:0:0:0:
175,352,19642,6,0,B|166:324|166:324|256:340,1,120.000004577637,8|0,0:0|0:0,0:0:0:0:
354,276,20090,6,0,B|371:238|371:238|255:258,1,160,8|0,0:0|0:0,0:0:0:0:
156,220,20463,1,0,0:0:0:0:
152,208,20538,6,0,B|140:172|140:172|160:104,1,80,6|0,0:0|0:0,0:0:0:0:
188,40,20836,1,8,0:0:0:0:
307,164,20986,2,0,L|228:172,1,80,2|0,0:0|0:0,0:0:0:0:
151,131,21284,1,2,0:0:0:0:
372,105,21433,1,8,0:0:0:0:
372,105,21732,5,2,0:0:0:0:
308,164,21881,1,0,0:0:0:0:
352,20,22031,1,8,0:0:0:0:
454,130,22180,2,0,B|466:166|466:166|446:234,1,80,2|0,0:0|0:0,0:0:0:0:
292,97,22478,2,0,L|372:105,1,80,2|8,0:0|0:0,0:0:0:0:
454,206,22777,1,0,0:0:0:0:
412,280,22926,6,0,P|356:284|300:192,1,160,2|8,0:0|0:0,0:0:0:0:
454,206,23374,1,2,0:0:0:0:
315,371,23523,2,0,P|302:333|307:293,1,80,0|2,0:0|0:0,0:0:0:0:
377,209,23822,1,8,0:0:0:0:
377,209,24120,5,2,0:0:0:0:
396,360,24269,1,0,0:0:0:0:
306,294,24419,1,8,0:0:0:0:
470,272,24568,2,0,L|480:180,1,80,2|0,0:0|0:0,0:0:0:0:
306,294,24866,5,2,0:0:0:0:
396,360,25016,1,8,0:0:0:0:
296,212,25165,1,8,0:0:0:0:
244,376,25314,6,0,B|148:388|188:328|80:344,1,160,6|8,0:0|0:0,0:0:0:0:
0,360,25762,1,2,0:0:0:0:
112,176,25911,2,0,L|124:268,1,80,0|2,0:0|0:0,0:0:0:0:
92,342,26210,1,8,0:0:0:0:
92,342,26508,5,2,0:0:0:0:
34,170,26657,2,0,B|76:164|76:164|112:176,1,80,0|8,0:0|0:0,0:0:0:0:
199,260,26956,2,0,B|157:266|157:266|121:254,1,80,2|0,0:0|0:0,0:0:0:0:
160,104,27254,1,2,0:0:0:0:
209,180,27404,2,0,L|197:272,1,80,8|0,0:0|0:0,0:0:0:0:
304,344,27702,6,0,P|376:324|396:244,1,160,2|8,0:0|0:0,0:0:0:0:
355,178,28150,1,2,0:0:0:0:
347,186,28225,1,0,0:0:0:0:
339,194,28299,2,0,P|319:230|327:278,1,80,0|2,0:0|0:0,0:0:0:0:
456,348,28598,1,8,0:0:0:0:
456,348,28896,5,2,0:0:0:0:
508,192,29045,1,2,0:0:0:0:
420,240,29195,1,2,0:3:0:0:
408,244,29269,1,2,0:3:0:0:
397,248,29344,2,0,P|352:248|296:152,1,160,2|2,0:3|0:0,0:0:0:0:
364,56,29792,6,0,P|368:92|364:128,1,50,10|0,0:0|0:0,0:0:0:0:
212,192,29941,2,0,P|208:156|212:120,1,50,10|0,0:0|0:0,0:0:0:0:
264,8,30090,5,4,0:0:0:0:
264,8,30389,2,0,P|200:20|128:8,1,120.000004577637,2|0,0:0|0:0,0:0:0:0:
128,104,30836,2,0,P|68:97|9:109,1,120.000004577637,2|0,0:0|0:0,0:0:0:0:
96,268,31284,6,0,P|116:228|36:252,2,180.000006866455,2|2|2,0:0|0:0|0:0,0:0:0:0:
44,332,32329,1,0,0:0:0:0:
136,356,32478,6,0,B|172:356|196:320|196:320|240:376|312:352,1,180.000006866455,2|0,0:0|0:0,0:0:0:0:
356,308,33075,2,0,L|348:236,1,60.0000022888184,0|0,0:0|0:0,0:0:0:0:
236,232,33374,2,0,L|244:160,1,60.0000022888184,2|0,0:0|0:0,0:0:0:0:
352,144,33672,5,0,0:0:0:0:
352,144,33822,1,0,0:0:0:0:
288,68,33971,2,0,P|248:56|180:120,1,120.000004577637,2|0,0:0|0:0,0:0:0:0:
352,144,34419,2,0,P|382:115|360:24,1,120.000004577637,2|0,0:0|0:0,0:0:0:0:
254,161,34866,6,0,P|258:228|264:296,1,120.000004577637,2|0,0:0|0:0,0:0:0:0:
332,324,35314,1,0,0:0:0:0:
192,356,35463,2,0,P|188:316|188:268,1,60.0000022888184,0|0,0:0|0:0,0:0:0:0:
340,232,35762,6,0,B|412:224|384:264|468:256,1,120.000004577637,2|0,0:0|0:0,0:0:0:0:
512,196,36210,1,0,0:0:0:0:
500,336,36359,2,0,P|448:336|376:364,1,120.000004577637,2|0,0:0|0:0,0:0:0:0:
308,320,36807,1,0,0:0:0:0:
336,172,36956,2,0,L|340:232,1,60.0000022888184,2|2,0:0|0:0,0:0:0:0:
236,376,37254,6,0,P|220:340|252:248,1,120.000004577637,2|0,0:0|0:0,0:0:0:0:
340,232,37702,1,2,0:0:0:0:
367,322,37851,2,0,P|337:324|308:320,1,60.0000022888184,0|0,0:0|0:0,0:0:0:0:
192,192,38150,2,0,P|152:188|100:228,1,90.0000034332277,2|0,0:0|0:0,0:0:0:0:
80,280,38448,6,0,L|76:308,8,15.0000005722046,0|0|0|0|0|0|0|0|0,0:0|0:0|0:0|0:0|0:0|0:0|0:0|0:0|0:0,0:0:0:0:
24,200,38896,2,0,L|20:172,8,15.0000005722046,0|0|0|0|0|0|0|0|0,0:0|0:0|0:0|0:0|0:0|0:0|0:0|0:0|0:0,0:0:0:0:
88,112,39344,5,0,0:0:0:0:
92,96,39493,1,0,0:0:0:0:
28,36,39642,5,6,0:0:0:0:
152,172,39941,1,8,0:0:0:0:
216,108,40090,2,0,P|264:96|336:180,1,160,2|2,0:0|0:0,0:0:0:0:
259,253,40538,2,0,P|251:214|257:175,1,80,8|0,0:0|0:0,0:0:0:0:
408,128,40836,6,0,P|415:167|409:206,1,80,2|0,0:0|0:0,0:0:0:0:
335,166,41135,1,8,0:0:0:0:
479,251,41284,2,0,P|448:276|411:291,1,80,2|0,0:0|0:0,0:0:0:0:
409,206,41583,1,2,0:0:0:0:
408,375,41732,2,0,P|370:361|339:336,1,80,8|0,0:0|0:0,0:0:0:0:
329,211,42031,6,0,L|409:206,1,80,2|0,0:0|0:0,0:0:0:0:
339,336,42329,1,8,0:0:0:0:
256,320,42478,2,0,B|200:308|200:308|168:280|168:280|100:264,1,160,2|2,0:0|0:0,0:0:0:0:
101,186,42926,2,0,L|109:266,1,80,8|0,0:0|0:0,0:0:0:0:
20,316,43225,6,0,B|4:280|4:280|12:228,1,80,2|0,0:0|0:0,0:0:0:0:
190,136,43523,2,0,B|206:172|206:172|198:224,1,80,8|2,0:0|0:0,0:0:0:0:
32,136,43822,5,8,3:0:0:0:
32,126,43896,1,8,3:0:0:0:
33,116,43971,1,8,3:0:0:0:
34,106,44045,1,8,3:0:0:0:
35,96,44120,1,2,3:0:0:0:
36,86,44195,1,2,3:0:0:0:
37,76,44269,1,2,3:0:0:0:
38,66,44344,1,2,3:0:0:0:
39,56,44419,6,0,P|83:40|159:140,1,160,6|8,0:0|0:0,0:0:0:0:
180,236,44866,2,0,P|144:208|132:168,1,80,2|0,0:0|0:0,0:0:0:0:
161,105,45165,1,2,0:0:0:0:
265,24,45314,2,0,P|258:69|230:99,1,80,8|0,0:0|0:0,0:0:0:0:
161,105,45613,6,0,B|253:94|216:148|316:136,1,160,2|8,0:0|0:0,0:0:0:0:
408,92,46060,1,2,0:0:0:0:
306,56,46210,2,0,L|314:152,1,80,0|2,0:0|0:0,0:0:0:0:
324,276,46508,1,8,0:0:0:0:
512,172,46807,6,0,B|464:156|464:156|428:212|364:200,1,160,8|8,0:0|0:0,0:0:0:0:
228,152,47254,1,0,0:0:0:0:
236,148,47329,1,0,0:0:0:0:
244,144,47404,2,0,B|292:160|292:160|328:104|392:116,1,160,8|8,0:0|0:0,0:0:0:0:
512,172,47851,1,0,0:0:0:0:
362,316,48001,6,0,B|362:291|362:291|370:265|370:265|366:238|366:238|371:201,2,117.333336914063,8|0|0,0:0|0:0|0:0,0:0:0:0:
440,360,48598,1,2,0:0:0:0:
284,260,48896,1,2,0:0:0:0:
136,376,49195,6,0,P|88:376|52:260,1,160,6|8,0:0|0:0,0:0:0:0:
74,157,49642,1,0,0:0:0:0:
113,227,49792,2,0,P|121:265|113:304,1,80,2|0,0:0|0:0,0:0:0:0:
7,197,50090,2,0,P|36:170|73:157,1,80,8|0,0:0|0:0,0:0:0:0:
264,263,50389,6,0,B|173:271|205:219|113:227,1,160,2|8,0:0|0:0,0:0:0:0:
39,287,50836,1,0,0:0:0:0:
176,356,50986,2,0,L|180:268,1,80,2|0,0:0|0:0,0:0:0:0:
70,77,51284,2,0,L|73:156,1,80,8|0,0:0|0:0,0:0:0:0:
179,276,51583,6,0,P|231:280|291:172,1,160,2|8,0:0|0:0,0:0:0:0:
248,124,52031,1,0,0:0:0:0:
371,208,52180,2,0,P|332:215|294:202,1,80,2|0,0:0|0:0,0:0:0:0:
214,52,52478,2,0,P|252:44|290:57,1,80,8|0,0:0|0:0,0:0:0:0:
379,128,52777,6,0,L|370:207,1,80,2|0,0:0|0:0,0:0:0:0:
264,268,53075,1,8,0:0:0:0:
248,124,53225,1,0,0:0:0:0:
331,210,53374,2,0,L|387:206,3,40,2|2|2|2,0:3|0:3|0:3|0:3,0:0:0:0:
264,268,53672,2,0,L|208:264,3,40,8|8|8|8,0:3|0:3|0:3|0:3,0:0:0:0:
336,320,53971,6,0,B|393:314|393:314|429:286|429:286|509:278,1,160,6|8,0:0|0:0,0:0:0:0:
408,176,54419,1,0,0:0:0:0:
331,210,54568,2,0,B|321:172|321:172|333:132,1,80,2|0,0:0|0:0,0:0:0:0:
487,202,54866,2,0,B|497:240|497:240|485:280,1,80,8|0,0:0|0:0,0:0:0:0:
336,320,55165,6,0,P|292:280|188:288,1,160,2|8,0:0|0:0,0:0:0:0:
128,340,55613,1,0,0:0:0:0:
272,240,55762,2,0,P|280:200|264:144,1,80,2|0,0:0|0:0,0:0:0:0:
120,104,56060,2,0,P|112:144|128:200,1,80,8|0,0:0|0:0,0:0:0:0:
196,283,56359,6,0,B|161:281|136:287|136:287|92:267|92:267|68:271|40:271,1,160,8|8,0:0|0:0,0:0:0:0:
28,188,56807,1,0,0:0:0:0:
158,114,56956,6,0,P|136:164|104:189,1,80,8|0,0:0|0:0,0:0:0:0:
286,221,57254,2,0,P|240:250|220:286,1,80,8|0,0:0|0:0,0:0:0:0:
165,99,57553,6,0,P|152:152|125:182,1,80,8|0,0:0|0:0,0:0:0:0:
300,212,57851,2,0,P|249:233|224:265,1,80,8|0,0:0|0:0,0:0:0:0:
166,84,58150,6,0,P|163:138|142:173,1,80,8|0,0:0|0:0,0:0:0:0:
313,208,58449,2,0,P|259:220|229:247,1,80,8|0,0:0|0:0,0:0:0:0:
272,104,58747,5,10,0:0:0:0:
313,208,58896,2,0,B|429:224|381:156|509:172,1,191.999994140625,10|2,0:0|0:0,0:0:0:0:
464,256,59344,5,10,0:0:0:0:
344,128,59493,2,0,B|280:108|232:144|232:144|260:140|296:152,1,143.999995605469,10|0,0:0|0:0,0:0:0:0:
344,128,59792,6,0,B|356:84|356:84|336:32,1,95.9999970703126,2|2,0:0|0:0,0:0:0:0:
312,208,60090,1,10,0:0:0:0:
234,54,60239,2,0,B|232:104|232:104|258:143,1,95.9999970703126,10|0,0:0|0:0,0:0:0:0:
423,150,60538,6,0,P|353:152|312:207,1,143.999995605469,2|2,0:0|0:0,0:0:0:0:
312,208,61135,6,0,B|252:212|252:212|204:192|204:192|136:196,1,176.000005371094,6|8,0:0|0:0,0:0:0:0:
43,308,61583,2,0,P|123:333|184:276,1,176.000005371094,2|2,0:0|0:0,0:0:0:0:
192,96,62031,1,8,0:0:0:0:
140,195,62180,1,0,0:0:0:0:
312,208,62329,6,0,L|300:104,1,88.000002685547,2|0,0:0|0:0,0:0:0:0:
228,176,62628,1,8,0:0:0:0:
396,240,62777,1,2,0:0:0:0:
387,100,62926,2,0,P|344:112|301:119,1,88.000002685547,0|2,0:0|0:0,0:0:0:0:
168,264,63225,2,0,P|211:270|253:283,1,88.000002685547,8|0,0:0|0:0,0:0:0:0:
344,308,63523,6,0,B|324:324|316:344|316:344|252:284|320:200,1,176.000005371094,2|8,0:0|0:0,0:0:0:0:
456,52,63971,2,0,P|468:108|440:168,1,88.000002685547,2|0,0:0|0:0,0:0:0:0:
396,240,64269,1,2,0:0:0:0:
304,140,64419,1,8,0:0:0:0:
387,100,64568,1,0,0:0:0:0:
301,226,64717,6,0,P|255:222|197:214,1,88.000002685547,2|8,0:0|0:0,0:0:0:0:
88,300,65016,2,0,B|116:304|144:276|144:276|184:316|248:300,1,150,8|0,0:0|0:0,0:0:0:0:
301,226,65314,2,0,L|293:166,3,44.0000013427735,2|2|2|2,0:3|0:3|0:3|0:3,0:0:0:0:
212,152,65613,1,8,0:3:0:0:
215,119,65687,1,8,0:3:0:0:
219,86,65762,1,8,0:3:0:0:
223,53,65836,1,8,0:3:0:0:
227,20,65911,6,0,P|268:13|331:0,1,88.000002685547,6|0,0:0|0:0,0:0:0:0:
412,192,66210,1,8,0:0:0:0:
296,92,66359,1,2,0:0:0:0:
436,28,66508,2,0,P|464:80|452:124,1,88.000002685547,0|2,0:0|0:0,0:0:0:0:
352,252,66807,2,0,P|324:200|336:156,1,88.000002685547,8|0,0:0|0:0,0:0:0:0:
380,88,67105,6,0,B|280:108|312:48|188:72,1,176.000005371094,2|8,0:0|0:0,0:0:0:0:
140,216,67553,1,2,0:0:0:0:
236,144,67702,2,0,P|228:232|256:300,1,132.00000402832,0|0,0:0|0:0,0:0:0:0:
256,288,68001,2,0,L|364:260,1,88.000002685547,8|0,0:0|0:0,0:0:0:0:
108,352,68299,6,0,P|52:348|24:224,1,176.000005371094,10|10,0:0|0:0,0:0:0:0:
84,112,68747,1,0,0:0:0:0:
140,216,68896,1,10,0:0:0:0:
180,52,69045,5,0,0:0:0:0:
184,144,69195,1,10,0:0:0:0:
292,40,69344,5,0,0:0:0:0:
260,116,69493,1,2,0:3:0:0:
262,126,69567,1,2,0:3:0:0:
264,137,69642,1,2,0:3:0:0:
266,148,69716,1,2,0:3:0:0:
268,159,69792,2,0,L|256:211,3,44.0000013427735,2|2|2|2,0:3|0:3|0:3|0:3,0:0:0:0:
296,276,70090,5,8,0:3:0:0:
320,254,70164,1,8,0:3:0:0:
352,245,70239,1,8,0:3:0:0:
384,251,70313,1,8,0:3:0:0:
410,271,70389,5,8,0:0:0:0:
380,239,70463,1,8,0:0:0:0:
373,196,70538,1,8,0:0:0:0:
390,157,70612,1,8,0:0:0:0:
428,132,70687,6,0,P|471:127|520:120,1,88.000002685547,6|0,0:0|0:0,0:0:0:0:
388,56,70986,1,8,0:0:0:0:
373,196,71135,2,0,P|325:220|229:132,1,176.000005371094,2|2,0:0|0:0,0:0:0:0:
388,56,71583,1,8,0:0:0:0:
301,52,71732,1,0,0:0:0:0:
301,52,71807,1,0,0:0:0:0:
301,52,71881,6,0,P|305:96|312:139,1,88.000002685547,2|0,0:0|0:0,0:0:0:0:
452,256,72180,1,8,0:0:0:0:
392,136,72329,1,2,0:0:0:0:
316,248,72478,2,0,P|252:264|204:248,1,88.000002685547,0|2,0:0|0:0,0:0:0:0:
228,130,72777,2,0,P|271:124|311:139,1,88.000002685547,8|0,0:0|0:0,0:0:0:0:
208,344,73075,6,0,P|168:320|180:188,1,176.000005371094,2|8,0:0|0:0,0:0:0:0:
316,248,73523,2,0,L|304:340,1,88.000002685547,2|0,0:0|0:0,0:0:0:0:
231,260,73822,1,2,0:0:0:0:
380,188,73971,1,8,0:0:0:0:
256,84,74120,6,0,B|216:44|216:44|240:176,1,176.000005371094,0|0,0:0|0:0,0:0:0:0:
304,335,74568,2,0,B|248:323|248:323|196:343|196:343|120:327,1,176.000005371094,8|0,0:0|0:0,0:0:0:0:
176,216,75016,1,2,0:0:0:0:
31,158,75165,1,8,0:0:0:0:
34,190,75239,1,8,0:3:0:0:
38,223,75314,1,8,0:3:0:0:
42,256,75388,1,8,0:3:0:0:
46,289,75463,6,0,P|99:298|175:198,1,176.000005371094,6|0,0:0|0:0,0:0:0:0:
136,96,75911,1,2,0:0:0:0:
256,132,76060,6,0,L|256:252,1,120.000004577637,8|0,0:0|0:0,0:0:0:0:
466,95,76657,6,0,P|413:86|337:186,1,176.000005371094,2|0,0:0|0:0,0:0:0:0:
376,288,77105,1,2,0:0:0:0:
256,252,77254,6,0,L|256:132,1,120.000004577637,8|0,0:0|0:0,0:0:0:0:
124,72,77851,6,0,B|132:124|108:156|108:156|124:192|124:192|84:216|80:272|140:304|168:288|176:264,1,280,2|8,0:0|0:0,0:0:0:0:
169,275,79344,6,0,B|148:256|148:256|252:232,1,120.000004577637,8|0,0:0|0:0,0:0:0:0:
332,183,79792,6,0,B|358:207|358:207|228:237,1,160,8|0,0:0|0:0,0:0:0:0:
152,176,80165,1,0,0:0:0:0:
144,168,80239,6,0,P|128:132|220:84,1,160,6|8,0:0|0:0,0:0:0:0:
332,184,80687,1,2,0:0:0:0:
236,235,80836,2,0,P|230:192|228:128,1,80,0|2,0:0|0:0,0:0:0:0:
296,44,81135,1,8,0:0:0:0:
296,44,81433,5,2,0:0:0:0:
332,184,81583,1,0,0:0:0:0:
210,78,81732,1,8,0:0:0:0:
418,150,81881,2,0,P|460:124|440:20,1,160,2|2,0:0|0:0,0:0:0:0:
339,104,82329,2,0,P|333:143|331:183,1,80,8|0,0:0|0:0,0:0:0:0:
456,248,82628,6,0,B|372:232|392:296|292:276,1,160,2|8,0:0|0:0,0:0:0:0:
247,159,83075,1,2,0:0:0:0:
259,151,83150,1,0,0:0:0:0:
271,143,83225,2,0,P|319:159|331:203,1,80,0|2,0:0|0:0,0:0:0:0:
228,328,83523,1,8,0:0:0:0:
228,328,83822,5,2,0:0:0:0:
141,200,83971,1,0,0:0:0:0:
303,278,84120,1,8,0:0:0:0:
148,289,84269,1,2,0:0:0:0:
247,159,84419,6,0,L|304:152,3,40,8|8|8|8,0:3|0:3|0:3|0:3,0:0:0:0:
352,204,84717,1,2,0:3:0:0:
379,215,84791,1,2,0:3:0:0:
409,215,84866,1,2,0:3:0:0:
436,204,84940,1,2,0:3:0:0:
457,183,85016,6,0,L|473:83,1,80,6|0,0:0|0:0,0:0:0:0:
352,204,85314,2,0,L|364:282,1,80,8|2,0:0|0:0,0:0:0:0:
375,111,85613,2,0,B|319:103|319:103|279:123|279:123|195:111,1,160,0|8,0:0|0:0,0:0:0:0:
72,72,86060,6,0,P|108:44|160:48,1,80,0|2,0:0|0:0,0:0:0:0:
221,115,86359,1,0,0:0:0:0:
68,146,86508,2,0,P|58:108|71:71,1,80,8|2,0:0|0:0,0:0:0:0:
232,212,86807,1,0,0:0:0:0:
131,112,86956,1,2,0:0:0:0:
292,12,87105,2,0,P|297:55|300:92,1,80,8|0,0:0|0:0,0:0:0:0:
299,91,87329,1,0,0:0:0:0:
299,91,87404,5,2,0:0:0:0:
168,252,87553,2,0,P|155:213|164:174,1,80,0|8,0:0|0:0,0:0:0:0:
336,184,87851,1,2,0:0:0:0:
232,212,88001,2,0,P|180:192|168:88,1,160,0|10,0:0|0:0,0:0:0:0:
336,184,88448,1,0,0:0:0:0:
272,288,88598,6,0,L|180:300,1,80,10|10,0:0|0:0,0:0:0:0:
120,312,88822,1,0,0:0:0:0:
120,312,88896,1,10,0:0:0:0:
232,212,89045,1,10,0:0:0:0:
120,152,89195,2,0,P|112:208|96:248,1,80,2|8,0:0|0:0,0:0:0:0:
208,376,89493,2,0,P|196:337|192:298,1,80,8|8,0:0|0:0,0:0:0:0:
36,172,89792,5,0,0:0:0:0:
176,164,98150,6,0,B|244:172|244:172|296:148,2,107.999996704102,8|0|0,0:0|1:0|1:0,0:0:0:0:
36,144,98747,2,0,L|48:52,1,71.9999978027344,8|0,0:0|0:0,0:0:0:0:
100,204,99045,2,0,L|108:244,3,35.9999989013672,2|0|0|0,0:3|0:0|0:0|0:0,0:0:0:0:
92,272,99344,6,0,P|152:260|220:324,1,143.999995605469,8|8,0:3|0:3,0:0:0:0:
348,340,99941,2,0,L|340:300,3,35.9999989013672,8|8|8|8,0:3|0:3|0:3|0:3,0:0:0:0:
416,260,100239,2,0,L|423:224,3,35.9999989013672,2|2|2|2,0:3|0:3|0:3|0:3,0:0:0:0:
344,164,100538,5,12,0:0:0:0:
344,164,100836,1,8,0:0:0:0:
272,220,100986,2,0,P|220:224|160:144,1,143.999995605469,0|8,0:0|0:0,0:0:0:0:
230,63,101433,2,0,B|256:40|256:40|240:148,1,143.999995605469,0|8,0:0|0:0,0:0:0:0:
92,208,101881,6,0,P|80:168|96:112,2,71.9999978027344,0|0|8,0:0|0:0|0:0,0:0:0:0:
160,264,102329,2,0,P|194:256|236:248,1,71.9999978027344,0|0,0:0|0:0,0:0:0:0:
310,133,102628,2,0,P|275:140|234:149,1,71.9999978027344,2|0,0:0|0:0,0:0:0:0:
224,332,102926,6,0,P|280:332|364:368,1,143.999995605469,8|0,0:0|0:0,0:0:0:0:
448,228,103374,2,0,B|404:208|404:208|432:328,1,143.999995605469,8|0,0:0|0:0,0:0:0:0:
304,216,103822,2,0,L|324:136,1,71.9999978027344,8|0,0:0|0:0,0:0:0:0:
380,80,104120,5,8,0:0:0:0:
228,164,104269,2,0,P|188:124|208:24,1,143.999995605469,0|8,0:0|0:0,0:0:0:0:
368,8,104717,2,0,L|380:80,1,71.9999978027344,0|0,0:0|0:0,0:0:0:0:
304,216,105016,2,0,L|324:136,1,71.9999978027344,2|0,0:0|0:0,0:0:0:0:
496,136,105314,6,0,P|460:148|408:140,1,71.9999978027344,8|0,0:0|0:0,0:0:0:0:
495,247,105613,2,0,P|462:236|426:237,1,71.9999978027344,8|0,0:0|0:0,0:0:0:0:
352,128,105911,6,0,P|312:116|280:76,1,71.9999978027344,8|0,0:0|0:0,0:0:0:0:
352,256,106210,2,0,P|312:268|280:308,1,71.9999978027344,8|0,0:0|0:0,0:0:0:0:
212,108,106508,6,0,P|180:139|132:147,1,71.9999978027344,8|0,0:0|0:0,0:0:0:0:
212,276,106807,2,0,P|180:245|132:237,1,71.9999978027344,8|0,0:0|0:0,0:0:0:0:
56,188,107105,6,0,P|62:157|68:112,1,71.9999978027344,8|0,0:0|0:0,0:0:0:0:
223,37,107404,2,0,P|216:67|211:113,1,71.9999978027344,10|0,0:0|0:0,0:0:0:0:
280,240,107702,6,0,L|332:252,3,35.9999989013672,8|8|8|8,0:3|0:3|0:3|0:3,0:0:0:0:
336,284,108001,1,8,0:3:0:0:
369,296,108075,1,8,0:3:0:0:
404,290,108150,1,8,0:3:0:0:
432,268,108224,1,8,0:3:0:0:
445,235,108299,6,0,L|436:176,3,35.9999989013672,2|2|2|2,0:3|0:3|0:3|0:3,0:0:0:0:
400,176,108598,1,8,0:0:0:0:
404,140,108672,1,8,0:0:0:0:
409,104,108747,1,8,0:0:0:0:
414,68,108821,1,8,0:0:0:0:
418,33,108896,5,10,0:0:0:0:
324,80,109045,2,0,P|284:87|232:63,1,88.000002685547,10|0,0:0|0:0,0:0:0:0:
153,14,109344,1,2,0:0:0:0:
153,14,109493,5,10,0:0:0:0:
240,71,109642,2,0,P|266:101|272:158,1,88.000002685547,10|0,0:0|0:0,0:0:0:0:
268,251,109941,6,0,P|256:196|364:188,1,176.000005371094,2|10,0:0|0:0,0:0:0:0:
452,256,110389,1,10,0:0:0:0:
452,256,110687,6,0,P|393:260|324:264,1,107.999996704102,2|0,0:0|0:0,0:0:0:0:
296,200,110986,1,2,0:0:0:0:
271,189,111060,1,0,0:0:0:0:
245,187,111135,1,0,0:0:0:0:
219,195,111209,1,0,0:0:0:0:
199,213,111284,6,0,P|183:285|283:333,1,176.000005371094,6|8,0:0|0:0,0:0:0:0:
296,200,111732,2,0,P|294:157|288:108,1,88.000002685547,2|0,0:0|0:0,0:0:0:0:
200,124,112031,1,2,0:0:0:0:
257,338,112180,2,0,P|312:348|376:288,1,132.00000402832,8|0,0:0|0:0,0:0:0:0:
376,288,112478,6,0,L|383:180,1,88.000002685547,2|0,0:0|0:0,0:0:0:0:
199,213,112777,1,8,0:0:0:0:
288,112,112926,1,2,0:0:0:0:
283,300,113075,2,0,P|241:310|197:311,1,88.000002685547,0|2,0:0|0:0,0:0:0:0:
112,201,113374,2,0,P|155:202|198:212,1,88.000002685547,8|0,0:0|0:0,0:0:0:0:
75,356,113672,6,0,B|96:320|83:276|83:276|23:248|35:184,1,176.000005371094,2|8,0:0|0:0,0:0:0:0:
95,42,114120,2,0,B|134:84|134:84|106:232,1,176.000005371094,2|2,0:0|0:0,0:0:0:0:
4,320,114568,1,8,0:0:0:0:
181,298,114717,6,0,L|201:198,1,88.000002685547,0|2,0:0|0:0,0:0:0:0:
95,42,115016,1,8,0:0:0:0:
192,112,115165,1,8,0:0:0:0:
255,14,115314,1,10,0:0:0:0:
198,211,115463,5,2,0:3:0:0:
165,216,115537,1,2,0:3:0:0:
134,207,115612,1,2,0:3:0:0:
109,186,115686,1,2,0:3:0:0:
95,156,115762,2,0,L|83:88,1,44.0000013427735,8|8,0:3|0:3,0:0:0:0:
199,68,115911,2,0,L|191:111,1,44.0000013427735,8|8,0:3|0:3,0:0:0:0:
276,192,116060,6,0,B|320:192|348:160|348:160|360:232|440:240,1,176.000005371094,6|8,0:0|0:0,0:0:0:0:
504,232,116508,1,2,0:0:0:0:
453,72,116657,2,0,P|432:109|435:153,1,88.000002685547,0|2,0:0|0:0,0:0:0:0:
485,313,116956,2,0,P|506:275|503:231,1,88.000002685547,8|0,0:0|0:0,0:0:0:0:
276,192,117254,6,0,P|224:232|268:336,1,176.000005371094,2|8,0:0|0:0,0:0:0:0:
348,336,117702,1,2,0:0:0:0:
364,216,117851,2,0,L|348:120,1,88.000002685547,0|2,0:0|0:0,0:0:0:0:
280,76,118150,1,8,0:0:0:0:
440,156,118299,1,0,0:0:0:0:
304,276,118448,6,0,B|260:296|260:296|172:272,1,132.00000402832,10|0,0:0|0:0,0:0:0:0:
160,268,118747,2,0,L|148:208,3,44.0000013427735,10|0|0|0,0:0|0:0|0:0|0:0,0:0:0:0:
24,224,119045,2,0,L|81:243,3,44.0000013427735,10|0|0|0,0:0|0:0|0:0|0:0,0:0:0:0:
130,128,119344,2,0,L|84:168,3,44.0000013427735,10|0|0|0,0:0|0:0|0:0|0:0,0:0:0:0:
80,72,119642,5,10,0:0:0:0:
106,52,119716,1,0,0:0:0:0:
138,48,119791,1,10,0:0:0:0:
169,59,119865,1,0,0:0:0:0:
192,82,119940,1,10,0:0:0:0:
214,107,120016,1,0,0:0:0:0:
245,118,120090,1,10,0:0:0:0:
277,113,120165,1,0,0:0:0:0:
304,94,120239,6,0,L|312:28,3,44.0000013427735,2|2|2|2,0:3|0:3|0:3|0:3,0:0:0:0:
380,200,120538,2,0,L|372:134,3,44.0000013427735,8|8|8|8,0:3|0:3|0:3|0:3,0:0:0:0:
304,276,120836,6,0,B|244:284|244:284|192:268|192:268|132:276,1,176.000005371094,6|8,0:0|0:0,0:0:0:0:
80,184,121284,2,0,P|128:160|208:264,1,176.000005371094,2|2,0:0|0:0,0:0:0:0:
61,337,121732,2,0,P|37:289|45:245,1,88.000002685547,8|0,0:0|0:0,0:0:0:0:
168,128,122031,6,0,L|260:116,1,88.000002685547,2|0,0:0|0:0,0:0:0:0:
340,76,122329,1,8,0:0:0:0:
268,224,122478,1,2,0:0:0:0:
432,192,122628,2,0,L|340:180,1,88.000002685547,0|2,0:0|0:0,0:0:0:0:
182,314,122926,2,0,L|274:302,1,88.000002685547,8|0,0:0|0:0,0:0:0:0:
366,128,123225,6,0,B|326:116|294:128|294:128|254:176|270:232,1,176.000005371094,2|8,0:0|0:0,0:0:0:0:
392,360,123672,2,0,P|408:312|384:260,1,88.000002685547,2|0,0:0|0:0,0:0:0:0:
188,232,123971,2,0,P|172:280|196:332,1,88.000002685547,2|8,0:0|0:0,0:0:0:0:
296,260,124269,6,0,B|300:204|300:204|276:152|276:152|280:80,1,176.000005371094,0|0,0:0|0:0,0:0:0:0:
360,20,124717,2,0,P|404:56|372:112,1,132.00000402832,8|0,0:0|0:0,0:0:0:0:
416,172,125016,5,0,0:0:0:0:
442,152,125090,1,0,0:0:0:0:
462,126,125165,1,2,0:0:0:0:
474,95,125239,1,0,0:0:0:0:
477,62,125314,2,0,L|468:12,1,44.0000013427735,8|8,0:3|0:3,0:0:0:0:
336,136,125463,2,0,L|327:179,1,44.0000013427735,8|8,0:3|0:3,0:0:0:0:
208,84,125613,6,0,B|170:82|144:76|144:76|104:96|104:96|69:86|16:84,1,176.000005371094,6|0,0:0|0:0,0:0:0:0:
164,168,126060,1,2,0:0:0:0:
96,284,126210,6,0,P|132:256|224:280,1,120.000004577637,8|0,0:0|0:0,0:0:0:0:
449,289,126807,6,0,P|370:317|308:261,1,176.000005371094,2|0,0:0|0:0,0:0:0:0:
348,168,127254,1,2,0:0:0:0:
304,84,127404,6,0,B|352:80|352:80|376:88|376:88|449:81,1,120.000004577637,8|0,0:0|0:0,0:0:0:0:
296,276,128001,6,0,B|248:248|248:220|244:180|260:160|260:160|284:220|264:272|228:296|228:296|260:328|256:364,1,363.999983337403,2|8,0:0|0:0,0:0:0:0:
255,364,129493,6,0,P|200:336|188:266,1,120.000004577637,8|0,0:0|0:0,0:0:0:0:
312,247,129941,6,0,P|318:323|254:363,1,160,8|0,0:0|0:0,0:0:0:0:
256,292,130314,1,0,0:0:0:0:
256,292,130389,6,0,B|264:232|264:232|248:192|248:192|256:120,1,160,6|8,0:0|0:0,0:0:0:0:
320,84,130836,1,2,0:0:0:0:
180,234,130986,2,0,B|167:201|167:201|173:156,1,80,0|2,0:0|0:0,0:0:0:0:
328,180,131284,1,8,0:0:0:0:
328,180,131583,5,2,0:0:0:0:
335,282,131732,2,0,L|239:294,1,80,0|8,0:0|0:0,0:0:0:0:
100,224,132031,2,0,L|196:236,1,80,2|0,0:0|0:0,0:0:0:0:
328,180,132329,2,0,L|232:192,1,80,2|8,0:0|0:0,0:0:0:0:
147,58,132628,1,0,0:0:0:0:
172,131,132777,6,0,P|97:117|71:45,1,160,2|8,0:0|0:0,0:0:0:0:
201,3,133225,1,2,0:0:0:0:
201,3,133300,1,0,0:0:0:0:
201,3,133374,2,0,P|220:38|221:78,1,80,0|2,0:0|0:0,0:0:0:0:
100,224,133672,1,8,0:0:0:0:
100,224,133971,5,2,0:0:0:0:
80,144,134120,1,0,0:0:0:0:
179,246,134269,1,8,0:0:0:0:
41,280,134419,1,2,0:0:0:0:
159,166,134568,6,0,L|224:160,3,40,8|8|8|8,0:3|0:3|0:3|0:3,0:0:0:0:
264,216,134866,1,2,0:3:0:0:
291,226,134940,1,2,0:3:0:0:
321,225,135015,1,2,0:3:0:0:
348,213,135089,1,2,0:3:0:0:
368,191,135165,6,0,L|376:103,1,80,6|0,0:0|0:0,0:0:0:0:
264,216,135463,2,0,L|276:304,1,80,8|2,0:0|0:0,0:0:0:0:
159,166,135762,2,0,P|143:102|231:38,1,160,0|8,0:0|0:0,0:0:0:0:
188,248,136210,6,0,P|140:252|96:228,1,80,0|2,0:0|0:0,0:0:0:0:
220,116,136508,1,0,0:0:0:0:
264,216,136657,2,0,P|312:220|356:196,1,80,8|2,0:0|0:0,0:0:0:0:
360,60,136956,1,0,0:0:0:0:
296,144,137105,1,2,0:0:0:0:
296,144,137180,1,0,0:0:0:0:
296,144,137254,1,8,0:0:0:0:
416,252,137404,1,0,0:0:0:0:
472,136,137553,6,0,B|444:128|444:128|376:148,1,80,2|0,0:0|0:0,0:0:0:0:
268,293,137851,2,0,B|296:301|296:301|364:281,1,80,8|2,0:0|0:0,0:0:0:0:
448,212,138150,2,0,B|400:224|400:224|340:208|340:208|280:224,1,160,0|8,0:0|0:0,0:0:0:0:
200,344,138598,1,0,0:0:0:0:
128,184,138747,6,0,L|116:284,1,80,10|10,0:0|0:0,0:0:0:0:
118,275,138971,1,0,0:0:0:0:
117,286,139045,1,2,0:3:0:0:
216,184,139195,1,2,0:3:0:0:
72,108,139344,2,0,L|60:64,2,40,2|0|2,0:3|0:0|0:0,0:0:0:0:
128,184,139642,1,2,0:0:0:0:
0,160,139792,1,10,0:0:0:0:
160,48,139941,5,4,0:0:0:0:
112,100,148299,6,0,L|116:156,3,30.0000011444092,8|8|8|8,0:3|0:3|0:3|0:3,0:0:0:0:
200,152,148598,2,0,L|204:208,3,30.0000011444092,8|8|0|8,0:3|0:3|0:0|0:3,0:0:0:0:
288,204,148896,2,0,L|292:260,3,30.0000011444092,2|2|2|2,0:3|0:3|0:3|0:3,0:0:0:0:
376,256,149195,2,0,L|380:312,3,30.0000011444092,8|8|0|8,0:0|0:0|0:0|0:0,0:0:0:0:
296,336,149493,5,6,0:0:0:0:
450,334,149642,2,0,P|466:294|454:250,1,71.9999978027344,0|8,0:0|0:0,0:0:0:0:
388,145,149941,2,0,B|405:233|361:201|377:285,1,143.999995605469,2|2,0:0|0:0,0:0:0:0:
303,164,150389,2,0,P|300:128|315:96,1,71.9999978027344,8|0,0:0|0:0,0:0:0:0:
480,132,150687,5,2,0:0:0:0:
388,144,150836,1,0,0:0:0:0:
423,58,150986,1,8,0:0:0:0:
254,228,151284,5,0,0:0:0:0:
333,238,151433,1,2,0:0:0:0:
303,164,151583,1,8,0:0:0:0:
160,308,151881,5,2,0:0:0:0:
100,256,152031,2,0,B|88:232|88:232|96:176,1,71.9999978027344,0|8,0:0|0:0,0:0:0:0:
186,80,152329,2,0,L|172:224,1,143.999995605469,2|2,0:0|0:0,0:0:0:0:
263,116,152777,2,0,B|270:72|270:72|258:48,1,71.9999978027344,8|0,0:0|0:0,0:0:0:0:
116,32,153075,5,2,0:0:0:0:
8,44,153225,1,0,0:0:0:0:
73,132,153374,1,8,0:0:0:0:
263,116,153672,5,2,0:0:0:0:
407,132,153822,1,2,0:0:0:0:
320,249,153971,1,2,0:0:0:0:
147,202,154269,5,6,0:0:0:0:
197,278,154419,2,0,P|229:242|233:190,1,71.9999978027344,0|8,0:0|0:0,0:0:0:0:
59,209,154717,2,0,P|74:254|117:284,1,71.9999978027344,2|0,0:0|0:0,0:0:0:0:
187,123,155016,2,0,P|139:113|92:135,1,71.9999978027344,2|8,0:0|0:0,0:0:0:0:
197,278,155314,1,0,0:0:0:0:
320,249,155463,5,2,0:0:0:0:
264,177,155613,1,0,0:0:0:0:
328,117,155762,2,0,L|340:37,1,71.9999978027344,8|2,0:0|0:0,0:0:0:0:
197,278,156060,5,0,0:0:0:0:
264,177,156210,1,2,0:0:0:0:
176,96,156359,2,0,L|164:0,1,71.9999978027344,8|0,0:0|0:0,0:0:0:0:
36,216,156657,6,0,B|124:232|92:180|196:196,1,143.999995605469,2|8,0:0|0:0,0:0:0:0:
292,280,157105,2,0,P|308:328|296:368,1,71.9999978027344,2|0,0:0|0:0,0:0:0:0:
197,278,157404,1,2,0:0:0:0:
264,177,157553,2,0,P|328:168|368:168,1,71.9999978027344,8|0,0:0|0:0,0:0:0:0:
488,264,157851,6,0,P|444:268|396:240,1,100,8|8,0:3|0:3,0:0:0:0:
362,27,158150,2,0,P|399:49|422:100,1,100,8|8,0:3|0:3,0:0:0:0:
324,292,158448,2,0,P|306:251|318:197,1,100,2|2,0:3|0:3,0:0:0:0:
511,100,158747,2,0,P|501:143|459:180,1,100,8|8,0:0|0:0,0:0:0:0:
246,146,159045,5,6,0:0:0:0:
176,84,159195,2,0,L|188:0,1,71.9999978027344,0|8,0:0|0:0,0:0:0:0:
316,208,159493,2,0,L|304:292,1,71.9999978027344,2|0,0:0|0:0,0:0:0:0:
308,76,159792,2,0,L|392:88,1,71.9999978027344,2|8,0:0|0:0,0:0:0:0:
184,216,160090,1,0,0:0:0:0:
108,188,160239,5,2,0:0:0:0:
246,164,160389,1,0,0:0:0:0:
197,295,160538,1,8,0:0:0:0:
427,228,160836,5,0,0:0:0:0:
316,208,160986,1,2,0:0:0:0:
355,313,161135,1,8,0:0:0:0:
388,123,161433,5,2,0:0:0:0:
416,40,161583,2,0,P|376:36|328:60,1,71.9999978027344,0|8,0:0|0:0,0:0:0:0:
242,170,161881,2,0,P|282:174|330:150,1,71.9999978027344,2|0,0:0|0:0,0:0:0:0:
264,18,162180,2,0,P|260:58|284:106,1,71.9999978027344,2|8,0:0|0:0,0:0:0:0:
394,192,162478,1,0,0:0:0:0:
452,120,162628,5,2,0:0:0:0:
440,268,162777,1,0,0:0:0:0:
394,192,162926,1,8,0:0:0:0:
174,85,163225,5,0,0:0:0:0:
188,260,163374,1,2,0:0:0:0:
242,170,163523,1,8,0:0:0:0:
120,175,163672,1,0,0:0:0:0:
132,332,163822,5,2,0:3:0:0:
154,347,163896,1,2,0:3:0:0:
179,354,163971,1,2,0:3:0:0:
206,352,164045,1,2,0:3:0:0:
231,342,164120,2,0,L|272:328,1,35.9999989013672,2|0,0:3|0:0,0:0:0:0:
344,264,164269,2,0,L|303:250,1,35.9999989013672,8|8,0:3|0:3,0:0:0:0:
242,170,164419,5,8,0:3:0:0:
238,152,164493,1,8,0:3:0:0:
234,134,164568,1,8,0:3:0:0:
231,117,164642,1,0,0:0:0:0:
227,99,164717,2,0,P|251:111|267:139,1,35.9999989013672,0|0,0:0|0:0,0:0:0:0:
120,175,164866,2,0,P|118:148|134:120,1,35.9999989013672,0|0,0:0|0:0,0:0:0:0:
240,230,165016,6,0,P|217:244|185:244,3,35.9999989013672,10|0|0|0,0:0|0:0|0:0|0:0,0:0:0:0:
336,152,165314,1,10,0:0:0:0:
360,141,165388,1,0,0:0:0:0:
387,141,165463,1,10,0:0:0:0:
412,150,165537,1,0,0:0:0:0:
432,172,165613,6,0,L|444:224,1,35.9999989013672,10|2,0:0|0:0,0:0:0:0:
344,264,165762,2,0,L|356:316,1,35.9999989013672,2|0,0:0|0:0,0:0:0:0:
440,328,165911,6,0,L|431:292,1,35.9999989013672,2|2,0:0|0:0,0:0:0:0:
264,270,166060,2,0,L|256:235,1,35.9999989013672,2|2,0:0|0:0,0:0:0:0:
360,141,166210,5,8,0:0:0:0:
272,84,166359,2,0,P|220:72|128:152,1,176.000005371094,10|10,0:0|0:0,0:0:0:0:
184,280,166807,1,10,0:0:0:0:
229,195,166956,6,0,P|233:147|209:191,1,132.00000402832,10|0,0:0|0:0,0:0:0:0:
229,195,167254,6,0,B|304:200|304:200|332:184|332:184|408:188,1,176.000005371094,10|2,0:0|0:0,0:0:0:0:
512,300,167702,1,10,0:0:0:0:
136,196,179344,6,0,P|152:132|116:72,1,120.000004577637,2|2,0:0|0:0,0:0:0:0:
130,85,179792,2,0,P|177:130|247:129,1,120.000004577637,2|2,0:0|0:0,0:0:0:0:
304,108,180239,2,0,P|320:72|312:32,1,60.0000022888184,0|2,0:0|0:0,0:0:0:0:
452,24,180538,6,0,P|456:72|508:104,1,90.0000034332277
492,107,180836,2,0,P|448:86|394:115,1,90.0000034332277
400,100,181135,2,0,P|440:72|442:11,1,90.0000034332277,2|0,0:0|0:0,0:0:0:0:
452,24,181433,2,0,L|384:16,1,60.0000022888184,2|0,0:0|0:0,0:0:0:0:
200,141,181732,6,0,P|258:145|304:108,1,120.000004577637,2|2,0:0|0:0,0:0:0:0:
304,108,182180,2,0,P|271:156|281:214,1,120.000004577637,2|2,0:0|0:0,0:0:0:0:
344,264,182628,1,0,0:0:0:0:
281,214,182777,6,0,B|153:190|193:302|61:278,1,240.000009155274,2|0,0:0|0:0,0:0:0:0:
12,208,183523,1,0,0:0:0:0:
13,196,183597,1,0,0:0:0:0:
14,185,183672,1,0,0:0:0:0:
15,174,183746,1,0,0:0:0:0:
17,163,183821,1,0,0:0:0:0:
18,152,183896,1,0,0:0:0:0:
19,140,183970,1,0,0:0:0:0:
21,129,184045,1,0,0:0:0:0:
22,118,184120,6,0,L|10:54,3,40,8|8|8|8,0:3|0:3|0:3|0:3,0:0:0:0:
112,160,184419,2,0,L|133:98,3,40,8|8|0|8,0:3|0:3|0:0|0:3,0:0:0:0:
168,241,184717,2,0,L|217:198,3,40,2|2|2|2,0:3|0:3|0:3|0:3,0:0:0:0:
175,339,185016,2,0,L|239:327,3,40,2|2|0|2,0:3|0:3|0:0|0:3,0:0:0:0:
84,292,185314,6,0,L|32:284,3,40,8|8|8|8,0:3|0:3|0:3|0:3,0:0:0:0:
168,241,185613,2,0,L|126:208,3,40,8|8|0|8,0:3|0:3|0:0|0:3,0:0:0:0:
266,238,185911,2,0,L|246:188,3,40,2|2|2|2,0:3|0:3|0:3|0:3,0:0:0:0:
352,284,186210,2,0,L|360:231,3,40,2|2|0|2,0:3|0:3|0:0|0:3,0:0:0:0:
403,367,186508,5,2,0:0:0:0:
426,358,186582,1,2,0:0:0:0:
446,343,186657,1,2,0:0:0:0:
462,324,186731,1,2,0:0:0:0:
472,301,186806,1,2,0:0:0:0:
477,277,186881,1,2,0:0:0:0:
475,252,186955,1,2,0:0:0:0:
467,228,187030,1,2,0:0:0:0:
453,207,187105,6,0,L|460:152,1,40,10|10,0:0|0:0,0:0:0:0:
292,192,187254,2,0,L|299:137,1,40,10|10,0:0|0:0,0:0:0:0:
368,84,187404,6,0,L|375:131,1,47.9999985351563,10|10,0:0|0:0,0:0:0:0:
206,98,187553,2,0,L|213:145,1,47.9999985351563,10|10,0:0|0:0,0:0:0:0:
282,271,188001,6,0,L|292:192,1,80,0|0,0:0|0:0,0:0:0:0:
276,168,188448,6,0,L|261:287,1,120.000004577637
292,364,188896,6,0,B|336:328|336:328|352:208,1,176.000005371094,6|8,0:0|0:0,0:0:0:0:
224,80,189344,1,0,0:0:0:0:
191,177,189493,2,0,B|236:184|236:184|276:168,1,88.000002685547,2|0,0:0|0:0,0:0:0:0:
288,20,189792,1,8,0:0:0:0:
132,120,189941,6,0,P|84:128|12:32,1,176.000005371094,0|0,0:0|0:0,0:0:0:0:
224,80,190389,2,0,P|232:132|220:168,1,88.000002685547,8|0,0:0|0:0,0:0:0:0:
140,288,190687,2,0,P|181:255|218:247,1,88.000002685547,2|0,0:0|0:0,0:0:0:0:
363,257,190986,2,0,P|313:237|288:209,1,88.000002685547,8|0,0:0|0:0,0:0:0:0:
224,80,191284,6,0,B|320:64|292:128|408:108,1,176.000005371094,2|8,0:0|0:0,0:0:0:0:
448,16,191732,2,0,L|348:28,1,88.000002685547,0|0,0:0|0:0,0:0:0:0:
290,212,192031,1,0,0:0:0:0:
392,110,192180,1,8,0:0:0:0:
472,236,192329,6,0,P|480:312|380:356,1,176.000005371094,0|8,0:0|0:0,0:0:0:0:
298,299,192777,2,0,L|290:212,1,88.000002685547,8|0,0:0|0:0,0:0:0:0:
196,92,193075,5,8,0:3:0:0:
194,108,193149,1,8,0:3:0:0:
192,124,193224,1,8,0:3:0:0:
190,141,193298,1,8,0:3:0:0:
188,157,193373,1,2,0:3:0:0:
186,173,193448,1,2,0:3:0:0:
184,190,193522,1,2,0:3:0:0:
182,206,193597,1,2,0:3:0:0:
180,223,193672,6,0,B|144:232|112:215|112:215|144:291|104:327,1,176.000005371094,6|8,0:0|0:0,0:0:0:0:
36,272,194120,1,0,0:0:0:0:
188,364,194269,2,0,P|231:364|263:336,1,88.000002685547,2|0,0:0|0:0,0:0:0:0:
316,152,194568,2,0,P|308:208|308:248,1,88.000002685547,8|0,0:0|0:0,0:0:0:0:
484,308,194866,6,0,B|456:272|396:264|396:264|380:316|331:327,1,176.000005371094,2|8,0:0|0:0,0:0:0:0:
188,364,195314,1,0,0:0:0:0:
141,209,195463,2,0,B|235:186|207:262|307:238,1,176.000005371094,2|8,0:0|0:0,0:0:0:0:
408,156,195911,1,0,0:0:0:0:
331,20,196060,6,0,P|274:79|315:151,1,176.000005371094,10|10,0:0|0:0,0:0:0:0:
456,224,196508,1,2,0:0:0:0:
288,272,196657,5,10,0:0:0:0:
364,224,196807,1,2,0:0:0:0:
282,94,196956,5,10,0:0:0:0:
285,183,197106,1,2,0:0:0:0:
456,224,197254,6,0,L|466:180,3,44.0000013427735,8|0|8|0,0:0|0:0|0:0|0:0,0:0:0:0:
384,340,197553,2,0,L|394:384,3,44.0000013427735,8|0|8|0,0:0|0:0|0:0|0:0,0:0:0:0:
288,272,197851,5,8,0:3:0:0:
261,252,197925,1,8,0:3:0:0:
229,245,198000,1,8,0:3:0:0:
197,251,198074,1,8,0:3:0:0:
170,269,198149,1,10,0:3:0:0:
142,287,198225,1,10,0:3:0:0:
110,293,198299,1,10,0:3:0:0:
78,285,198374,1,10,0:3:0:0:
52,266,198448,6,0,P|32:222|119:131,1,176.000005371094,6|8,0:0|0:0,0:0:0:0:
194,206,198896,2,0,P|153:220|111:211,1,88.000002685547,2|0,0:0|0:0,0:0:0:0:
56,68,199195,2,0,P|97:54|139:63,1,88.000002685547,2|8,0:0|0:0,0:0:0:0:
52,266,199493,1,0,0:0:0:0:
200,124,199642,6,0,B|296:108|264:180|376:160,1,176.000005371094,2|8,0:0|0:0,0:0:0:0:
464,112,200090,1,2,0:0:0:0:
349,5,200239,2,0,P|326:42|336:84,1,88.000002685547,0|2,0:0|0:0,0:0:0:0:
456,192,200538,1,8,0:0:0:0:
424,40,200687,1,0,0:0:0:0:
365,161,200836,6,0,P|313:185|229:101,1,176.000005371094,2|8,0:0|0:0,0:0:0:0:
222,41,201284,6,0,B|254:13|254:13|226:129,1,150,12|0,0:0|0:0,0:0:0:0:
120,168,201583,2,0,B|88:140|88:140|116:256,1,150,12|0,0:0|0:0,0:0:0:0:
227,317,201881,6,0,B|254:313|290:311|290:311|342:271|342:271|381:269|430:263,1,200,8|0,0:0|0:0,0:0:0:0:
504,224,202329,2,0,B|516:272|516:272|496:332,1,100,8|8,0:0|0:0,0:0:0:0:
268,216,202628,5,2,0:0:0:0:
254,195,202702,1,2,0:0:0:0:
250,170,202777,1,2,0:0:0:0:
258,147,202851,1,0,0:0:0:0:
275,129,202926,5,2,0:0:0:0:
237,132,203000,1,2,0:0:0:0:
200,136,203075,1,2,0:0:0:0:
163,140,203149,1,2,0:0:0:0:
125,144,203225,6,0,L|104:48,1,88.000002685547,6|0,0:0|0:0,0:0:0:0:
125,239,203523,2,0,L|104:336,1,88.000002685547,0|2,0:0|0:0,0:0:0:0:
200,192,203822,6,0,B|256:124|256:124|312:192,1,176.000005371094,8|0,0:0|0:0,0:0:0:0:
405,325,204419,6,0,L|386:239,1,88.000002685547,2|0,0:0|0:0,0:0:0:0:
405,58,204717,2,0,L|386:144,1,88.000002685547,0|2,0:0|0:0,0:0:0:0:
312,192,205016,6,0,B|256:260|256:260|200:192,1,176.000005371094,8|0,0:0|0:0,0:0:0:0:
256,72,205613,6,0,B|324:253|192:184|264:368,1,287.999991210938,2|0,0:0|0:0,0:0:0:0:
372,268,206657,5,8,0:0:0:0:
372,268,207105,2,0,P|328:264|364:304,1,120.000004577637,8|0,0:0|0:0,0:0:0:0:
424,204,207553,6,0,P|368:176|260:220,1,160,8|2,0:0|0:0,0:0:0:0:
192,264,207926,1,2,0:0:0:0:
184,276,208001,6,0,B|192:220|192:220|168:180|168:180|180:96,1,160,6|8,0:0|0:0,0:0:0:0:
104,240,208448,1,2,0:0:0:0:
256,159,208598,2,0,L|268:72,1,80,0|2,0:0|0:0,0:0:0:0:
128,24,208896,1,8,0:0:0:0:
128,24,209195,5,2,0:0:0:0:
98,130,209344,2,0,P|138:135|176:124,1,80,0|8,0:0|0:0,0:0:0:0:
299,9,209642,2,0,P|274:40|266:79,1,80,2|0,0:0|0:0,0:0:0:0:
304,243,209941,2,0,P|288:206|259:179,1,80,2|8,0:0|0:0,0:0:0:0:
175,124,210239,1,0,0:0:0:0:
232,292,210389,6,0,B|328:308|292:248|400:268,1,160,2|8,0:0|0:0,0:0:0:0:
496,312,210836,1,2,0:0:0:0:
488,320,210911,1,0,0:0:0:0:
480,328,210986,2,0,P|460:288|480:232,1,80,0|2,0:0|0:0,0:0:0:0:
512,140,211284,1,8,0:0:0:0:
512,140,211583,6,0,L|424:148,1,80,2|0,0:0|0:0,0:0:0:0:
305,258,211881,2,0,L|393:266,1,80,8|2,0:0|0:0,0:0:0:0:
352,100,212180,5,2,0:3:0:0:
324,88,212254,1,2,0:3:0:0:
294,89,212329,1,2,0:3:0:0:
268,102,212403,1,2,0:3:0:0:
249,125,212478,1,8,0:3:0:0:
230,148,212554,1,8,0:3:0:0:
203,161,212628,1,8,0:3:0:0:
173,162,212703,1,8,0:3:0:0:
145,149,212777,6,0,P|138:110|142:71,1,80,6|0,0:0|0:0,0:0:0:0:
312,164,213075,2,0,P|319:203|315:242,1,80,8|2,0:0|0:0,0:0:0:0:
232,284,213374,2,0,P|296:268|388:348,1,160,0|8,0:0|0:0,0:0:0:0:
240,372,213822,6,0,B|144:364|192:320|88:312,1,160,0|0,0:0|0:0,0:0:0:0:
4,264,214269,1,8,0:0:0:0:
4,376,214419,1,2,0:0:0:0:
84,228,214568,2,0,P|88:192|60:140,2,80,0|0|8,0:0|0:0|0:0,0:0:0:0:
4,264,215016,1,0,0:0:0:0:
164,256,215165,5,2,0:0:0:0:
135,99,215314,2,0,P|103:77|64:72,1,80,0|8,0:0|0:0,0:0:0:0:
84,228,215613,1,2,0:0:0:0:
200,172,215762,2,0,B|288:152|260:224|368:200,1,160,0|8,0:0|0:0,0:0:0:0:
428,152,216210,1,0,0:0:0:0:
316,40,216359,6,0,L|324:119,1,80,8|0,0:3|0:0,0:0:0:0:
324,119,216583,1,8,0:3:0:0:
324,119,216657,1,8,0:3:0:0:
200,172,216807,1,8,0:3:0:0:
268,280,216956,2,0,L|276:200,1,80,2|0,0:3|0:0,0:0:0:0:
116,64,217254,2,0,L|124:143,1,80,10|10,0:0|0:0,0:0:0:0:
188,308,217553,5,6,0:0:0:0:
352,292,217702,1,0,0:0:0:0:
188,308,217851,2,0,B|168:272|168:272|176:232,1,80,8|2,0:0|0:0,0:0:0:0:
280,144,218150,2,0,B|220:152|220:152|180:136|180:136|116:144,1,160,0|8,0:0|0:0,0:0:0:0:
232,64,218598,6,0,L|320:52,1,80,0|0,0:0|0:0,0:0:0:0:
280,232,218896,1,0,0:0:0:0:
359,154,219045,2,0,L|271:142,1,80,8|2,0:0|0:0,0:0:0:0:
311,322,219343,1,0,0:0:0:0:
200,242,219493,2,0,L|288:230,1,80,2|8,0:0|0:0,0:0:0:0:
424,208,219792,1,0,0:0:0:0:
435,206,219866,1,0,0:0:0:0:
446,204,219941,6,0,P|458:170|438:116,1,80,2|0,0:0|0:0,0:0:0:0:
306,77,220239,2,0,P|294:111|314:165,1,80,8|2,0:0|0:0,0:0:0:0:
496,68,220538,2,0,P|444:52|372:144,1,160,0|8,0:0|0:0,0:0:0:0:
392,280,220986,1,0,0:0:0:0:
446,204,221135,6,0,L|354:196,1,80,2|2,0:0|0:0,0:0:0:0:
306,77,221433,1,10,0:0:0:0:
272,176,221583,1,10,0:0:0:0:
132,94,221732,2,0,L|212:88,1,80,10|2,0:0|0:0,0:0:0:0:
192,240,222031,2,0,L|112:233,1,80,2|0,0:0|0:0,0:0:0:0:
36,224,222254,1,0,0:0:0:0:
36,224,222329,6,0,B|24:184|24:184|40:124,1,88.000002685547,6|0,0:0|0:0,0:0:0:0:
143,18,222628,1,8,0:0:0:0:
112,188,222777,1,2,0:0:0:0:
8,64,222926,2,0,B|68:56|68:56|108:124|192:88,1,176.000005371094,0|8,0:0|0:0,0:0:0:0:
264,0,223374,6,0,B|276:40|276:40|260:100,1,88.000002685547,0|0,0:0|0:0,0:0:0:0:
112,188,223672,1,0,0:0:0:0:
216,280,223822,2,0,L|200:184,1,88.000002685547,8|0,0:0|0:0,0:0:0:0:
188,120,224045,1,0,0:0:0:0:
188,120,224120,1,0,0:0:0:0:
296,236,224269,1,2,0:0:0:0:
112,188,224419,2,0,P|56:180|8:184,1,88.000002685547,8|0,0:0|0:0,0:0:0:0:
12,352,224717,6,0,P|68:360|116:356,1,88.000002685547,2|0,0:0|0:0,0:0:0:0:
196,200,225016,1,8,0:0:0:0:
60,268,225165,1,2,0:0:0:0:
184,376,225314,2,0,P|200:336|180:272,1,88.000002685547,0|2,0:0|0:0,0:0:0:0:
305,152,225613,2,0,P|289:192|309:256,1,88.000002685547,8|0,0:0|0:0,0:0:0:0:
404,304,225911,6,0,L|460:296,3,44.0000013427735,8|0|8|0,0:0|0:0|0:0|0:0,0:0:0:0:
492,228,226210,1,2,0:0:0:0:
500,200,226284,1,2,0:0:0:0:
496,168,226359,1,2,0:0:0:0:
480,140,226433,1,2,0:0:0:0:
456,124,226508,6,0,P|427:117|392:124,1,44.0000013427735,2|0,0:0|0:0,0:0:0:0:
318,249,226657,2,0,P|345:237|369:211,1,44.0000013427735,2|2,0:0|0:0,0:0:0:0:
356,68,226807,2,0,P|340:93|336:128,1,44.0000013427735,2|0,0:0|0:0,0:0:0:0:
433,236,226956,2,0,P|430:206|413:175,1,44.0000013427735,8|0,0:0|0:0,0:0:0:0:
271,145,227105,5,14,0:0:0:0:
232,240,227254,2,0,P|182:259|123:242,1,88.000002685547,10|0,0:0|0:0,0:0:0:0:
86,173,227553,1,2,0:0:0:0:
86,173,227702,5,10,0:0:0:0:
216,80,227851,2,0,P|258:113|272:172,1,88.000002685547,10|0,0:0|0:0,0:0:0:0:
114,102,228150,6,0,B|78:98|56:59|56:59|85:172,1,191.999994140625,10|2,0:0|0:0,0:0:0:0:
130,23,228598,1,10,0:0:0:0:
